<?xml version="1.0" standalone="no"?>
<!DOCTYPE svg PUBLIC "-//W3C//DTD SVG 1.1//EN" "http://www.w3.org/Graphics/SVG/1.1/DTD/svg11.dtd" >
<svg xmlns="http://www.w3.org/2000/svg">
<metadata>
This is a custom SVG webfont generated by Font Squirrel.
Copyright   : Copyright c 20092010 Ed Merritt ededmerrittcomThis Font Software is licensed under the SIL Open Font License Version 11This license is available with a FAQ at httpscriptssilorgOFL
Designer    : Ed Merritt 
Foundry     : Ten by Twenty
Foundry URL : httpwwwtenbytwentycom
</metadata>
<defs>
<font id="JuraItalic" horiz-adv-x="1132" >
<font-face units-per-em="2048" ascent="1602" descent="-446" />
<missing-glyph horiz-adv-x="512" />
<glyph unicode=" "  horiz-adv-x="512" />
<glyph unicode="&#x09;" horiz-adv-x="512" />
<glyph unicode="&#xa0;" horiz-adv-x="512" />
<glyph unicode="!" horiz-adv-x="333" d="M55 80q12 80 105 80q45 0 63.5 -21.5t12.5 -58.5q-16 -80 -105 -80q-90 0 -76 80zM131 281l135 999q12 80 105 80q94 0 75 -80l-217 -999q-10 -41 -55 -41q-49 0 -43 41z" />
<glyph unicode="&#x22;" horiz-adv-x="548" d="M285 1294q0 49 2 97q16 90 102 90q59 0 72.5 -30t5.5 -60q-12 -47 -27.5 -96.5t-33 -89.5t-37 -65.5t-37.5 -25.5t-28.5 25.5t-14.5 65.5t-4 89zM500 1294q0 49 2 97q16 90 102 90q59 0 72.5 -30t5.5 -60q-12 -47 -27.5 -96.5t-33 -89.5t-37 -65.5t-37.5 -25.5 t-28.5 25.5t-14.5 65.5t-4 89z" />
<glyph unicode="#" horiz-adv-x="1288" d="M123 467l4 14l23 60q18 41 57 41h244l65 198h-266q-33 0 -29 25q4 12 6 14l21 62q18 39 57 39h258l135 401q12 39 56 39h41q31 0 26 -23l-4 -16l-133 -401h240l135 401q12 39 55 39h41q31 0 27 -23l-4 -16l-136 -401h263q31 0 28 -27q-2 -4 -3 -7t-1 -7l-20 -60 q-23 -41 -60 -41h-252l-65 -198h274q31 0 27 -23l-4 -16l-21 -62q-18 -39 -57 -39h-266l-133 -399q-16 -41 -58 -41h-41q-31 0 -28 27q4 12 6 14l133 399h-240l-133 -399q-16 -41 -57 -41h-41q-31 0 -27 25q2 14 6 16l131 399h-251q-31 0 -29 27zM571 582h240l66 196h-240z " />
<glyph unicode="$" horiz-adv-x="950" d="M70 74l18 196l2 9q6 35 33 34q41 0 47 -41l14 -79q27 -35 90 -70q14 -8 33 -15.5t41 -11.5l101 566q-53 29 -94.5 61.5t-69.5 71.5q-72 96 -47 225q23 129 101.5 212t188.5 114l43 12l9 45q6 41 45 41q41 0 34 -41l-6 -35q8 2 17 2h16q29 0 31 -2l6 35q6 41 45 41 q41 0 35 -41l-8 -45q10 -2 18 -3t18 -5q78 -16 154 -62l-16 -196q-4 -23 -13.5 -33t-31.5 -10q-31 0 -37 41l-13 79q-31 35 -79 64l-21 12l-90 -514q123 -63 178 -139q66 -90 43 -211q-29 -154 -109.5 -249t-203.5 -124l-37 -8l-12 -66q-6 -39 -47 -38q-41 0 -31 41l8 51 q-10 -2 -22 -2h-23h-18l-11 -52q-6 -39 -47 -38q-41 0 -30 41l8 57q-35 4 -70 12q-90 21 -190 68zM401 1040q-14 -78 45 -155l35 -35l70 391q-18 -8 -34.5 -17.5t-31.5 -23.5q-70 -60 -84 -160zM428 90h6h30q13 0 28 2l88 504q-12 8 -27 15l-31 16zM553 797q12 -8 27 -16 l30 -15l88 496q-2 2 -24 2h-20q-9 0 -19 -2zM575 115q43 20 70 45q74 68 98 200q12 68 -43 140q-18 25 -49 49z" />
<glyph unicode="%" horiz-adv-x="1417" d="M127 -2l1219 1360h106l-1212 -1360h-113zM219 885.5q-10 60.5 2 134.5q20 117 80.5 203t155.5 120q31 12 60.5 17.5t57.5 5.5q63 0 113.5 -23.5t81.5 -68.5t42 -109.5t-3 -144.5q-27 -147 -120 -238.5t-234 -91.5q-66 0 -115 24.5t-80 67.5t-41 103.5zM350 1020 q-18 -104 8.5 -172t112.5 -68q80 0 134 62.5t73 173.5q23 123 -4 193.5t-113 70.5q-31 0 -69 -16q-55 -23 -90.5 -87.5t-51.5 -156.5zM772 189.5q-10 60.5 2 134.5q20 117 82 202.5t154 120.5q31 12 60.5 17.5t57.5 5.5q63 0 113.5 -23.5t81.5 -69t42 -110t-3 -143.5 q-27 -147 -120 -238.5t-234 -91.5q-66 0 -115 24.5t-80 67.5t-41 103.5zM903 324q-18 -104 8.5 -172t112.5 -68q80 0 134 62.5t75 172.5q23 123 -5 194t-114 71q-31 0 -70 -17q-55 -23 -90 -87t-51 -156z" />
<glyph unicode="&#x26;" horiz-adv-x="1298" d="M117 426q12 74 49 141.5t88 125t113.5 100.5t128.5 67q-51 100 -31 203q25 141 112 219t216 78q53 0 89 -19.5t56 -51.5t25.5 -71.5t-0.5 -78.5q-12 -74 -74 -138.5t-199 -130.5l223 -430l68 150h80l-111 -219l119 -219q6 -8 14.5 -16.5t18.5 -14.5l43 -25 q23 -12 38 -24.5t11 -30.5q-10 -41 -43 -41h-152q-33 0 -47 25l-94 165q-115 -190 -385 -190q-98 0 -172 31.5t-120 89t-63 135.5t-1 170zM303 473q-12 -66 1 -131.5t45 -116.5t81 -82.5t111 -31.5q104 0 174.5 39.5t101.5 99.5l-282 541q-33 -8 -69 -35t-68.5 -68 t-57.5 -95t-37 -120zM618.5 1033q8.5 -50 30.5 -103q164 61 187 188q16 86 -8.5 127t-65.5 41q-63 0 -96 -39t-45 -110q-11 -54 -2.5 -104z" />
<glyph unicode="'" horiz-adv-x="333" d="M285 1294q0 49 2 97q16 90 102 90q59 0 72.5 -30t5.5 -60q-12 -47 -27.5 -96.5t-33 -89.5t-37 -65.5t-37.5 -25.5t-28.5 25.5t-14.5 65.5t-4 89z" />
<glyph unicode="(" horiz-adv-x="423" d="M172 739q70 406 334 822q27 39 59 38q29 0 21 -38q-92 -207 -155.5 -412t-98.5 -410q-37 -207 -45 -410.5t10 -408.5q-6 -41 -35 -41q-33 0 -45 41q-119 411 -45 819z" />
<glyph unicode=")" horiz-adv-x="425" d="M27 -80q92 205 155.5 408.5t100.5 410.5q35 205 44 410t-12 412q8 39 39 38q35 0 43 -38q119 -403 47 -818q-74 -424 -338 -823q-25 -41 -55 -41t-24 41z" />
<glyph unicode="*" horiz-adv-x="575" d="M242 1141q4 20 17 29.5t40 16.5t68 17t102 35q-53 25 -83 34t-46 13l-25 6q-8 2 -18 13q-23 14 -18 36q4 23 23.5 39.5t33.5 16.5q18 0 25.5 -4t16.5 -19.5t28.5 -46.5t62.5 -86q-2 70 -6 101.5t-7 46t-5 19.5t2 22q8 51 57 51t41 -49q-2 -16 -7 -26.5t-14.5 -28 t-22.5 -48.5t-34 -86v-2q53 45 81 75t45 48t29.5 25.5t33.5 7.5q18 0 29 -19.5t7 -38.5q-4 -23 -16 -32t-39 -17t-67.5 -18t-100.5 -33q61 -29 91 -38t42.5 -12t17.5 -3t19 -10q18 -23 17 -41q-4 -18 -22.5 -36t-35.5 -18q-20 0 -27.5 6.5t-16.5 23.5t-27.5 48t-59.5 78 q4 -80 7 -111.5t7 -42.5l5 -12q4 -4 -3 -20q-8 -51 -57 -52q-53 0 -43 50q4 20 6 22t8.5 13.5t21.5 42t44 108.5q-66 -55 -91.5 -81t-33.5 -37t-10 -13t-21 -10q-18 -12 -32 -13q-16 0 -29.5 18.5t-9.5 41.5z" />
<glyph unicode="+" horiz-adv-x="940" d="M133 524q4 23 19 35q18 12 38 12l293 -4l47 301q2 27 19 37q14 12 37.5 11t36.5 -13q8 -16 6 -37l-49 -303l292 -4q10 0 20.5 -1t16.5 -9q10 -12 7 -37t-17 -39q-18 -12 -41 -12l-293 6l-43 -287q-6 -27 -20 -37q-14 -12 -37 -11t-33 13q-12 12 -8 39l43 283l-293 4 q-27 2 -33 12q-12 12 -8 41z" />
<glyph unicode="," horiz-adv-x="352" d="M51 -86q2 14 13.5 20.5t23.5 10.5q4 0 6 1t6 1q25 8 34 21.5t13 25.5h-10q-98 0 -82 84q12 84 113 84q98 0 86 -84l-6 -37q-6 -27 -17.5 -55.5t-31 -51t-46 -38t-59.5 -15.5q-49 0 -43 33z" />
<glyph unicode="-" horiz-adv-x="751" d="M137 543q10 47 60 47h497q49 0 43 -47q-4 -25 -22.5 -37t-38.5 -12h-500q-51 0 -39 49z" />
<glyph unicode="." horiz-adv-x="354" d="M55 80q12 80 115 80q47 0 69.5 -21.5t16.5 -58.5q-16 -80 -115 -80q-102 0 -86 80z" />
<glyph unicode="/" horiz-adv-x="712" d="M41 0l700 1481h119l-698 -1481h-121z" />
<glyph unicode="0" horiz-adv-x="1060" d="M139 561q98 559 541 559h22q442 0 345 -559q-98 -561 -541 -561h-23q-442 0 -344 561zM305 561q-80 -455 203 -477q293 23 373 477q80 457 -205 477q-291 -22 -371 -477z" />
<glyph unicode="1" horiz-adv-x="593" d="M88 31q4 23 24.5 36t45 23t45 23.5t24.5 36.5l142 798q2 31 -56 31h-41q-59 0 -53 29q6 37 70 51l229 59q41 0 35 -41l-164 -927q-4 -23 12.5 -36.5t37 -23.5t37 -23.5t11.5 -35.5q-6 -31 -45 -31h-321q-39 0 -33 31z" />
<glyph unicode="2" horiz-adv-x="915" d="M49 41l12 70q6 39 68 84l426 325q129 98 154 238q23 123 -21.5 173t-173.5 50q-115 0 -244 -33q-4 -2 -16 -2q-29 0 -41 33q10 49 51 59q180 84 328 84q88 0 153.5 -23.5t104.5 -66.5t51 -101.5t-2 -125.5q-23 -111 -108.5 -208t-229.5 -208l-164 -125l-121 -86 q-18 -12 -22 -22q0 -6 14 -6h381q20 0 40 18t39.5 41.5t38.5 42t42 18.5q41 0 35 -39l-62 -174q-20 -57 -61 -57h-639q-43 0 -33 41z" />
<glyph unicode="3" horiz-adv-x="923" d="M20 -115q14 39 56 39q90 -23 157.5 -35t118.5 -12q270 0 320 287q20 111 -28 170t-152 59h-103q-41 0 -31 47l7 35q6 39 45 39h102q92 0 151.5 53.5t75.5 145.5q10 57 3 108t-32.5 90t-70.5 61.5t-109 22.5q-113 0 -241 -51q-37 0 -43 41q6 33 47 58.5t94 42t106.5 25.5 t81.5 9q96 0 164 -32.5t109 -88t54 -129t-1 -155.5q-35 -184 -158 -254q-12 -4 -12 -8q-2 -8 8 -13q135 -72 99 -293q-16 -84 -55.5 -157.5t-102 -126.5t-146 -84t-186.5 -31q-31 0 -88 8t-112.5 24.5t-94.5 43t-33 61.5z" />
<glyph unicode="4" horiz-adv-x="1116" d="M68 150l8 51q6 39 33 67l679 797l25 29q25 27 66 26h79q41 0 35 -39l-141 -800q-6 -41 33 -41h121q41 0 32 -39l-8 -51q-6 -39 -47 -39h-121q-41 0 -47 -41l-47 -271q-8 -39 -49 -39h-80q-41 0 -33 39l47 271q6 41 -30 41h-521q-40 0 -34 39zM240 250q-4 -10 24 -10h381 q39 0 45 41l111 620q2 25 -2 25l-11 -8l-542 -656q-6 -4 -6 -12z" />
<glyph unicode="5" horiz-adv-x="962" d="M20 -121q6 41 48 41q125 -31 229 -31q168 0 279.5 85t140.5 245q10 61 0 115.5t-54.5 93.5t-128 61.5t-221.5 22.5q-25 0 -51 -1t-55 -1q-35 0 -25 41l129 528q10 41 45 41h564q39 0 32 -39l-10 -61q-4 -23 -17.5 -31t-29.5 -8h-463q-39 0 -45 -31l-74 -309h47 q168 0 279 -30.5t171 -87t77.5 -133.5t1.5 -169q-18 -102 -67.5 -187t-123 -146.5t-169 -95.5t-203.5 -34q-31 0 -84.5 6.5t-104.5 20.5t-87 36.5t-30 57.5z" />
<glyph unicode="6" horiz-adv-x="1005" d="M128 302.5q-15 103.5 9 248.5q29 164 82 311.5t135 258t195 176t264 65.5q100 0 193 -33q37 -12 30 -49q-14 -33 -41 -33q-12 0 -12 2q-86 18 -158 19q-88 0 -155.5 -31t-116.5 -76t-82 -98t-52.5 -99t-28.5 -78t-9 -34q-2 -14 10 -14q8 0 25 8q96 33 213 33 q80 0 150.5 -27t119.5 -80t70.5 -134t3.5 -187q-18 -109 -68.5 -193t-120 -141.5t-152.5 -87t-169 -29.5t-156.5 31.5t-117 99.5t-61.5 171.5zM297 514q-68 -395 227 -389q104 2 179 88t104 246q10 59 6 115.5t-26.5 99.5t-65.5 69.5t-111 26.5q-94 0 -235 -49 q-27 -14 -43.5 -61.5t-24.5 -94.5z" />
<glyph unicode="7" horiz-adv-x="993" d="M174 -225q0 8 12 24l717 1121q10 14 10 22q2 18 -22 19h-520q-23 0 -40.5 -18.5t-32.5 -42t-31.5 -42t-37.5 -18.5q-39 0 -32 41l34 198q6 41 48 41h759q39 0 33 -41l-14 -80q-4 -16 -10.5 -35.5t-20.5 -41.5l-643 -1141q-14 -20 -35 -21h-160q-16 1 -14 15z" />
<glyph unicode="8" horiz-adv-x="1015" d="M111 399q37 205 229 318q10 6 14 12q0 4 -12 8q-98 115 -72 271q12 74 49 137t94.5 111.5t132.5 76t165 27.5q88 0 154.5 -26.5t107.5 -75t56 -112t3 -136.5q-27 -160 -180 -273q-10 -4 -10 -8q-2 -8 8 -12q160 -111 123 -326q-16 -86 -61.5 -158.5t-113 -127t-151.5 -85 t-176 -30.5q-96 0 -170 31.5t-121 87t-65 130t-4 160.5zM293 395q-23 -123 32.5 -198.5t168.5 -75.5t192.5 71.5t101.5 194.5q23 117 -33.5 191.5t-172.5 74.5q-111 0 -190 -70.5t-99 -187.5zM422 1001q-18 -106 26 -167.5t154 -61.5q119 0 184.5 66.5t83.5 171.5 q20 111 -23.5 170t-154.5 59q-117 0 -183.5 -63.5t-86.5 -174.5z" />
<glyph unicode="9" horiz-adv-x="1005" d="M96 -158q8 31 39 31q47 0 88 -9t78 -9q88 0 154.5 28.5t117 72.5t84 96t54 99.5t30 80t11.5 40.5q2 12 -9 13q-10 0 -24 -9q-121 -35 -213 -34q-84 0 -154.5 26.5t-120 79.5t-70 133t-1.5 189q18 109 67 192.5t119 141t155 87t177 29.5q82 0 151.5 -31.5t114.5 -99 t59.5 -171t-10.5 -247.5q-31 -180 -87 -329.5t-139 -257t-194.5 -167t-253.5 -59.5q-109 0 -192 33q-37 12 -31 51zM318.5 547q5.5 -55 29 -99.5t65.5 -71t107 -26.5q106 0 240 51q10 4 19 19.5t18.5 37t15.5 45t10 46.5l11 53q35 205 -19.5 299t-204.5 94q-104 0 -181 -84 t-105 -249q-11 -60 -5.5 -115z" />
<glyph unicode=":" horiz-adv-x="354" d="M55 86q18 88 117 88q102 0 84 -88q-16 -86 -115 -86q-102 0 -86 86zM125 473q14 86 115 86q100 0 86 -86q-14 -88 -117 -88q-98 0 -84 88z" />
<glyph unicode=";" horiz-adv-x="352" d="M51 -84q2 14 13.5 20.5t23.5 10.5q2 2 4 2q8 0 10 2q23 6 33 20.5t15 26.5h-11q-98 0 -84 88q18 88 115 88q102 0 84 -88l-6 -37q-4 -29 -16.5 -58.5t-32 -54t-46 -40t-59.5 -15.5q-49 0 -43 35zM125 471q14 88 113 88q100 0 86 -88q-16 -86 -117 -86q-98 0 -82 86z" />
<glyph unicode="&#x3c;" horiz-adv-x="772" d="M139 563q2 6 11 23l536 514q20 20 51 20h101q18 0 16 -14q0 -6 -10 -21l-457 -501q-8 -16 -10 -25q-2 -10 2 -22l276 -500q6 -16 4 -25q-4 -12 -18 -12h-100q-33 0 -56 20l-340 521q-6 6 -6 22z" />
<glyph unicode="=" horiz-adv-x="933" d="M115 420l2 8v6q8 35 41 39q2 2 18 2h678h8l19 -6q12 -4 12 -12q4 -4 4 -8v-5q2 -2 0 -10v-6l-2 -8l-2 -6q-4 -10 -6 -13l2 7v-5l-8 -10l-11 -6l-8 -2q-4 -4 -10 -4h-8h-6h-678h-17l-8 4q-2 2 -4 2q-6 0 -6 2l-6 8q-6 11 -4 23zM164 692q10 47 59 47h678q49 0 43 -47 q-10 -47 -59 -47h-678q-25 0 -37 12t-6 35z" />
<glyph unicode="&#x3e;" horiz-adv-x="776" d="M45 12q4 12 14 25l451 500q8 6 12 24q4 10 -2 23l-282 501q-2 6 -2 19q4 16 22 16l100 -2q37 0 50 -18l352 -516q6 -8 2 -21q0 -12 -10 -22l-525 -521q-29 -20 -65 -20h-101q-20 0 -16 12z" />
<glyph unicode="?" horiz-adv-x="888" d="M279 1350q6 31 52 55.5t105.5 40.5t117.5 25.5t87 9.5q104 0 174 -32t109 -86t49 -125t-4 -148q-23 -123 -97.5 -220.5t-185.5 -160.5q-133 -78 -151 -191l-52 -276h-118l47 278q27 160 188 271q160 111 191 284q23 135 -33 211t-191 76q-84 0 -243 -41q-2 -2 -17 -2 q-28 0 -28 31zM305 80q12 80 105 80q45 0 63.5 -21.5t11.5 -58.5q-16 -80 -104 -80q-92 0 -76 80z" />
<glyph unicode="@" horiz-adv-x="1675" d="M133 526q35 199 127 355.5t218 265t275.5 165t301.5 56.5q125 0 230.5 -36t185 -95t131 -137t67.5 -164t15 -170t-15 -166q-41 -236 -144.5 -357.5t-240.5 -121.5q-211 0 -242 98q-170 -82 -276 -82q-68 0 -115 30t-72.5 84t-30.5 128t11 162q16 94 53 176t89.5 140 t119 92t142.5 34q78 0 178 -47q-2 2 0 14q6 47 84 47q82 0 73 -51l-108 -627q-16 -74 113 -73q137 0 198 344q20 123 10 239.5t-63 207.5t-153.5 145.5t-256.5 54.5q-115 0 -230.5 -45t-215.5 -134t-175 -220t-106 -301q-20 -117 2.5 -232t93 -207t191.5 -148t297 -56 q98 0 211 15t248 50q4 2 22 2q31 0 35 -41q-10 -18 -27.5 -34.5t-44.5 -24.5q-150 -45 -278.5 -65.5t-241.5 -20.5q-193 0 -334 63.5t-227 169t-118 240.5t-7 278zM699 475q-1 -55 11.5 -101t44 -76t89.5 -30q55 0 184 41l90 520q-96 31 -166 31q-59 0 -101 -22.5 t-69.5 -60.5t-44 -89t-26.5 -106q-11 -52 -12 -107z" />
<glyph unicode="A" horiz-adv-x="1310" d="M29 58q20 9 44.5 18.5t48 22t34.5 34.5l606 1204q23 41 63 41h78q39 0 43 -37l184 -1212q6 -41 64 -49q51 -19 51 -45v-4q-6 -31 -45 -31h-317q-43 0 -37 31q2 14 20.5 24.5t41 19.5t41 18t20.5 22v12l-31 235q-4 37 -43 37h-446q-47 0 -66 -37l-104 -233l-5 -12 q0 -2 -2 -4q-2 -12 13.5 -20.5t34 -16.5t34 -18.5t13.5 -26.5q-6 -31 -48 -31h-280q-34 0 -34 23q1 24 24 35zM467 518q-4 -18 25 -18h399q20 0 20 16v21l-92 616q-2 20 -10 21q-6 0 -18 -21l-318 -616q-6 -17 -6 -19z" />
<glyph unicode="B" d="M70 59q20 10 43.5 18.5t44 20t24.5 31.5l195 1090q4 23 -12.5 36t-38 23t-39 21.5t-13.5 29.5q6 31 45 31h371q432 0 432 -280q0 -38 -8 -81q-35 -195 -192 -282q174 -62 173 -250q0 -40 -8 -86q-68 -381 -534 -381h-473q-34 0 -34 23q1 24 24 36zM342 139q-6 -37 35 -37 h194q307 0 355 271q6 36 6 66q0 202 -266 202h-201q-35 0 -41 -35zM457 784q-2 -8 -2 -14q0 -26 32 -27h129q137 0 216 67t102 189q5 31 5 58q0 193 -267 198l-97 2q-37 0 -43 -32z" />
<glyph unicode="C" horiz-adv-x="1073" d="M162 680q61 352 236 521t470 169q180 0 320 -82l-31 -178q-12 -59 -41 -59t-39 59l-10 59q-39 100 -199 101q-94 0 -181 -38t-158.5 -111.5t-125 -184.5t-77.5 -256q-17 -95 -18 -174q0 -43 5 -82q14 -111 60.5 -184.5t120 -111.5t168.5 -38q158 0 231 100l33 60 q29 59 61 59q21 0 21 -32q0 -12 -2 -27l-33 -180q-178 -80 -348 -80q-484 0 -485 471q1 99 22 219z" />
<glyph unicode="D" horiz-adv-x="1212" d="M70 59q20 10 43.5 18.5t44 20t24.5 31.5l195 1100q4 20 -12.5 32.5t-38 20.5t-39 18.5t-13.5 28.5q6 31 48 31h456q464 0 464 -461q0 -99 -21 -219q-121 -680 -680 -680h-461q-34 0 -34 23q1 24 24 36zM344 141q-6 -41 39 -41h176q186 0 312 144.5t180 435.5 q20 115 20 208q0 140 -47 227q-78 144 -264 145h-178q-41 0 -47 -37z" />
<glyph unicode="E" d="M70 59q20 10 43.5 18.5t44 20t24.5 31.5l197 1100q4 23 -13.5 33t-39 17t-39 17.5t-13.5 32.5q6 31 45 31h900q41 0 34 -41l-24 -139q-8 -39 -39 -39q-18 0 -25.5 18.5t-12.5 41t-12 41t-26 18.5h-534q-39 0 -45 -37l-78 -443q-6 -41 37 -41h231q18 0 32.5 18.5t28 42 t26.5 42t32 18.5q31 0 24 -41l-45 -254q-8 -45 -39 -45q-18 0 -25 18.5t-12.5 42t-13.5 42t-26 18.5h-232q-43 0 -51 -45l-80 -461q-6 -35 29 -35h532q23 0 38 18.5t28.5 41t27 41t31.5 18.5q29 0 23 -39l-25 -137q-10 -43 -51 -43h-893q-38 0 -38 24q1 23 24 35z" />
<glyph unicode="F" horiz-adv-x="1091" d="M70 57q20 10 44.5 19.5t45 21t24.5 29.5l195 1108q2 18 -14.5 27.5t-38 18.5t-39 19.5t-13.5 28.5q6 31 45 31h910q26 0 25 -27q0 -5 -1 -12l-24 -141q-8 -39 -37 -39q-18 0 -25.5 18.5t-13.5 41t-14.5 41t-28.5 18.5h-522q-47 0 -53 -39l-78 -443q-6 -39 39 -39h231 q18 0 31.5 18.5t27 42t26.5 42t32 18.5q31 0 24 -39l-47 -264q-6 -37 -37 -37q-18 0 -25 18.5t-12.5 42t-13.5 42t-26 18.5h-232q-43 0 -49 -41l-84 -473q-4 -18 13.5 -29.5t39 -20.5t38 -18.5t13.5 -27.5q-6 -31 -47 -31h-315q-38 0 -38 24q1 21 24 33z" />
<glyph unicode="G" horiz-adv-x="1224" d="M162 680q119 688 684 688q68 0 121 -6t97 -17.5t81 -28t74 -36.5l-35 -197q-6 -43 -37 -43q-29 0 -39 60l-10 59q-18 49 -69.5 79t-172.5 30q-98 0 -185 -36t-159 -108.5t-123 -183.5t-78 -260q-18 -98 -17 -180q0 -41 4 -78q13 -111 59 -184.5t120 -109.5t170 -36 q106 0 161.5 29t65.5 80l50 272q2 18 -14.5 28.5t-37 19.5t-38 19.5t-13.5 28.5q6 31 47 31h314q37 0 30 -31q-4 -18 -23.5 -28.5t-44 -19.5t-45 -20.5t-24.5 -31.5l-67 -389q-55 -20 -103.5 -36.5t-95.5 -28t-97 -17.5t-110 -6q-462 0 -462 464q0 101 22 224z" />
<glyph unicode="H" horiz-adv-x="1353" d="M70 59q20 10 44.5 18.5t45 18.5t24.5 31l195 1106q4 18 -13.5 29.5t-39 19.5t-39 18.5t-13.5 28.5q6 31 48 31h321q37 0 31 -31q-4 -18 -23.5 -28.5t-44 -18.5t-45 -19.5t-24.5 -31.5l-80 -449q-1 -6 -1 -10q0 -33 36 -33h567q33 0 39 37l82 461q2 16 -15.5 26.5 t-39 18.5t-39 18.5t-13.5 28.5q6 31 51 31h316q34 0 33 -23v-8q-4 -18 -23.5 -28.5t-43.5 -19.5t-44.5 -19.5t-24.5 -30.5l-194 -1104q-6 -39 53 -47q51 -17 52 -45q0 -2 -1 -4q-6 -31 -51 -31h-313q-43 0 -37 31q2 18 23.5 27.5t45 18.5t44 19t24.5 29l84 481q6 35 -27 35 h-567q-41 0 -47 -41l-84 -473q-4 -20 13.5 -30.5t39 -18.5t38 -18.5t13.5 -28.5q-6 -31 -43 -31h-319q-38 0 -38 24q1 23 24 35z" />
<glyph unicode="I" horiz-adv-x="555" d="M72 63q20 10 43.5 16.5t44 15.5t24.5 32l197 1110q2 16 -15.5 26.5t-39 18.5t-39 18.5t-13.5 28.5q6 31 50 31h315q41 0 35 -31q-2 -31 -68 -49q-63 -10 -69 -49l-195 -1102q-4 -23 13.5 -33t40 -17t40 -16.5t13.5 -31.5q-10 -31 -50 -31h-317q-36 0 -36 23q1 27 26 40z " />
<glyph unicode="J" horiz-adv-x="733" d="M57 90q6 41 33 41q37 0 67.5 -9t59.5 -9q141 0 166 127l174 989q6 43 -49 51q-54 17 -54 45q0 35 48 35h319q34 0 34 -23q0 -24 -25 -37q-19 -10 -43.5 -18t-45 -19.5t-24.5 -31.5l-168 -950q-14 -86 -39 -141.5t-60.5 -87.5t-83 -45t-106.5 -13q-33 0 -70.5 4 t-68.5 14.5t-50 28.5q-15 14 -15 35q0 7 1 14z" />
<glyph unicode="K" horiz-adv-x="1212" d="M70 59q20 10 44.5 18.5t45 18.5t24.5 31l195 1108q2 18 -14.5 27.5t-38 18.5t-39 19.5t-13.5 28.5q6 31 45 31h322q39 0 33 -31q-4 -18 -23.5 -28.5t-44 -18.5t-45 -19.5t-24.5 -29.5l-72 -410q-2 -20 4 -20q12 0 35 20l465 430q8 8 8 15q2 6 -9.5 11t-23.5 11 t-22.5 15.5t-8.5 23.5q6 31 50 31h258q36 0 35 -23q0 -3 -1 -8q-4 -18 -24.5 -28.5t-48 -19.5t-53 -18.5t-37.5 -23.5l-496 -457q-12 -12 -16 -28q-2 -20 12 -41l422 -586q14 -23 38.5 -33t46 -18t36 -17.5t12.5 -27.5q-6 -31 -47 -31h-160q-39 0 -72 29l-409 557 q-16 23 -25 22q-8 0 -10 -18l-82 -465q-4 -18 13.5 -28.5t39 -18.5t39 -18.5t15.5 -28.5q-10 -31 -48 -31h-319q-36 0 -36 23q1 24 24 36z" />
<glyph unicode="L" horiz-adv-x="1052" d="M70 59q20 10 44.5 18.5t45 18.5t24.5 31l195 1104q4 20 -13.5 31.5t-38 20.5t-38 19.5t-13.5 28.5q4 29 48 29h319q37 0 33 -29q-4 -18 -24.5 -28.5t-45 -19.5t-45 -19.5t-24.5 -28.5l-193 -1094q-6 -39 35 -39h493q18 0 32 18.5t27 42t26.5 42t31.5 18.5q26 0 26 -24 q0 -5 -1 -11l-27 -153q-6 -35 -47 -35h-858q-36 0 -36 23q1 24 24 36z" />
<glyph unicode="M" horiz-adv-x="1593" d="M70 59q20 10 44.5 18.5t45 18.5t24.5 31l195 1106q4 18 -13.5 29.5t-39 19.5t-39 18.5t-13.5 28.5q6 31 50 31h251q39 0 54 -64l190 -948q4 -16 10 -16q4 0 15 16l559 948q37 63 80 64h200q37 0 31 -31q-2 -31 -69 -49q-61 -10 -68 -51l-195 -1098q-4 -23 13.5 -34 t39 -19t38 -18.5t14.5 -28.5q-6 -31 -49 -31h-314q-43 0 -37 31q2 18 22.5 28.5t44.5 18.5t44.5 19.5t24.5 31.5l168 952q2 14 -2 15q-6 0 -29 -41l-526 -910q-41 -66 -78 -65q-43 0 -56 67l-200 947q-10 43 -15 43q-6 0 -8 -19l-174 -987q-4 -23 13.5 -34t39 -19t38 -18.5 t14.5 -28.5q-6 -31 -48 -31h-278q-36 0 -36 23q1 24 24 36z" />
<glyph unicode="N" horiz-adv-x="1271" d="M70 59q20 10 44.5 18.5t45 20t24.5 31.5l193 1090q4 23 -12.5 36t-38 23t-39 21.5t-13.5 29.5q6 31 48 31h200q41 0 56 -39l370 -1014q6 -23 17 -22q4 0 8 22l164 924q6 41 -52 49q-54 17 -53 45v4q6 31 49 31h275q38 0 37 -24v-7q-4 -18 -23.5 -28.5t-43 -18.5 t-44 -19.5t-25.5 -29.5l-208 -1192q-10 -41 -52 -41h-94q-43 0 -57 39l-357 997q-10 25 -16 25t-8 -21l-162 -911q-4 -20 13.5 -31.5t39 -19.5t38 -18.5t14.5 -28.5q-6 -31 -46 -31h-280q-36 0 -36 23q1 24 24 36z" />
<glyph unicode="O" horiz-adv-x="1253" d="M162 680q121 688 657 688h27q266 0 371 -172q67 -110 66 -289q0 -102 -21 -227q-61 -344 -227.5 -516t-432.5 -172h-27q-437 0 -436 455q0 105 23 233zM322 680q-19 -105 -19 -192q0 -142 50 -234q81 -147 255 -162q88 6 167 47t143.5 115t111.5 180.5t72 245.5 q17 103 17 189q0 145 -50 237q-80 147 -254 162q-90 -6 -169 -47t-143.5 -115t-110 -181.5t-70.5 -244.5z" />
<glyph unicode="P" horiz-adv-x="1052" d="M72 63q20 10 43.5 16.5t44 16.5t24.5 33l195 1104q4 18 -13.5 29.5t-39 19.5t-39 18.5t-13.5 28.5q6 31 48 31h395q407 0 407 -282q0 -39 -8 -83q-35 -186 -168 -282.5t-368 -96.5h-111q-41 0 -47 -36l-80 -451q-6 -41 53 -49q52 -9 52 -42q0 -3 -1 -7q-6 -31 -45 -31 h-319q-36 0 -36 23q1 27 26 40zM453 754q-6 -37 32 -37l115 2q154 4 242 67.5t112 200.5q7 37 7 69q0 84 -48 130q-66 63 -219 69l-106 5h-8q-36 0 -45 -37z" />
<glyph unicode="Q" horiz-adv-x="1253" d="M162 680q121 688 657 688h27q266 0 371 -172q67 -110 66 -289q0 -102 -21 -227q-25 -135 -72 -245.5t-107.5 -192.5t-130 -134.5t-137.5 -70.5q-18 -8 -18 -14q-2 -6 6 -19q121 -84 268 -84q35 0 29 -39q-10 -41 -43 -41q-123 0 -230.5 32t-199.5 101q-16 12 -27.5 16.5 t-24.5 2.5q-437 0 -436 455q0 105 23 233zM322 680q-19 -105 -19 -192q0 -142 50 -234q81 -147 255 -162q88 6 167 47t143.5 115t111.5 180.5t72 245.5q17 103 17 189q0 145 -50 237q-80 147 -254 162q-90 -6 -169 -47t-143.5 -115t-110 -181.5t-70.5 -244.5z" />
<glyph unicode="R" d="M70 59q20 10 44.5 18.5t45 20t24.5 31.5l195 1104q4 18 -13.5 29.5t-39 19.5t-39 18.5t-13.5 28.5q6 31 48 31h417q205 0 307 -92q78 -71 77 -194q0 -37 -7 -79q-14 -76 -55 -140t-95.5 -112.5t-113.5 -76t-109 -27.5q-23 -6 -24 -21q-2 -12 4 -22l199 -475 q8 -18 25.5 -28.5t35.5 -18.5t31.5 -17.5t11.5 -25.5q-6 -31 -49 -31h-121q-39 0 -57 39l-224 543q-16 35 -47 34h-59q-41 0 -47 -36l-80 -451q-6 -41 53 -49q51 -17 52 -45q0 -2 -1 -4q-6 -31 -45 -31h-319q-36 0 -36 23q1 24 24 36zM453 754q-6 -37 32 -37l115 2 q154 4 242 67.5t112 200.5q7 37 7 69q0 84 -48 130q-66 63 -219 69l-106 5h-8q-36 0 -45 -37z" />
<glyph unicode="S" horiz-adv-x="950" d="M70 74l18 196l2 9q6 35 33 34q41 0 47 -41l14 -79q29 -37 90.5 -70t159.5 -33q135 0 211 70.5t98 199.5q2 13 3 26q0 57 -45 114q-54 70 -197 135q-145 66 -217 161q-55 72 -55 164q0 29 6 60q14 84 55 149.5t101.5 109.5t135 67.5t156.5 23.5q72 0 146.5 -19.5 t152.5 -62.5l-16 -196q-4 -23 -13.5 -33t-31.5 -10q-31 0 -37 41l-13 79q-31 35 -78.5 65t-121.5 30q-119 0 -187.5 -62.5t-85.5 -161.5q-3 -16 -3 -31q0 -145 255 -264q145 -66 210 -153q48 -65 48 -150q0 -29 -6 -61q-18 -102 -62 -177t-107.5 -123t-142.5 -71.5 t-165 -23.5q-78 0 -166 20.5t-192 67.5z" />
<glyph unicode="T" horiz-adv-x="1052" d="M209 1180l24 141q6 39 50 39h897q39 0 32 -39l-22 -141q-8 -39 -39 -39q-18 0 -25.5 18.5t-12.5 41t-13 41t-29 18.5h-229q-39 0 -45 -41l-193 -1088q-6 -43 53 -51q51 -19 52 -45q0 -35 -47 -35h-320q-39 0 -33 31q2 16 23.5 26.5t45 19.5t44 20.5t24.5 31.5l193 1090 q6 41 -37 41h-250q-20 0 -34.5 -18.5t-28 -41t-26.5 -41t-32 -18.5q-24 0 -24 24q0 7 2 15z" />
<glyph unicode="U" horiz-adv-x="1271" d="M246 479l133 752q4 20 -13.5 31.5t-39 19.5t-39 18.5t-13.5 28.5q6 31 48 31h319q39 0 33 -31q-4 -18 -23.5 -28.5t-44 -18.5t-45 -19.5t-24.5 -31.5l-140 -791q-9 -51 -9 -94q0 -228 252 -227h11q158 4 240 87t108 232l140 793q2 18 -13.5 29.5t-37 20.5t-39 19.5 t-17.5 26.5q6 33 47 33l281 -2q34 0 33.5 -23t-23.5 -35q-20 -10 -43.5 -19t-45 -20.5t-24.5 -29.5l-137 -772q-20 -115 -68 -201t-119 -143.5t-161 -86t-192 -28.5q-199 0 -287 119q-60 81 -60 219q0 64 13 141z" />
<glyph unicode="V" horiz-adv-x="1261" d="M281 1360h344q39 0 32 -31q-4 -18 -22.5 -28.5t-41 -17.5t-42 -15t-21.5 -23q0 -6 2 -8l150 -877q6 -41 16 -41q6 0 23 41l453 873q4 4 4 14q2 14 -11.5 22.5t-30 16.5t-30.5 17.5t-12 25.5q6 31 47 31h239q44 0 44 -24q0 -3 -1 -7q-4 -18 -22.5 -28.5t-41 -18.5 t-45 -19.5t-32.5 -33.5l-600 -1186q-23 -43 -61 -43q-39 0 -52 41l-221 1190q-4 20 -23.5 30.5t-41 19.5t-37.5 19q-13 8 -13 22q0 38 48 38z" />
<glyph unicode="W" horiz-adv-x="1820" d="M281 1360h342q39 0 32 -31q-2 -16 -21.5 -26.5t-41 -18.5t-41 -16t-21.5 -23q0 -6 2 -8l78 -868q4 -41 11 -41q6 0 28 41l410 856q12 23 31.5 39t52.5 16q31 0 46 -14.5t17 -30.5l74 -870q4 -41 14 -41t29 41l408 870q2 2 6 14q2 14 -12.5 22.5t-31 15.5t-30.5 16.5 t-12 25.5q6 31 47 31h239q46 0 46 -25q0 -3 -1 -6q-4 -18 -22 -28.5t-43 -19.5t-47.5 -20.5t-30.5 -31.5l-557 -1186q-23 -43 -65 -43q-45 0 -48 45l-86 905q-4 41 -16 41q-10 0 -29 -43l-438 -905q-23 -43 -61 -43q-43 0 -52 43l-139 1188q-2 18 -21.5 29.5t-41 20.5 t-38.5 19q-14 8 -14 22q0 38 48 38z" />
<glyph unicode="X" horiz-adv-x="1314" d="M70 59q20 10 44.5 18.5t50 17.5t38.5 26l405 487q23 25 25 47q2 12 0 25l-221 555q-6 14 -28 24.5t-44.5 20.5t-39.5 21.5t-15 27.5q6 31 47 31h350q39 0 33 -31q-4 -29 -66 -45l-35 -8q-18 -8 -18 -14q-2 -4 2 -19l164 -422q2 -14 12 -14q8 0 21 14l358 422q8 8 8 17 q4 10 -16 10l-27 10q-29 10 -43 19.5t-10 29.5q8 31 47 31h289q36 0 35 -23v-8q-2 -16 -22.5 -27.5t-46.5 -20.5t-50.5 -19.5t-36.5 -24.5l-424 -496q-10 -10 -16 -21t-9 -22q-2 -10 5 -26l233 -547q6 -18 29 -28l45 -18q23 -9 39 -19.5t14 -28.5q-6 -31 -47 -31h-348 q-39 0 -33 31q2 27 68 49l30 10q16 0 21 10q-2 -2 -2 15l-172 401q-8 20 -19 21q-4 0 -14 -11l-342 -411q-8 -8 -8 -15q-4 -10 18 -10l27 -10q54 -19 53 -45v-4q-6 -31 -47 -31h-299q-36 0 -36 23q1 24 24 36z" />
<glyph unicode="Y" horiz-adv-x="1171" d="M281 1360h337q41 0 35 -31q-2 -14 -19.5 -21.5t-47.5 -17.5l-31 -10q-12 -2 -16 -18q-4 -10 2 -23l166 -444q6 -16 16 -17q8 0 18 17l318 444q8 16 8 21q2 12 -12 12l-31 8q-29 8 -41 22.5t-10 26.5q6 31 47 31h278q36 0 36 -23q0 -3 -1 -8q-4 -18 -23.5 -28.5t-45 -18.5 t-51 -18.5t-39.5 -30.5l-396 -559q-33 -45 -33 -68l-83 -475q-4 -20 13 -31.5t38.5 -20.5t38 -19.5t14.5 -28.5q-6 -31 -47 -31h-320q-39 0 -32 31q2 18 22.5 28.5t45 19.5t44 20.5t23.5 29.5l84 479q2 9 2 18q0 22 -10 50l-220 557q-6 18 -27.5 28.5t-44 19.5t-39.5 19 q-14 8 -14 22q0 38 48 38z" />
<glyph unicode="Z" horiz-adv-x="1085" d="M49 41l6 39q4 20 16.5 38.5t26.5 35.5l871 1083q2 2 2 8q2 8 -10 8h-496q-31 0 -50.5 -18t-33.5 -41t-26.5 -41t-30.5 -18q-24 0 -24 31q0 12 3 28l23 127q6 39 47 39h768q41 0 35 -39l-9 -41q-4 -23 -16 -41t-27 -35l-870 -1083l-5 -12.5t1 2.5q-4 -6 12 -7h576 q31 0 50 18.5t32.5 41t27 41t33.5 18.5q10 0 16.5 -15t1.5 -44l-18 -123q-10 -41 -49 -41h-850q-35 0 -35 27q0 6 2 14z" />
<glyph unicode="[" horiz-adv-x="395" d="M41 0l260 1481h242l-21 -121h-121l-219 -1239h121l-20 -121h-242z" />
<glyph unicode="\" horiz-adv-x="712" d="M301 1481h121l178 -1481h-119z" />
<glyph unicode="]" horiz-adv-x="395" d="M41 0l20 121h121l219 1239h-120l20 121h242l-260 -1481h-242z" />
<glyph unicode="^" horiz-adv-x="559" d="M236 1108l206 250h82l117 -250h-39l-137 152l-191 -152h-38z" />
<glyph unicode="_" horiz-adv-x="1153" d="M41 0l14 82h1000l-15 -82h-999z" />
<glyph unicode="`" horiz-adv-x="509" d="M274 1327q4 25 22.5 40t45.5 15q16 0 29.5 -8t36.5 -37l184 -231h-53l-228 158q-43 30 -37 63z" />
<glyph unicode="a" horiz-adv-x="950" d="M88 272q14 84 61.5 144.5t118 98.5t162.5 56.5t201 18.5h33q39 0 45 41l12 71q7 37 7 68q0 62 -28 101q-41 58 -139 59q-61 0 -119.5 -7.5t-115.5 -23.5q-41 4 -35 31q6 29 49 47q84 39 235 39q186 0 260 -86q52 -62 52 -162q0 -39 -8 -84l-97 -547q-4 -27 9.5 -39 t31 -20t30.5 -16.5t11 -26.5q-10 -35 -67 -35q-119 0 -168 70q-147 -70 -287 -70q-147 0 -212 75q-48 55 -48 137q0 28 6 60zM238 210q4 -34 24.5 -60.5t57 -43t96.5 -16.5q86 0 162 21q39 8 49 49l55 321q1 7 1 13q0 27 -32 26q-205 -8 -298 -68.5t-113 -172.5 q-4 -21 -4 -42q0 -13 2 -27z" />
<glyph unicode="b" horiz-adv-x="1067" d="M174 80l221 1241q4 23 -14.5 29t-40 9t-39.5 8t-14 24q2 14 22.5 27.5t48 22.5t55 14t46.5 5h59q61 0 53 -39l-77 -440q-2 -27 12 -27q8 0 24 9q92 45 195 45q90 0 158.5 -37t110.5 -101.5t58 -149.5q7 -39 7 -80q0 -50 -10 -103q-18 -104 -64.5 -200.5t-118 -171.5 t-168 -120t-215.5 -45q-137 0 -309 80zM348 168q-4 -25 13.5 -38t43 -19.5t52 -7.5t43.5 -1q63 0 126.5 28t116 82t92 135t58.5 188q10 57 10 106q0 93 -36 158q-54 98 -185 98q-18 0 -53 -3t-71 -12.5t-63.5 -25.5t-31.5 -41z" />
<glyph unicode="c" horiz-adv-x="894" d="M125 287q-8 42 -8 89q0 52 10 109q18 104 66.5 199.5t120 168.5t163.5 115t201 42q88 0 233 -41l-26 -160q-10 -43 -47 -43q-20 0 -30.5 18.5t-19 43t-18.5 48t-29 33.5q-23 12 -46 16.5t-46 4.5q-57 0 -114.5 -33t-106.5 -92.5t-86 -140t-53 -179.5q-9 -51 -10 -97 q0 -35 6 -66q12 -74 49 -127.5t95 -82t136 -28.5q82 0 197 37q43 0 37 -27q-4 -23 -36 -41t-76 -31.5t-91 -20.5t-80 -7q-111 0 -192.5 36t-132 101.5t-66.5 155.5z" />
<glyph unicode="d" horiz-adv-x="1028" d="M114 299q-3 29 -3 55q0 45 8 84q16 92 58 193.5t109.5 187.5t160 141.5t208.5 55.5q66 0 156 -23q2 0 3 -1t3 -1q27 0 33 33l53 297q2 20 -13.5 27.5t-35.5 10.5t-37.5 8t-15.5 24q4 14 25.5 27.5t48 22.5t54 14t44.5 5h82q32 0 31 -30q0 -5 -1 -11l-225 -1280 q-6 -29 6.5 -42t29.5 -20t31.5 -15.5t14.5 -26.5q-6 -35 -65 -35q-123 0 -166 80q-86 -41 -159 -63.5t-138 -22.5q-102 0 -165 46t-95.5 113.5t-39.5 145.5zM301 469q-11 -65 -11 -119q0 -95 35 -156q54 -95 164 -96q18 0 54.5 3t72 12.5t64.5 26t33 40.5l116 664 q2 31 -24 45q-63 33 -135 33q-59 0 -117.5 -32t-108 -91.5t-87.5 -143.5t-56 -186z" />
<glyph unicode="e" horiz-adv-x="942" d="M126 305q-7 40 -7 84q0 58 12 121q18 109 66.5 202t117 161.5t154.5 107.5t180 39q180 0 247 -131q40 -80 40 -200q0 -78 -16 -173q-4 -31 -37 -31h-584q-11 -60 -11 -113q0 -23 2 -45q7 -73 35.5 -125t78 -82t116.5 -30q92 0 225 51q39 0 37 -26q-4 -25 -42 -46.5 t-87 -37t-97 -24.5t-73 -9q-98 0 -174 38t-122 106.5t-61 162.5zM328 606q-1 -6 -1 -10q0 -31 33 -31h390q41 0 45 41q7 59 7 107q0 93 -27 142q-40 75 -163 75q-109 0 -175 -87t-109 -237z" />
<glyph unicode="f" horiz-adv-x="612" d="M70 59q20 10 44.5 18.5t45 20t24.5 31.5l129 733q6 37 -34 37h-39q-32 0 -33 35q0 7 2 16q8 49 49 49h59q23 0 25 21q31 180 138.5 260t299.5 80q41 0 35 -41q-8 -39 -49 -39q-111 0 -175.5 -59.5t-88.5 -200.5q-2 -20 14 -21h100q34 0 35 -34q0 -7 -2 -15 q-8 -51 -49 -51h-102q-18 0 -21 -20l-133 -750q-4 -20 12.5 -31.5t38 -19.5t38 -18.5t13.5 -28.5q-6 -31 -45 -31h-319q-36 0 -36 23q1 24 24 36z" />
<glyph unicode="g" horiz-adv-x="1024" d="M6 -201q10 61 45 103.5t96 74.5q41 21 59 21h3q20 0 30.5 -11.5t8.5 -21.5t-16.5 -21.5t-33 -28.5t-35 -38.5t-22.5 -50.5q-2 -9 -1 -17q0 -36 29 -60q36 -30 101 -30h291q182 0 203 119q3 17 3 32q0 55 -41 88q-52 42 -157 42h-159q-141 0 -202 51q-46 39 -46 114 q0 23 4 48q23 111 110 156q-74 43 -100 120q-16 48 -16 105q0 34 6 72q29 166 149.5 258t325.5 92q39 0 75 -5t70 -20l33 -12l209 35q34 0 34 -31q0 -5 -1 -10q-8 -39 -47 -39l-88 -29q37 -45 44 -109q3 -27 3 -53q0 -37 -6 -73q-29 -160 -141.5 -256.5t-317.5 -96.5 q-31 0 -63.5 4.5t-69.5 12.5l-27 -19q-23 -16 -35 -28.5t-16 -34.5q-2 -10 -2 -19q0 -33 31 -51q39 -23 112 -22h160q294 0 294 -232q0 -38 -7 -82q-43 -246 -344 -245h-330q-41 0 -82 8t-71.5 30.5t-46.5 60.5q-9 23 -9 54q0 20 4 45zM321 572q1 -46 19 -82.5t60 -60 t120 -23.5q74 0 124 23.5t83 61t51.5 86t26.5 97.5q6 36 6 69q0 13 -1 25q-3 45 -23.5 80t-63.5 55.5t-113 20.5q-47 0 -108 -23q-47 -18 -78 -41.5t-49.5 -52.5t-28.5 -63.5t-18 -77.5q-7 -42 -8 -83q1 -6 1 -11z" />
<glyph unicode="h" d="M70 59q20 10 44.5 18.5t45 20t24.5 31.5l211 1192q4 23 -14.5 29t-40 9t-39.5 8t-14 24q2 14 22.5 27.5t48 22.5t55 14t46.5 5h80q39 0 32 -41l-88 -506q156 98 295 99q160 0 226 -89q46 -62 45 -159q0 -42 -9 -90l-98 -543q-4 -20 13.5 -31.5t39 -20.5t37.5 -20 q15 -9 15 -24v-4q-6 -31 -48 -31h-319q-41 0 -35 31q2 18 23.5 28.5t46 19.5t45 20.5t24.5 29.5l97 545q4 22 4 42.5t-4 40.5q-8 40 -32 70.5t-62.5 49t-92.5 18.5q-94 0 -225 -61l-125 -705q-4 -20 12.5 -31.5t38 -19.5t38 -18.5t13.5 -28.5q-6 -31 -45 -31h-319 q-36 0 -36 23q1 24 24 36z" />
<glyph unicode="i" horiz-adv-x="532" d="M72 67q20 13 44.5 24t46 23.5t25.5 35.5l125 710q4 23 -13 30t-39.5 10t-41 7t-14.5 23q2 14 22.5 27.5t47 22.5t55 14t49.5 5h78q41 0 35 -38l-144 -809q-4 -23 12.5 -36.5t36 -25.5t36 -25.5t13.5 -33.5q-6 -31 -45 -31h-319q-36 0 -36 23q1 28 26 44zM352 1200 q12 80 105 80q78 0 77 -61q0 -10 -2 -21q-12 -78 -104 -78q-77 0 -77 62q-1 8 1 18z" />
<glyph unicode="j" horiz-adv-x="438" d="M-201 -319q8 39 49 38q43 -14 115 -14q150 0 174 135l180 1020q4 20 -12 27.5t-37.5 10.5t-39 8t-17.5 24q2 16 23.5 29.5t49 22.5t55.5 13t44 4h80q39 0 33 -38l-191 -1082q-25 -135 -94.5 -210t-181.5 -75q-59 0 -103.5 11.5t-72 26t-41 29t-13.5 20.5zM358 1200 q8 41 32 60.5t73 19.5q76 0 76 -59q0 -10 -2 -21q-12 -80 -103 -80q-77 0 -77 62q-1 8 1 18z" />
<glyph unicode="k" horiz-adv-x="1052" d="M70 59q20 10 44.5 18.5t45 20t24.5 31.5l211 1192q4 23 -14.5 29t-40 9t-39.5 8t-14 24q2 14 22.5 27.5t48 22.5t55 14t46.5 5h80q39 0 32 -41l-137 -780q-4 -25 4 -25q6 0 23 17l252 229q18 14 20 29q2 10 -11 19.5t-29.5 18.5t-29 20t-10.5 24q4 29 43 28h281 q37 0 37 -23v-5q-4 -18 -23.5 -30.5t-47.5 -24t-57.5 -23.5t-51.5 -33l-293 -264q-25 -20 -27 -39q-2 -10 8 -25l324 -405q8 -10 28.5 -20.5t42 -20.5t38 -21.5t14.5 -23.5q-10 -41 -47 -41h-121q-39 0 -64 31l-317 383q-10 10 -14 10q-8 0 -15 -25l-47 -270 q-4 -20 12.5 -31.5t38 -19.5t38 -18.5t13.5 -28.5q-6 -31 -45 -31h-319q-36 0 -36 23q1 24 24 36z" />
<glyph unicode="l" horiz-adv-x="532" d="M70 59q20 10 44.5 18.5t45 20t24.5 31.5l211 1192q4 23 -14.5 29t-40 9t-39.5 8t-14 24q2 14 22.5 27.5t48 22.5t55 14t46.5 5h80q34 0 33 -30q0 -5 -1 -11l-227 -1290q-4 -20 12.5 -31.5t38 -19.5t38 -18.5t13.5 -28.5q-6 -31 -45 -31h-319q-36 0 -36 23q1 24 24 36z " />
<glyph unicode="m" horiz-adv-x="1671" d="M71 59q22 10 45 19.5t43.5 21t24.5 29.5l129 731q4 23 -13 30t-39.5 10t-41 7t-14.5 23q2 14 22.5 27.5t47 22.5t55 14t49.5 5h78q41 0 35 -38l-15 -74q84 61 162 96t149 35q76 0 131.5 -35t77.5 -88q193 127 338 127q150 0 212 -93q43 -64 43 -157q0 -43 -9 -92 l-100 -551q-4 -20 13 -31.5t38.5 -19.5t38.5 -19q15 -9 14 -24v-4q-6 -31 -47 -31h-319q-39 0 -33 31q2 18 22.5 28.5t45 18.5t45 19.5t24.5 31.5l98 551q3 20 3 40.5t-3 40.5q-6 40 -26.5 72.5t-54 52t-83.5 19.5q-100 0 -239 -94q4 -29 2 -61.5t-8 -69.5l-99 -549 q-4 -20 13.5 -31.5t38 -20.5t37 -19.5t14.5 -28.5q-6 -31 -45 -31h-322q-39 0 -33 31q2 18 24 28.5t45.5 19.5t44 20.5t24.5 29.5l98 551q3 20 3 41q0 17 -2 35q-5 39 -23.5 71.5t-49 53t-73.5 20.5q-47 0 -108.5 -26.5t-135.5 -71.5l-119 -672q-4 -20 13.5 -31.5t38 -20.5 t37 -19.5t13.5 -28.5q-6 -31 -45 -31h-319q-36 0 -36 23q1 24 25 36z" />
<glyph unicode="n" d="M71 59q22 10 45 19.5t43.5 21t24.5 29.5l129 731q4 23 -13 30t-39.5 10t-41 7t-14.5 23q2 14 22.5 27.5t47 22.5t55 14t49.5 5h78q41 0 35 -38l-19 -101q98 72 184 113t164 41q137 0 193 -93q37 -63 37 -151q0 -42 -9 -90l-100 -549q-4 -20 13.5 -31.5t39 -20.5t37.5 -20 q15 -9 15 -24v-4q-6 -31 -48 -31h-319q-41 0 -35 31q2 18 23.5 28.5t46 19.5t45 20.5t24.5 29.5l99 551q3 20 3 41q0 17 -2 35q-5 39 -21.5 69.5t-47.5 50t-74 19.5q-53 0 -122.5 -30.5t-159.5 -84.5l-115 -649q-4 -20 13.5 -31.5t38 -20.5t37 -19.5t13.5 -28.5 q-6 -31 -45 -31h-319q-36 0 -36 23q1 24 25 36z" />
<glyph unicode="o" horiz-adv-x="1013" d="M122 283q-7 39 -7 82q0 58 12 122q33 180 123 310.5t223 179.5q94 35 176 35q92 0 165 -36t118 -103.5t60 -164.5q7 -42 7 -89q0 -62 -12 -132q-18 -111 -65.5 -202.5t-115 -158.5t-153.5 -103.5t-184 -36.5q-96 0 -169 35.5t-118 102.5t-60 159zM281 335 q2 -71 24.5 -124t66.5 -84t115 -31q63 0 119 28t99 79t72.5 120.5t43.5 155.5q15 89 16 164q0 85 -24 145q-23 57 -67 89t-113 32q-59 0 -115 -26q-90 -41 -145.5 -146.5t-79.5 -249.5q-13 -72 -13 -134q1 -9 1 -18z" />
<glyph unicode="p" horiz-adv-x="1069" d="M-1 -342q22 10 46.5 19.5t45 20.5t24.5 32l198 1128q4 23 -14 29t-39.5 9t-40 8t-14.5 26q2 14 22.5 27.5t48 22.5t55 14t46.5 5h80q41 0 35 -38l-7 -31q80 41 147.5 63.5t129.5 22.5q86 0 148.5 -40t99.5 -107.5t47 -156.5q4 -32 3 -65q0 -60 -11 -125 q-18 -109 -64.5 -205t-112 -167.5t-145.5 -112.5t-168 -41q-53 0 -107.5 21.5t-113.5 74.5l-64 -362q-4 -20 12.5 -31.5t37 -21t37 -19.5t14.5 -29q-6 -31 -45 -30h-320q-36 0 -35 23q0 24 24 36zM354 188q59 -49 106.5 -69.5t90.5 -20.5q66 0 123 34t102 93.5t78 139 t49 170.5q9 53 9 103q0 21 -2 41q-5 69 -29.5 121t-66.5 82.5t-99 30.5q-47 0 -108.5 -17t-135.5 -46z" />
<glyph unicode="q" horiz-adv-x="1030" d="M123 292q-8 42 -8 86.5t8 90.5q18 98 69.5 196.5t128 177.5t176 128t212.5 49q135 0 290 -100l-208 -1190q-4 -18 12 -29.5t37.5 -21t38 -20.5t14.5 -30q-6 -31 -45 -30h-301q-39 0 -33 30q2 18 21.5 28.5t43 20t43 20.5t23.5 32l60 336l-3 12q-117 -74 -249 -74 q-90 0 -159 38t-112 101.5t-59 148.5zM278 313q11 -68 42.5 -114.5t82 -73.5t111.5 -27q20 0 54 5.5t68 16.5t59.5 27.5t29.5 40.5l117 656q4 25 -15.5 39t-47 23t-56.5 12.5t-43 3.5q-59 0 -122.5 -34t-119 -95.5t-97.5 -145.5t-60 -184q-8 -46 -8 -87q0 -33 5 -63z" />
<glyph unicode="r" horiz-adv-x="794" d="M71 59q22 10 45 19.5t43.5 21t24.5 29.5l129 731q4 23 -13 30t-39.5 10t-41 7t-14.5 23q2 14 22.5 27.5t47 22.5t55 14t49.5 5h78q41 0 35 -38l-19 -101q70 72 140.5 111t142.5 39q43 0 116 -29l-14 -201v-10q-6 -29 -35 -29q-16 -2 -20 15.5t-19 44.5l-32 59 q-33 33 -78 33t-98.5 -29.5t-116.5 -83.5l-115 -649q-4 -20 13.5 -31.5t38 -20.5t37 -19.5t13.5 -28.5q-6 -31 -45 -31h-319q-36 0 -36 23q1 24 25 36z" />
<glyph unicode="s" horiz-adv-x="862" d="M90 279q6 33 55 32q29 0 33 -30l15 -91q12 -45 55 -75.5t123 -30.5q123 0 190.5 57.5t83.5 143.5q1 7 1 14q0 95 -226 184q-213 82 -213 242q0 23 4 47q23 117 121 181.5t258 64.5q61 0 123.5 -13.5t124.5 -43.5l2 -209q-6 -31 -45 -31t-43 29l-17 90q-23 45 -52.5 73.5 t-90.5 28.5q-98 0 -153.5 -43t-67.5 -113q-2 -10 -2 -20q0 -109 223 -195q129 -49 176 -121q35 -54 35 -122q0 -24 -4 -49q-25 -141 -127.5 -211t-276.5 -70q-72 0 -147.5 16.5t-155.5 55.5z" />
<glyph unicode="t" horiz-adv-x="712" d="M209 950q10 51 46 52q1 0 3 -1l39 -2h7q35 0 40 39l29 162q2 18 10 45t23.5 52.5t38 44t55.5 18.5h20q41 0 35 -39l-53 -301q-2 -20 14 -21l162 2q32 0 32 -34q0 -7 -1 -17q-10 -49 -47 -49h-162q-23 0 -25 -20l-98 -562q-11 -58 -11 -99q0 -55 19 -82q33 -46 119 -46 q59 0 117 29q4 0 7 1t7 1q29 0 22 -35q-4 -25 -33.5 -42t-66.5 -28.5t-75 -17.5t-58 -6q-127 0 -182 77q-36 49 -36 138q0 49 11 110l98 562q4 16 -14 20l-61 -2q-32 0 -33 35q1 7 2 16z" />
<glyph unicode="u" d="M227 957q20 13 48 22.5t61 14.5t61 5h60q41 0 35 -38l-111 -621q-3 -22 -3 -45q0 -19 2 -37q5 -41 23.5 -72.5t51 -51t80.5 -19.5q100 0 266 104l112 641q4 23 -14 29t-39.5 8t-40 7t-14.5 26q4 29 66.5 49t185.5 20q39 0 33 -38l-148 -832q-4 -23 13.5 -30t40 -10t40 -7 t15.5 -21q-2 -16 -23.5 -29.5t-49.5 -22.5t-55.5 -14t-43.5 -5l-70 2q-41 0 -41 33q0 7 2 16l16 98q-184 -141 -331 -141q-143 0 -203 93q-40 63 -40 154q0 44 9 95l92 520q4 23 -14 29t-39.5 8t-40.5 7q-15 4 -15 19q0 19 23 34z" />
<glyph unicode="v" horiz-adv-x="1001" d="M217 999h320q39 0 34 -28q-4 -16 -22.5 -26.5t-40 -18.5t-40.5 -18.5t-22 -24.5q2 -4 3 -15l106 -585q6 -23 10 -23q8 0 19 23l297 585l4 13q2 14 -13.5 24t-34 19.5t-34 19.5t-10.5 27q23 29 43 28l262 2q37 0 35 -30q-4 -18 -25 -28.5t-46.5 -22t-50 -25.5t-38.5 -41 l-453 -854h-59l-170 854q-6 27 -26.5 42t-42 25.5t-38.5 20.5q-13 8 -13 22q0 35 46 35z" />
<glyph unicode="w" horiz-adv-x="1480" d="M217 999h320q39 0 34 -28q-4 -16 -22.5 -26.5t-40 -18.5t-39.5 -18.5t-20 -24.5q-2 -12 0 -15l75 -546q4 -23 11 -23q8 0 20 23l322 632q25 45 61 45q37 0 43 -47l98 -630q4 -23 11 -23q4 0 20 23l248 544l4 15q2 14 -12.5 24t-33 19.5t-33.5 19.5t-11 27q4 29 43 28h262 q35 0 35 -23v-5q-4 -18 -24.5 -28.5t-46 -22t-51.5 -25.5t-38 -41l-416 -854h-59l-100 682q-6 20 -15 20q-8 0 -16 -20l-367 -682h-57l-131 854q-4 27 -24.5 42t-42 25.5t-39.5 20.5q-14 8 -14 22q0 35 46 35z" />
<glyph unicode="x" horiz-adv-x="1114" d="M69 57q19 10 44.5 19.5t51 19.5t42.5 29l315 367l-153 378q-12 18 -37 28.5t-48.5 20t-39 20.5t-11.5 32q4 29 43 28h342q39 0 35 -28q-4 -16 -22.5 -26.5t-40 -20t-40 -16.5t-20.5 -15q0 4 1 2t1 -12l107 -262l221 262l4 10q2 8 -13 15t-33.5 15.5t-34 18.5t-13.5 27 q6 33 47 32h281q37 0 37 -30q-6 -18 -27 -29.5t-46.5 -21t-51 -20.5t-39.5 -28l-293 -344l194 -401q12 -18 37 -28.5t47.5 -19.5t38 -19.5t13.5 -28.5q-6 -31 -45 -31h-363q-39 0 -35 31q6 27 70 49l31 10q23 0 28 23q-2 -4 -2 14l-121 279l-26 -29q-16 -18 -43 -49 t-58.5 -67t-64.5 -75t-62 -71q-8 -8 -8 -15q-4 -10 19 -10l28 -10q51 -17 52 -45v-4q-6 -31 -48 -31h-278q-37 0 -37 24q0 20 24 33z" />
<glyph unicode="y" horiz-adv-x="1042" d="M37 -252q18 0 31.5 -8t29 -17.5t35 -17.5t51.5 -8q37 0 74 24.5t66 77.5l110 211l-143 854q-4 27 -24.5 42.5t-42 24.5t-39 17t-13.5 23q6 29 45 28h330q39 0 35 -28q-2 -12 -20.5 -19.5t-41 -15.5t-41 -18.5t-20.5 -24.5q2 -4 2 -14l90 -584q4 -23 10 -23q10 0 21 23 l301 584l4 12q2 16 -12.5 26.5t-34 18.5t-34.5 15t-13 20q4 29 43 28l272 2q35 0 35 -27v-3q-2 -12 -21.5 -20.5t-46 -18.5t-52.5 -25.5t-40 -42.5l-575 -1095q-49 -94 -107.5 -131t-124.5 -39q-29 0 -62.5 9t-61 24.5t-45.5 36.5q-14 17 -14 37q0 42 44 42z" />
<glyph unicode="z" horiz-adv-x="872" d="M49 41q6 35 31 65l639 789q2 4 3 5t1 3t2 4q2 12 -25 13h-335q-23 0 -40.5 -18.5t-33 -41t-31.5 -41t-37 -18.5q-41 0 -35 39l70 159h639q34 0 34 -30q0 -5 -1 -11q-6 -33 -33 -65l-635 -766q-6 -16 -6 -14q-4 -12 25 -13h337q20 0 37 18.5t33.5 41t32.5 41t39 18.5 q39 0 33 -39l-72 -180h-639q-35 0 -35 27q0 6 2 14z" />
<glyph unicode="{" horiz-adv-x="694" d="M172 739q0 8 23 21q174 80 241 459q68 381 389 380q39 0 33 -28q-6 -31 -43 -31q-170 -14 -217 -270q-8 -51 -11 -113.5t-14 -112.5q-43 -248 -219 -294q-18 -6 -18 -11q-4 -4 14 -10q160 -43 115 -295q-8 -49 -25.5 -111.5t-27.5 -113.5q-45 -252 120 -268q39 0 33 -31 t-43 -31q-322 0 -256 381q68 379 -78 461q-18 10 -16 18z" />
<glyph unicode="|" horiz-adv-x="274" d="M41 0l260 1481h121l-260 -1481h-121z" />
<glyph unicode="}" horiz-adv-x="694" d="M25 -90q6 31 47 31q168 14 213 268q10 49 13 110.5t13 110.5q47 256 219 299q14 6 19 10q0 2 -14 11q-158 45 -115 299q10 49 26.5 110.5t24.5 110.5q45 254 -117 270q-43 0 -37 31q6 29 48 28q319 0 251 -380q-68 -379 78 -459q18 -10 19 -21q-4 -10 -25 -18 q-174 -80 -242 -461q-66 -381 -385 -381q-42 0 -36 31z" />
<glyph unicode="~" horiz-adv-x="983" d="M139 555l27 158q80 72 142.5 98.5t117.5 26.5q25 0 71 -15.5t97 -35t97 -35t71 -15.5q47 0 110.5 28t153.5 114l-29 -156q-76 -72 -139 -98.5t-121 -26.5q-25 0 -72 15.5t-98 34t-97 33.5t-69 15q-25 0 -51 -5t-57 -20.5t-69 -43t-85 -72.5z" />
<glyph unicode="&#xa0;" />
<glyph unicode="&#xa1;" horiz-adv-x="333" d="M55 74l2 10l215 999q10 41 58 41q47 0 41 -41l-135 -999q-10 -80 -105 -80q-88 0 -76 70zM268 1284q12 80 103 80q90 0 78 -80q-8 -37 -34 -58.5t-71 -21.5q-92 0 -76 80z" />
<glyph unicode="&#xa2;" horiz-adv-x="894" d="M127 485q14 78 45 152t76 136.5t102.5 112.5t124.5 81q33 14 66.5 24t70.5 15l15 84q6 41 45 40q41 0 35 -40l-15 -80q45 -2 99.5 -11.5t119.5 -29.5l-26 -160q-10 -43 -47 -43q-20 0 -30.5 18.5t-19 43t-18.5 48t-29 33.5q-31 16 -63 19l-150 -844h37q82 0 197 37 q43 0 37 -27q-4 -23 -36 -41t-76 -31.5t-91 -20.5t-80 -7h-4l-10 -60q-6 -39 -47 -38q-41 0 -31 41l10 63q-29 4 -57.5 11t-52.5 18q-125 55 -175.5 172.5t-21.5 283.5zM289 485q-25 -135 12 -233t129 -139l23 -11l143 820q-16 -4 -30.5 -9.5t-30.5 -15.5 q-84 -47 -151.5 -156t-94.5 -256z" />
<glyph unicode="&#xa3;" horiz-adv-x="954" d="M49 41l12 78q6 20 22.5 42.5t36 47t41 52.5t38.5 63q12 27 27.5 82t25.5 114l4 23h-78q-41 0 -35 41q8 39 50 39h79l11 63h-80q-43 0 -33 41q6 39 47 39h80l6 33q27 160 75 266t112.5 172t142.5 93.5t168 27.5q23 0 56.5 -3t64 -12.5t51 -23.5t16.5 -39q-6 -41 -47 -41 q-35 6 -65.5 8t-59.5 2q-88 0 -146.5 -29.5t-96 -83t-60 -129t-39.5 -169.5l-6 -39l-8 -33h315q41 0 35 -39q-10 -41 -49 -41h-318l-12 -63h320q41 0 32 -39q-6 -41 -47 -41h-319q-14 -63 -27.5 -112.5t-25.5 -86.5q-16 -45 -33 -79t-33 -60q-27 -37 -33 -62q-4 -23 37 -22 h399q20 0 36 24.5t33 55t35.5 55.5t45.5 25q39 0 33 -41l-35 -199q-10 -41 -47 -41h-721q-43 0 -33 41z" />
<glyph unicode="&#xa4;" horiz-adv-x="921" d="M115 414l139 116q-23 39 -31 88.5t2 98.5q10 53 36 102t58 84l-98 119l94 80l99 -119q35 27 92 44t104 17q98 0 176 -61l138 119l65 -80l-137 -119q23 -41 30 -90t-1 -96q-10 -47 -35 -96.5t-60 -90.5l97 -116l-95 -82l-96 119q-41 -27 -93 -44.5t-103 -17.5 q-47 0 -96.5 16.5t-80.5 45.5l-139 -119zM330 717q-8 -43 2 -86t35 -72q27 -29 63.5 -46t83.5 -17q45 0 89 17t80 48t60.5 71t32.5 85t-3 85t-35.5 70.5t-62.5 48t-83 17.5q-47 0 -90 -17.5t-79 -47t-60.5 -70.5t-32.5 -86z" />
<glyph unicode="&#xa5;" horiz-adv-x="1253" d="M274 1329q6 31 48 31h337q41 0 35 -31q-2 -14 -19.5 -21.5t-47.5 -17.5l-31 -10q-12 -2 -16 -18q-4 -10 2 -23l166 -444q6 -16 16 -17q8 0 18 17l318 444q8 16 8 21q2 12 -12 12l-31 8q-29 8 -41 22.5t-10 26.5q6 31 47 31h278q41 0 35 -31q-4 -18 -23.5 -28.5t-45 -18.5 t-51 -18.5t-40.5 -30.5l-331 -467h139q41 0 35 -39q-10 -41 -49 -41h-181l-8 -12q-10 -14 -17 -27.5t-11 -23.5h206q41 0 33 -39q-6 -41 -47 -41h-207l-74 -412q-4 -20 13.5 -31.5t39 -20.5t38 -19.5t14.5 -28.5q-6 -31 -47 -31h-320q-39 0 -32 31q2 18 22.5 28.5t45 19.5 t44 20.5t23.5 29.5l73 414h-192q-45 0 -35 41q8 39 49 39h191q0 10 -1 23t-10 30l-4 10h-165q-43 0 -33 41q6 39 47 39h121l-185 467q-6 18 -27.5 28.5t-44 19.5t-40 19.5t-13.5 28.5z" />
<glyph unicode="&#xa6;" horiz-adv-x="274" d="M41 0l111 631h120l-110 -631h-121zM190 850l111 631h121l-111 -631h-121z" />
<glyph unicode="&#xa7;" horiz-adv-x="827" d="M-2 -358l35 194h51q-4 -39 10.5 -71.5t41 -56t63.5 -38t77 -16.5q119 6 200 70.5t97 162.5q23 121 -266 277q-113 59 -152.5 134t-21.5 179q23 131 109 216t209 104l-39 18q-111 53 -152 128t-20 187q12 70 44.5 129.5t82 102.5t114 67.5t137.5 24.5h5q29 0 71.5 -5 t83.5 -12t68.5 -17.5t25.5 -22.5l-32 -195h-52q2 43 -15 77t-46 57.5t-65.5 35.5t-71.5 12h-15q-80 0 -133 -44t-67 -117q-23 -133 239 -269q74 -37 118 -74.5t65.5 -77.5t24.5 -84t-5 -95q-23 -117 -86 -207t-176 -140q106 -59 140 -128.5t16 -176.5q-16 -96 -60.5 -167.5 t-105 -121t-133 -74t-148.5 -24.5h-16q-31 0 -74 4t-83 12.5t-67.5 19t-25.5 22.5zM268 571q-20 -125 205 -249q82 23 138.5 82t70.5 137l-2 10l2 27q-6 25 -22.5 51t-43 49.5t-63.5 39t-84 15.5q-78 0 -133.5 -45t-67.5 -117z" />
<glyph unicode="&#xa8;" horiz-adv-x="514" d="M254 1202q8 63 82 64q70 0 61 -64q-12 -63 -84 -63q-71 0 -59 63zM471 1202q8 63 82 64q70 0 61 -64q-12 -63 -84 -63q-71 0 -59 63z" />
<glyph unicode="&#xa9;" horiz-adv-x="1640" d="M168 719q25 145 105.5 279.5t198.5 237.5t265.5 164.5t306.5 61.5q143 0 268.5 -55t210.5 -154.5t122.5 -235.5t9.5 -298q-27 -147 -108 -281.5t-199.5 -238t-266 -164t-305.5 -60.5q-152 0 -275.5 59.5t-206.5 162t-118 236.5t-8 286zM240 719q-25 -141 8 -264 t109.5 -214t188 -142.5t242.5 -51.5q139 0 271.5 53.5t240 145.5t182 214t99.5 259q27 150 -9 273.5t-114 211.5t-189.5 137.5t-236.5 49.5q-135 0 -260 -45.5t-254 -151.5q-100 -80 -176.5 -206t-101.5 -269zM492 717q45 258 176 381t342 123q127 0 233 -60l-22 -131 q-10 -43 -29 -43q-8 0 -16.5 10.5t-12.5 32.5l-8 43q-16 37 -55 58.5t-107 17.5q-137 -8 -240.5 -117.5t-138.5 -314.5q-37 -211 32 -321.5t204 -110.5q66 0 108.5 18.5t71.5 54.5l23 43q20 45 43 45q20 0 14 -45l-25 -131q-121 -57 -254 -57q-211 0 -298.5 122t-40.5 382z " />
<glyph unicode="&#xaa;" horiz-adv-x="714" d="M256 1225q10 57 43 98t82 67.5t111.5 38t134.5 11.5h22q12 0 19 18l6 45q25 135 -99 135q-86 0 -155 -20q-16 2 -25.5 8t-5.5 23q4 23 39 39q55 27 162 26q129 0 179 -58.5t30 -164.5l-62 -350q-2 -14 4.5 -20.5t18.5 -10.5l10 -4q27 -8 21 -33q-12 -33 -54 -33 q-80 0 -116 43q-102 -43 -187 -43q-104 0 -148 52.5t-30 132.5zM379 1229q-8 -41 11.5 -75t94.5 -34q25 0 50.5 3t54.5 7q20 8 22 23l37 207q4 16 -12 16q-133 -6 -189.5 -42.5t-68.5 -104.5z" />
<glyph unicode="&#xab;" horiz-adv-x="1206" d="M139 563q2 8 15 21l534 516q18 18 53 18l103 2q18 0 16 -14q0 -6 -10 -21l-457 -501q-10 -10 -12 -25q-2 -12 4 -22l277 -500q6 -16 4 -25q-4 -12 -19 -12h-102q-29 0 -58 20l-337 521q-11 10 -11 22zM569 563q2 10 13 21l536 516q18 18 51 18l103 2q18 0 16 -14 q0 -6 -10 -21l-459 -501l-8 -21q0 -18 2 -26l277 -500q6 -16 4 -25q-4 -12 -19 -12h-102q-35 0 -58 20l-337 521q-9 14 -9 22z" />
<glyph unicode="&#xac;" horiz-adv-x="993" d="M158 668l18 100h840l-86 -494h-99l68 394h-741z" />
<glyph unicode="&#xad;" />
<glyph unicode="&#xae;" horiz-adv-x="1640" d="M168 719q25 145 105.5 279.5t198.5 237.5t265.5 164.5t306.5 61.5q143 0 268.5 -55t210.5 -154.5t122.5 -235.5t9.5 -298q-27 -147 -108 -281.5t-199.5 -238t-266 -164t-305.5 -60.5q-152 0 -275.5 59.5t-206.5 162t-118 236.5t-8 286zM240 719q-25 -141 8 -264 t109.5 -214t188 -142.5t242.5 -51.5q139 0 271.5 53.5t240 145.5t182 214t99.5 259q27 150 -9 273.5t-114 211.5t-189.5 137.5t-236.5 49.5q-135 0 -260 -45.5t-254 -151.5q-100 -80 -176.5 -206t-101.5 -269zM473 236q2 14 17.5 21t34 13t32.5 14.5t18 24.5l144 815 q2 12 -10.5 20.5t-27.5 15.5t-27.5 15.5t-10.5 20.5q4 23 33 23h309q154 0 228.5 -68t52.5 -203q-10 -55 -41 -103t-71 -83t-84 -55.5t-81 -20.5q-18 -8 -18 -16q-2 -6 2 -17l149 -352q6 -14 19.5 -21.5t27 -13.5t22.5 -12t7 -18q-4 -23 -37 -23h-90q-29 0 -39 29l-168 401 q-10 25 -37 25h-43q-29 0 -34 -27l-58 -332q-6 -31 37 -37q45 -14 39 -36q-4 -23 -33 -23h-237q-29 0 -25 23zM772 770q-2 -27 25 -27h86q227 0 262 201q33 193 -193 199l-75 2h-7q-31 0 -36 -27z" />
<glyph unicode="&#xaf;" horiz-adv-x="669" d="M252 1194l22 127h517l-23 -127h-516z" />
<glyph unicode="&#xb0;" horiz-adv-x="655" d="M250 1186q8 49 34.5 94t65.5 80t89 55.5t108 20.5q55 0 97 -22.5t68.5 -57.5t37 -80t2.5 -90q-8 -43 -33 -88t-64 -81t-90 -58.5t-108 -22.5t-100.5 21.5t-70 56.5t-35.5 80t-1 92zM354 1186q-10 -66 29 -106t94 -40q25 0 52.5 10.5t51 30t41 46t23.5 59.5q6 37 -3 64.5 t-27.5 45t-42 26.5t-44.5 9q-25 0 -53.5 -9t-53 -27.5t-43 -46t-24.5 -62.5z" />
<glyph unicode="&#xb1;" horiz-adv-x="940" d="M92 154q12 47 60 47h655q53 0 43 -47q-4 -25 -21.5 -37.5t-37.5 -12.5h-658q-53 1 -41 50zM162 688q2 10 7 19.5t11 15.5q18 12 39 12l293 -4l43 281q2 25 18 37t40 11t34 -13q8 -16 6 -37l-43 -283l291 -4q10 0 20.5 -1t16.5 -9q10 -12 7 -37t-17 -39q-18 -12 -41 -12 l-293 6l-47 -307q-2 -20 -19 -37q-16 -12 -38.5 -11.5t-32.5 13.5q-12 14 -8 39l47 303l-293 4q-27 2 -33 12q-10 14 -8 41z" />
<glyph unicode="&#xb2;" horiz-adv-x="630" d="M231 1075l7 41q10 29 47 58l252 188q78 57 92 145q10 59 -17.5 83t-97.5 24q-59 0 -141 -19q-2 -2 -15 -2q-25 0 -32 27q8 39 39 45q111 49 202 49q117 0 163 -55t30 -137q-12 -68 -66.5 -127.5t-140.5 -122.5l-168 -123h219q8 0 19.5 13.5t17.5 17.5q14 16 28.5 27.5 t28.5 11.5q35 0 29 -33l-37 -101q-6 -18 -17 -30.5t-30 -12.5h-383q-35 0 -29 33z" />
<glyph unicode="&#xb3;" horiz-adv-x="636" d="M213 973q14 31 47 31q47 -16 87 -21.5t75 -5.5q154 0 180 162q10 59 -18.5 88.5t-83.5 29.5h-60q-35 0 -26 39l2 21q6 33 41 33h59q109 0 127 110q10 59 -17.5 105.5t-103.5 46.5q-55 0 -141 -31q-35 0 -37 33q4 20 30.5 36.5t61.5 29t69 18.5t52 6q59 0 101 -20.5 t68 -54.5t33 -79t-1 -96q-18 -106 -94 -151q82 -45 59 -179q-18 -104 -98 -173.5t-209 -69.5q-18 0 -54 6t-70 17t-58.5 28.5t-20.5 40.5z" />
<glyph unicode="&#xb4;" horiz-adv-x="509" d="M236 1106l266 231q35 29 50 37t32 8q27 0 39 -15t8 -40q-6 -35 -58 -63l-284 -158h-53z" />
<glyph unicode="&#xb5;" horiz-adv-x="1292" d="M-18 -342q6 39 47 39q111 0 175 59.5t89 200.5l160 903q4 23 -14.5 29t-40 8t-40 7t-14.5 26q2 14 22.5 27.5t48 22.5t60.5 14t62 5h59q41 0 35 -38l-111 -621q-6 -41 -1 -82t23.5 -72.5t51.5 -51t80 -19.5q100 0 266 104l113 641q4 23 -14.5 29t-40 8t-40 7t-14.5 26 q4 29 66.5 49t185.5 20q39 0 33 -38l-148 -832q-4 -23 13.5 -30t40 -10t40 -7t15.5 -21q-2 -16 -23.5 -29.5t-49 -22.5t-55.5 -14t-44 -5l-70 2q-49 0 -39 49l17 98q-184 -141 -332 -141q-74 0 -129 25l-12 -66q-31 -180 -138.5 -260t-300.5 -80q-42 0 -32 41z" />
<glyph unicode="&#xb6;" horiz-adv-x="989" d="M231 1085q14 80 54.5 144.5t100.5 110.5t137 71t165 25h442l-12 -70h-127l-241 -1366h-82l241 1366h-166l-241 -1366h-84l129 737q-184 10 -262.5 105.5t-53.5 242.5z" />
<glyph unicode="&#xb7;" horiz-adv-x="354" d="M164 700q14 80 115 80q47 0 70.5 -21.5t15.5 -58.5q-12 -80 -115 -79q-98 -1 -86 79z" />
<glyph unicode="&#xb8;" horiz-adv-x="561" d="M-27 -385l17 94q72 -51 143 -51q66 0 97.5 21.5t39.5 66.5q8 41 -30.5 60.5t-104.5 19.5h-18q-14 0 -17 -2l78 176h64l-56 -104q31 6 64 6q88 0 128 -41t25 -115q-14 -76 -78.5 -120t-168.5 -44q-126 0 -183 33z" />
<glyph unicode="&#xb9;" horiz-adv-x="438" d="M254 1069q4 16 18.5 25.5t30.5 17.5q10 6 21.5 12t13.5 17l82 463q2 8 -25 8h-22q-49 0 -43 26q4 16 18 25.5t33 13.5l137 35q39 0 33 -33l-96 -540q-2 -10 7 -15.5t19 -11.5q16 -10 26.5 -19.5t6.5 -23.5q-6 -27 -39 -27h-190q-14 0 -24.5 6.5t-6.5 20.5z" />
<glyph unicode="&#xba;" horiz-adv-x="741" d="M280.5 1234q-10.5 60 2.5 134q20 117 80.5 203t154.5 121q31 12 60.5 17t58.5 5q63 0 113.5 -23.5t81 -68.5t42 -109.5t-3.5 -144.5q-27 -147 -120 -238.5t-234 -91.5q-66 0 -115 24.5t-79.5 68t-41 103.5zM412 1368q-18 -104 8 -172t112 -68q80 0 134.5 62.5t72.5 173.5 q23 123 -3.5 193.5t-112.5 70.5q-31 0 -70 -16q-55 -23 -90 -87.5t-51 -156.5z" />
<glyph unicode="&#xbb;" horiz-adv-x="1206" d="M45 12q4 12 14 25l453 500q10 14 10 24q4 10 -2 23l-280 501q-4 10 -4 21q2 14 22 14l102 -2q35 0 48 -18l352 -516q6 -10 4 -21q0 -4 -4 -9t-8 -13l-523 -521q-35 -20 -65 -20h-103q-20 0 -16 12zM473 12q4 12 14 25l453 500q8 6 12 24q4 10 -2 23l-282 501q-2 8 -2 21 q2 14 20 14l102 -2q33 0 50 -18l350 -516q6 -10 4 -21q0 -4 -4 -9t-8 -13l-523 -521q-29 -20 -65 -20h-103q-20 0 -16 12z" />
<glyph unicode="&#xbc;" horiz-adv-x="1288" d="M41 -2l1219 1360h106l-1212 -1360h-113zM229 717q4 18 18.5 27.5t31.5 17.5q10 6 21 12t13 17l84 471q0 8 -26 8h-23q-47 0 -41 26q4 16 18.5 26.5t32.5 14.5l138 35q37 0 30 -35l-96 -549q-2 -10 7 -15t20 -11q16 -10 26.5 -19.5t5.5 -25.5q-4 -14 -15 -20.5t-25 -6.5 h-191q-14 0 -23.5 6.5t-5.5 20.5zM594 96l6 31q6 29 23 47l407 471l14 17q18 20 50 20h47q35 0 28 -33l-84 -475q-2 -14 13 -14h71q35 0 29 -33l-6 -31q-4 -31 -39 -30l-74 -3q-12 -2 -16 -12l-29 -162q-2 -33 -39 -32h-47q-33 0 -30 32l28 162q2 12 -10 12h-313 q-31 0 -29 33zM717 156q0 -2 2 1t6 3h229q12 0 15 14l63 356l-313 -372z" />
<glyph unicode="&#xbd;" horiz-adv-x="1351" d="M41 -2l1219 1360h106l-1212 -1360h-113zM229 719q4 16 18.5 26.5t31.5 16.5q10 6 21 12t13 17l84 471q0 8 -26 8h-23q-47 0 -41 28q4 16 18.5 25.5t32.5 13.5l138 35q37 0 30 -35l-96 -549q-2 -10 7 -15t20 -11q35 -18 32 -43q-6 -27 -38 -27h-191q-14 0 -24.5 6.5 t-6.5 20.5zM768 35l8 41q6 29 45 57l254 191q76 57 92 147q10 59 -17.5 84t-96.5 25q-59 0 -142 -19q-2 -2 -14 -2q-25 0 -31 29q6 37 37 45q111 49 203 49q117 0 163 -55.5t29 -141.5q-12 -68 -66 -127t-142 -125l-168 -124h219q8 0 19 13t18 17q14 16 29.5 28.5t29.5 12.5 q33 0 29 -35l-37 -102q-8 -18 -19.5 -30.5t-29.5 -12.5h-383q-35 0 -29 35z" />
<glyph unicode="&#xbe;" horiz-adv-x="1447" d="M152 629q14 33 49 33q47 -16 86 -22.5t73 -6.5q152 0 183 164q10 59 -18.5 90t-84.5 31h-59q-35 0 -29 38l4 21q6 33 41 33h60q57 0 86.5 29.5t40.5 82.5q10 59 -17.5 106.5t-103.5 47.5q-55 0 -141 -31q-35 0 -37 33q4 20 30.5 36.5t61.5 29t68.5 18.5t52.5 6 q59 0 101 -20.5t67.5 -55.5t33 -80t-1.5 -96q-18 -109 -94 -153q82 -47 58 -181q-18 -106 -98.5 -175.5t-209.5 -69.5q-18 0 -54 6t-69.5 17t-58 28.5t-20.5 40.5zM209 -2l1218 1360h107l-1212 -1360h-113zM754 96l6 31q6 29 22 47l408 471l14 17q18 20 49 20h47 q35 0 29 -33l-84 -475q-2 -14 12 -14h72q35 0 29 -33l-6 -31q-4 -31 -39 -30l-74 -3q-12 -2 -16 -12l-29 -162q-2 -33 -39 -32h-47q-33 0 -31 32l29 162q2 12 -10 12h-314q-34 0 -28 33zM877 156q0 -2 2 1t6 3h229q12 0 14 14l64 358l-313 -374z" />
<glyph unicode="&#xbf;" horiz-adv-x="888" d="M66 137q12 31 36 31q14 0 17 -2q66 -23 124 -32t107 -9q135 0 217 75.5t105 211.5q31 178 -88 284q-123 111 -95 271l52 278h118l-47 -276q-18 -111 86 -191q86 -66 128 -162t20 -219q-14 -82 -49 -152.5t-92.5 -123.5t-137.5 -84t-184 -31q-29 0 -84 9.5t-109.5 25.5 t-92 40.5t-31.5 55.5zM539 1407q14 80 104 80t76 -80q-6 -37 -33 -58.5t-72 -21.5q-87 0 -75 80z" />
<glyph unicode="&#xc0;" horiz-adv-x="1310" d="M6 31q2 18 22.5 27.5t45 18.5t48 21.5t34.5 34.5l606 1204q23 41 63 41h78q39 0 43 -37l184 -1212q6 -41 64 -49q55 -20 51 -49q-6 -31 -45 -31h-317q-43 0 -37 31q2 14 20.5 24.5t41 19.5t41 18t20.5 22v12l-31 235q-4 37 -43 37h-446q-47 0 -66 -37l-104 -233l-5 -12 q0 -2 -2 -4q-2 -12 13.5 -20.5t34 -16.5t34 -18.5t13.5 -26.5q-6 -31 -48 -31h-280q-39 0 -33 31zM467 518q-4 -18 25 -18h399q20 0 20 16v21l-92 616q-2 20 -10 21q-6 0 -18 -21l-318 -616q-6 -17 -6 -19zM721 1655q4 25 22.5 40t44.5 15q16 0 29.5 -8t36.5 -37l184 -231 h-53l-227 157q-41 29 -37 64z" />
<glyph unicode="&#xc1;" horiz-adv-x="1310" d="M6 31q2 18 22.5 27.5t45 18.5t48 21.5t34.5 34.5l606 1204q23 41 63 41h78q39 0 43 -37l184 -1212q6 -41 64 -49q55 -20 51 -49q-6 -31 -45 -31h-317q-43 0 -37 31q2 14 20.5 24.5t41 19.5t41 18t20.5 22v12l-31 235q-4 37 -43 37h-446q-47 0 -66 -37l-104 -233l-5 -12 q0 -2 -2 -4q-2 -12 13.5 -20.5t34 -16.5t34 -18.5t13.5 -26.5q-6 -31 -48 -31h-280q-39 0 -33 31zM467 518q-4 -18 25 -18h399q20 0 20 16v21l-92 616q-2 20 -10 21q-6 0 -18 -21l-318 -616q-6 -17 -6 -19zM662 1434l266 231q35 29 50 37t32 8q27 0 39 -15.5t8 -39.5 q-4 -35 -58 -64l-284 -157h-53z" />
<glyph unicode="&#xc2;" horiz-adv-x="1310" d="M6 31q2 18 22.5 27.5t45 18.5t48 21.5t34.5 34.5l606 1204q23 41 63 41h78q39 0 43 -37l184 -1212q6 -41 64 -49q55 -20 51 -49q-6 -31 -45 -31h-317q-43 0 -37 31q2 14 20.5 24.5t41 19.5t41 18t20.5 22v12l-31 235q-4 37 -43 37h-446q-47 0 -66 -37l-104 -233l-5 -12 q0 -2 -2 -4q-2 -12 13.5 -20.5t34 -16.5t34 -18.5t13.5 -26.5q-6 -31 -48 -31h-280q-39 0 -33 31zM467 518q-4 -18 25 -18h399q20 0 20 16v21l-92 616q-2 20 -10 21q-6 0 -18 -21l-318 -616q-6 -17 -6 -19zM668 1456l206 250h82l117 -250h-39l-137 152l-190 -152h-39z" />
<glyph unicode="&#xc3;" horiz-adv-x="1310" d="M6 31q2 18 22.5 27.5t45 18.5t48 21.5t34.5 34.5l606 1204q23 41 63 41h78q39 0 43 -37l184 -1212q6 -41 64 -49q55 -20 51 -49q-6 -31 -45 -31h-317q-43 0 -37 31q2 14 20.5 24.5t41 19.5t41 18t20.5 22v12l-31 235q-4 37 -43 37h-446q-47 0 -66 -37l-104 -233l-5 -12 q0 -2 -2 -4q-2 -12 13.5 -20.5t34 -16.5t34 -18.5t13.5 -26.5q-6 -31 -48 -31h-280q-39 0 -33 31zM467 518q-4 -18 25 -18h399q20 0 20 16v21l-92 616q-2 20 -10 21q-6 0 -18 -21l-318 -616q-6 -17 -6 -19zM666 1436l16 94q47 43 84 58.5t70 15.5q14 0 41.5 -9.5t58.5 -20.5 t59.5 -20.5t42.5 -9.5q31 0 68 18.5t90 65.5l-16 -92q-47 -45 -84 -60.5t-72 -15.5q-14 0 -43 9.5t-59.5 20.5t-58 20.5t-42.5 9.5q-31 0 -67.5 -18.5t-87.5 -65.5z" />
<glyph unicode="&#xc4;" horiz-adv-x="1310" d="M6 31q2 18 22.5 27.5t45 18.5t48 21.5t34.5 34.5l606 1204q23 41 63 41h78q39 0 43 -37l184 -1212q6 -41 64 -49q55 -20 51 -49q-6 -31 -45 -31h-317q-43 0 -37 31q2 14 20.5 24.5t41 19.5t41 18t20.5 22v12l-31 235q-4 37 -43 37h-446q-47 0 -66 -37l-104 -233l-5 -12 q0 -2 -2 -4q-2 -12 13.5 -20.5t34 -16.5t34 -18.5t13.5 -26.5q-6 -31 -48 -31h-280q-39 0 -33 31zM467 518q-4 -18 25 -18h399q20 0 20 16v21l-92 616q-2 20 -10 21q-6 0 -18 -21l-318 -616q-6 -17 -6 -19zM719 1579q12 63 82 63q74 0 61 -63q-12 -63 -84 -63q-71 0 -59 63z M936 1579q12 63 82 63q74 0 61 -63q-12 -63 -84 -63q-71 0 -59 63z" />
<glyph unicode="&#xc5;" horiz-adv-x="1310" d="M6 31q2 18 22.5 27.5t45 18.5t48 21.5t34.5 34.5l606 1204q23 41 63 41h78q39 0 43 -37l184 -1212q6 -41 64 -49q55 -20 51 -49q-6 -31 -45 -31h-317q-43 0 -37 31q2 14 20.5 24.5t41 19.5t41 18t20.5 22v12l-31 235q-4 37 -43 37h-446q-47 0 -66 -37l-104 -233l-5 -12 q0 -2 -2 -4q-2 -12 13.5 -20.5t34 -16.5t34 -18.5t13.5 -26.5q-6 -31 -48 -31h-280q-39 0 -33 31zM467 518q-4 -18 25 -18h399q20 0 20 16v21l-92 616q-2 20 -10 21q-6 0 -18 -21l-318 -616q-6 -17 -6 -19zM754 1575q10 59 58 100t108 41q66 0 97.5 -44t20.5 -97 q-10 -59 -60 -101t-110 -42q-63 0 -93.5 44t-20.5 99zM815 1575q-6 -35 12.5 -57.5t53.5 -22.5q33 0 60.5 22.5t33.5 57.5q4 29 -14.5 54.5t-53.5 25.5q-31 0 -58.5 -22.5t-33.5 -57.5z" />
<glyph unicode="&#xc6;" horiz-adv-x="1953" d="M4 18q4 23 25.5 34t50.5 20.5t59.5 23t50.5 37.5l990 1184q37 43 75 43h783q41 0 35 -41l-25 -139q-8 -39 -37 -39q-18 0 -26.5 18.5t-13.5 41t-12 41t-26 18.5h-534q-37 0 -43 -37l-78 -443q-6 -41 37 -41h229q18 0 32.5 18.5t28 42t28 42t32.5 18.5q29 0 23 -41 l-46 -254q-8 -45 -36 -45q-18 0 -26.5 18.5t-13.5 42t-13.5 42t-26.5 18.5h-232q-41 0 -49 -45l-80 -467l-2 -12q6 -16 29 -17h534q20 0 36 18.5t29 41t26.5 41t31.5 18.5q29 0 23 -39l-23 -139q-10 -41 -53 -41h-922q-33 0 -30 20q2 18 26.5 30.5t52 23t51 21.5t27.5 32 l46 238q10 35 -31 34h-447q-51 0 -77 -37l-179 -233q-6 -8 -9 -13t-5 -10q-2 -10 10.5 -16t26.5 -12t24.5 -15.5t8.5 -23.5v-8q-16 -31 -58 -31h-280q-31 0 -27 18zM623 514q-2 -14 20 -14h401q27 0 33 37l105 616q4 23 -4 23t-27 -23l-514 -616q-6 -8 -9 -13.5t-5 -9.5z " />
<glyph unicode="&#xc7;" horiz-adv-x="1073" d="M162 680q61 352 236 521t470 169q180 0 320 -82l-31 -178q-12 -59 -41 -59t-39 59l-10 59q-39 100 -199 101q-94 0 -181 -38t-158.5 -111.5t-125 -184.5t-77.5 -256q-27 -145 -12.5 -256t60.5 -184.5t119.5 -111.5t168.5 -38q158 0 231 100l33 60q29 59 61 59 q29 0 19 -59l-33 -180q-178 -80 -348 -80h-29l-49 -94q31 6 63 6q88 0 128 -41t26 -115q-14 -76 -78.5 -120t-169.5 -44q-125 0 -182 33l16 94q72 -51 144 -51q66 0 97.5 21.5t39.5 66.5q8 43 -34 61.5t-103 18.5h-17q-14 0 -16 -2l74 170q-109 10 -189 52t-129 116 q-116 174 -55 518z" />
<glyph unicode="&#xc8;" d="M47 31q2 18 22.5 28.5t44 18.5t44 19.5t24.5 31.5l197 1100q4 23 -13.5 33t-39 17t-39 17.5t-13.5 32.5q6 31 45 31h900q41 0 34 -41l-24 -139q-8 -39 -39 -39q-18 0 -25.5 18.5t-12.5 41t-12 41t-26 18.5h-534q-39 0 -45 -37l-78 -443q-6 -41 37 -41h231q18 0 32.5 18.5 t28 42t26.5 42t32 18.5q31 0 24 -41l-45 -254q-8 -45 -39 -45q-18 0 -25 18.5t-12.5 42t-13.5 42t-26 18.5h-232q-43 0 -51 -45l-80 -461q-6 -35 29 -35h532q23 0 38 18.5t28.5 41t27 41t31.5 18.5q29 0 23 -39l-25 -137q-10 -43 -51 -43h-893q-43 0 -37 31zM721 1655 q4 25 22.5 40t44.5 15q16 0 29.5 -8t36.5 -37l184 -231h-53l-227 157q-41 29 -37 64z" />
<glyph unicode="&#xc9;" d="M47 31q2 18 22.5 28.5t44 18.5t44 19.5t24.5 31.5l197 1100q4 23 -13.5 33t-39 17t-39 17.5t-13.5 32.5q6 31 45 31h900q41 0 34 -41l-24 -139q-8 -39 -39 -39q-18 0 -25.5 18.5t-12.5 41t-12 41t-26 18.5h-534q-39 0 -45 -37l-78 -443q-6 -41 37 -41h231q18 0 32.5 18.5 t28 42t26.5 42t32 18.5q31 0 24 -41l-45 -254q-8 -45 -39 -45q-18 0 -25 18.5t-12.5 42t-13.5 42t-26 18.5h-232q-43 0 -51 -45l-80 -461q-6 -35 29 -35h532q23 0 38 18.5t28.5 41t27 41t31.5 18.5q29 0 23 -39l-25 -137q-10 -43 -51 -43h-893q-43 0 -37 31zM600 1434 l266 231q35 29 50.5 37t31.5 8q27 0 39 -15.5t8 -39.5q-4 -35 -57 -64l-285 -157h-53z" />
<glyph unicode="&#xca;" d="M47 31q2 18 22.5 28.5t44 18.5t44 19.5t24.5 31.5l197 1100q4 23 -13.5 33t-39 17t-39 17.5t-13.5 32.5q6 31 45 31h900q41 0 34 -41l-24 -139q-8 -39 -39 -39q-18 0 -25.5 18.5t-12.5 41t-12 41t-26 18.5h-534q-39 0 -45 -37l-78 -443q-6 -41 37 -41h231q18 0 32.5 18.5 t28 42t26.5 42t32 18.5q31 0 24 -41l-45 -254q-8 -45 -39 -45q-18 0 -25 18.5t-12.5 42t-13.5 42t-26 18.5h-232q-43 0 -51 -45l-80 -461q-6 -35 29 -35h532q23 0 38 18.5t28.5 41t27 41t31.5 18.5q29 0 23 -39l-25 -137q-10 -43 -51 -43h-893q-43 0 -37 31zM606 1456 l207 250h82l117 -250h-39l-137 152l-191 -152h-39z" />
<glyph unicode="&#xcb;" d="M47 31q2 18 22.5 28.5t44 18.5t44 19.5t24.5 31.5l197 1100q4 23 -13.5 33t-39 17t-39 17.5t-13.5 32.5q6 31 45 31h900q41 0 34 -41l-24 -139q-8 -39 -39 -39q-18 0 -25.5 18.5t-12.5 41t-12 41t-26 18.5h-534q-39 0 -45 -37l-78 -443q-6 -41 37 -41h231q18 0 32.5 18.5 t28 42t26.5 42t32 18.5q31 0 24 -41l-45 -254q-8 -45 -39 -45q-18 0 -25 18.5t-12.5 42t-13.5 42t-26 18.5h-232q-43 0 -51 -45l-80 -461q-6 -35 29 -35h532q23 0 38 18.5t28.5 41t27 41t31.5 18.5q29 0 23 -39l-25 -137q-10 -43 -51 -43h-893q-43 0 -37 31zM657 1579 q12 63 82 63q74 0 62 -63t-84 -63t-60 63zM874 1579q12 63 82 63q74 0 62 -63t-84 -63t-60 63z" />
<glyph unicode="&#xcc;" horiz-adv-x="555" d="M47 31q4 23 24.5 32t44 16t44 16t24.5 32l197 1110q2 16 -15.5 26.5t-39 18.5t-39 18.5t-13.5 28.5q6 31 50 31h315q41 0 35 -31q-2 -31 -68 -49q-61 -10 -67 -49l-195 -1102q-4 -23 13.5 -33t39 -16t39 -16.5t13.5 -32.5q-6 -31 -50 -31h-317q-41 0 -35 31zM332 1655 q8 51 67 55q18 0 30.5 -8t35.5 -37l186 -231h-53l-229 157q-41 29 -37 64z" />
<glyph unicode="&#xcd;" horiz-adv-x="571" d="M47 31q4 23 24.5 33t44 16t44 15t24.5 32l197 1110q2 16 -15.5 26.5t-39 18.5t-39 18.5t-13.5 28.5q6 31 50 31h315q41 0 35 -31q-2 -31 -68 -49q-63 -10 -69 -49l-195 -1102q-4 -23 13.5 -33t40 -17t40 -16.5t13.5 -31.5q-10 -31 -50 -31h-317q-41 0 -35 31zM354 1434 l267 231q35 29 50 37t31 8q27 0 39.5 -15.5t8.5 -39.5q-4 -35 -58 -64l-284 -157h-54z" />
<glyph unicode="&#xce;" horiz-adv-x="563" d="M55 31q4 23 24.5 32t44 16t44 16t25.5 32l196 1110q2 16 -15.5 26.5t-39 18.5t-38.5 18.5t-13 28.5q6 31 49 31h317q41 0 35 -31q-2 -31 -70 -49q-61 -10 -67 -49l-195 -1102q-4 -23 13.5 -33t39 -16t39 -16.5t13.5 -32.5q-6 -31 -49 -31h-318q-41 0 -35 31zM297 1456 l207 250h84l117 -250h-41l-138 152l-188 -152h-41z" />
<glyph unicode="&#xcf;" horiz-adv-x="555" d="M47 31q4 23 24.5 33t44 16t44 15t24.5 32l197 1110q2 16 -15.5 26.5t-39 18.5t-39 18.5t-13.5 28.5q6 31 50 31h315q41 0 35 -31q-2 -31 -68 -49q-63 -10 -69 -49l-195 -1102q-4 -23 13.5 -33t40 -17t40 -16.5t13.5 -31.5q-10 -31 -50 -31h-317q-41 0 -35 31zM346 1579 q12 63 82 63q74 0 61 -63q-12 -63 -83 -63q-72 0 -60 63zM563 1579q12 63 82 63q74 0 62 -63t-84 -63t-60 63z" />
<glyph unicode="&#xd0;" horiz-adv-x="1212" d="M47 31q2 18 22.5 28.5t44 18.5t44 19.5t24.5 31.5l195 1100q4 20 -12.5 32.5t-38 20.5t-39 18.5t-13.5 28.5q6 31 48 31h456q563 0 443 -680q-121 -680 -680 -680h-461q-39 0 -33 31zM121 686q12 47 59 47h533q53 0 43 -47q-4 -25 -21.5 -37t-38.5 -12h-534q-53 0 -41 49 zM344 141q-6 -41 39 -41h176q186 0 312 144.5t180 435.5q51 291 -27 435.5t-264 144.5h-178q-41 0 -47 -37z" />
<glyph unicode="&#xd1;" horiz-adv-x="1271" d="M47 31q2 18 22.5 28.5t45 18.5t45 19.5t24.5 31.5l193 1090q4 23 -12.5 36t-38 23t-39 21.5t-13.5 29.5q6 31 48 31h200q41 0 56 -39l370 -1014q6 -23 17 -22q4 0 8 22l164 924q6 41 -52 49q-57 18 -53 49q6 31 49 31h275q43 0 37 -31q-4 -18 -23.5 -28.5t-43 -18.5 t-44 -19.5t-25.5 -29.5l-208 -1192q-10 -41 -52 -41h-94q-43 0 -57 39l-357 997q-10 25 -16 25t-8 -21l-162 -911q-4 -20 13.5 -31.5t39 -19.5t38 -18.5t14.5 -28.5q-6 -31 -46 -31h-280q-41 0 -35 31zM610 1464l17 95q47 43 85 58t70 15q14 0 42 -9t58.5 -20.5t58.5 -20.5 t42 -9q31 0 67.5 18.5t90.5 65.5l-17 -92q-45 -45 -82.5 -60.5t-72.5 -15.5q-14 0 -44 9t-60.5 20.5t-58.5 20.5t-40 9q-29 0 -66 -15.5t-90 -68.5z" />
<glyph unicode="&#xd2;" horiz-adv-x="1253" d="M162 680q121 688 657 688h27q266 0 370.5 -172t45.5 -516q-61 -344 -227.5 -516t-432.5 -172h-27q-536 0 -413 688zM322 680q-49 -279 31.5 -426.5t254.5 -161.5q88 6 167 47t143.5 115t111.5 180.5t72 245.5q47 279 -33 426t-254 162q-90 -6 -169 -47t-143.5 -115 t-110 -181.5t-70.5 -244.5zM721 1655q4 25 22.5 40t44.5 15q16 0 29.5 -8t36.5 -37l184 -231h-53l-227 157q-41 29 -37 64z" />
<glyph unicode="&#xd3;" horiz-adv-x="1253" d="M162 680q121 688 657 688h27q266 0 370.5 -172t45.5 -516q-61 -344 -227.5 -516t-432.5 -172h-27q-536 0 -413 688zM322 680q-49 -279 31.5 -426.5t254.5 -161.5q88 6 167 47t143.5 115t111.5 180.5t72 245.5q47 279 -33 426t-254 162q-90 -6 -169 -47t-143.5 -115 t-110 -181.5t-70.5 -244.5zM662 1434l266 231q35 29 50 37t32 8q27 0 39 -15.5t8 -39.5q-4 -35 -58 -64l-284 -157h-53z" />
<glyph unicode="&#xd4;" horiz-adv-x="1253" d="M162 680q121 688 657 688h27q266 0 370.5 -172t45.5 -516q-61 -344 -227.5 -516t-432.5 -172h-27q-536 0 -413 688zM322 680q-49 -279 31.5 -426.5t254.5 -161.5q88 6 167 47t143.5 115t111.5 180.5t72 245.5q47 279 -33 426t-254 162q-90 -6 -169 -47t-143.5 -115 t-110 -181.5t-70.5 -244.5zM645 1456l207 250h82l117 -250h-39l-138 152l-190 -152h-39z" />
<glyph unicode="&#xd5;" horiz-adv-x="1253" d="M162 680q121 688 657 688h27q266 0 370.5 -172t45.5 -516q-61 -344 -227.5 -516t-432.5 -172h-27q-536 0 -413 688zM322 680q-49 -279 31.5 -426.5t254.5 -161.5q88 6 167 47t143.5 115t111.5 180.5t72 245.5q47 279 -33 426t-254 162q-90 -6 -169 -47t-143.5 -115 t-110 -181.5t-70.5 -244.5zM637 1436l16 94q47 43 84 58.5t70 15.5q14 0 42 -9.5t58.5 -20.5t59 -20.5t43.5 -9.5q31 0 67.5 18.5t89.5 65.5l-16 -92q-47 -45 -84 -60.5t-72 -15.5q-14 0 -42.5 9.5t-59.5 20.5t-58.5 20.5t-41.5 9.5q-31 0 -68 -18.5t-88 -65.5z" />
<glyph unicode="&#xd6;" horiz-adv-x="1253" d="M162 680q121 688 657 688h27q266 0 370.5 -172t45.5 -516q-61 -344 -227.5 -516t-432.5 -172h-27q-536 0 -413 688zM322 680q-49 -279 31.5 -426.5t254.5 -161.5q88 6 167 47t143.5 115t111.5 180.5t72 245.5q47 279 -33 426t-254 162q-90 -6 -169 -47t-143.5 -115 t-110 -181.5t-70.5 -244.5zM688 1579q12 63 82 63q74 0 61 -63q-12 -63 -83 -63q-72 0 -60 63zM905 1579q12 63 82 63q76 0 64 -63t-86 -63q-72 0 -60 63z" />
<glyph unicode="&#xd7;" horiz-adv-x="761" d="M100 276q2 18 25 37l246 203l-183 213q-16 18 -12 35q4 16 24.5 32.5t37.5 16.5q14 0 36 -16l179 -211l247 205q27 16 37 16q18 0 37 -19q12 -14 8 -32t-22 -35l-248 -205l172 -194q12 -16 10 -35q-4 -16 -24.5 -32.5t-38.5 -16.5q-12 0 -33 16l-168 195l-246 -205 q-23 -18 -41 -19q-16 0 -31.5 17.5t-11.5 33.5z" />
<glyph unicode="&#xd8;" horiz-adv-x="1253" d="M162 680q121 688 657 688h27q266 0 370.5 -172t45.5 -516q-61 -344 -227.5 -516t-432.5 -172h-27q-536 0 -413 688zM304 435.5q7 -105.5 48 -181.5q27 -53 74 -92l514 1071q-68 29 -125 35q-90 -6 -169 -47t-143.5 -115t-110.5 -181.5t-70 -244.5q-25 -139 -18 -244.5z M477 127q68 -29 131 -35q88 6 167 47t143.5 115t111.5 180.5t72 245.5q45 272 -35 424q-31 57 -72 92z" />
<glyph unicode="&#xd9;" horiz-adv-x="1271" d="M246 479l133 752q4 20 -13.5 31.5t-39 19.5t-39 18.5t-13.5 28.5q6 31 48 31h319q39 0 33 -31q-4 -18 -23.5 -28.5t-44 -18.5t-45 -19.5t-24.5 -31.5l-140 -791q-57 -322 238 -321q166 0 251 83t113 236l140 793q2 18 -13.5 29.5t-37 20.5t-39 19.5t-17.5 26.5 q6 33 47 33l281 -2q39 0 33 -31q-2 -16 -22.5 -26.5t-44 -19.5t-45 -20.5t-24.5 -29.5l-137 -772q-20 -115 -68 -201t-119 -143.5t-161 -86t-192 -28.5q-199 0 -287 118.5t-47 360.5zM721 1655q4 25 22.5 40t44.5 15q16 0 29.5 -8t36.5 -37l184 -231h-53l-227 157 q-41 29 -37 64z" />
<glyph unicode="&#xda;" horiz-adv-x="1271" d="M246 479l133 752q4 20 -13.5 31.5t-39 19.5t-39 18.5t-13.5 28.5q6 31 48 31h319q39 0 33 -31q-4 -18 -23.5 -28.5t-44 -18.5t-45 -19.5t-24.5 -31.5l-140 -791q-57 -328 254 -321q158 4 240 87t108 232l140 793q2 18 -13.5 29.5t-37 20.5t-39 19.5t-17.5 26.5 q6 33 47 33l281 -2q39 0 33 -31q-2 -16 -22.5 -26.5t-44 -19.5t-45 -20.5t-24.5 -29.5l-137 -772q-20 -115 -68 -201t-119 -143.5t-161 -86t-192 -28.5q-199 0 -287 118.5t-47 360.5zM702 1434l267 231q35 29 50 37t32 8q27 0 39 -15.5t8 -39.5q-4 -35 -58 -64l-284 -157 h-54z" />
<glyph unicode="&#xdb;" horiz-adv-x="1271" d="M246 479l133 752q4 20 -13.5 31.5t-39 19.5t-39 18.5t-13.5 28.5q6 31 48 31h319q39 0 33 -31q-4 -18 -23.5 -28.5t-44 -18.5t-45 -19.5t-24.5 -31.5l-140 -791q-57 -328 254 -321q158 4 240 87t108 232l140 793q2 18 -13.5 29.5t-37 20.5t-39 19.5t-17.5 26.5 q6 33 47 33l281 -2q39 0 33 -31q-2 -16 -22.5 -26.5t-44 -19.5t-45 -20.5t-24.5 -29.5l-137 -772q-20 -115 -68 -201t-119 -143.5t-161 -86t-192 -28.5q-199 0 -287 118.5t-47 360.5zM668 1456l206 250h82l117 -250h-39l-137 152l-190 -152h-39z" />
<glyph unicode="&#xdc;" horiz-adv-x="1271" d="M246 479l133 752q4 20 -13.5 31.5t-39 19.5t-39 18.5t-13.5 28.5q6 31 48 31h319q39 0 33 -31q-4 -18 -23.5 -28.5t-44 -18.5t-45 -19.5t-24.5 -31.5l-140 -791q-57 -328 254 -321q158 4 240 87t108 232l140 793q2 18 -13.5 29.5t-37 20.5t-39 19.5t-17.5 26.5 q6 33 47 33l281 -2q39 0 33 -31q-2 -16 -22.5 -26.5t-44 -19.5t-45 -20.5t-24.5 -29.5l-137 -772q-20 -115 -68 -201t-119 -143.5t-161 -86t-192 -28.5q-199 0 -287 118.5t-47 360.5zM698 1579q12 63 82 63q74 0 62 -63t-84 -63t-60 63zM915 1579q12 63 82 63q74 0 62 -63 t-84 -63t-60 63z" />
<glyph unicode="&#xdd;" horiz-adv-x="1253" d="M274 1329q6 31 48 31h337q41 0 35 -31q-2 -14 -19.5 -21.5t-47.5 -17.5l-31 -10q-12 -2 -16 -18q-4 -10 2 -23l166 -444q6 -16 16 -17q8 0 18 17l318 444q8 16 8 21q2 12 -12 12l-31 8q-29 8 -41 22.5t-10 26.5q6 31 47 31h278q41 0 35 -31q-4 -18 -23.5 -28.5t-45 -18.5 t-51 -18.5t-40.5 -30.5l-395 -559q-33 -45 -33 -68l-84 -475q-4 -20 13.5 -31.5t39 -20.5t38 -19.5t14.5 -28.5q-6 -31 -47 -31h-320q-39 0 -32 31q2 18 22.5 28.5t45 19.5t44 20.5t23.5 29.5l84 479q6 29 -9 68l-219 557q-6 18 -27.5 28.5t-44 19.5t-40 19.5t-13.5 28.5z M702 1434l267 231q35 29 50 37t32 8q27 0 39 -15.5t8 -39.5q-4 -35 -58 -64l-284 -157h-54z" />
<glyph unicode="&#xde;" horiz-adv-x="1069" d="M-25 -377q2 18 21.5 22.5t43 7.5t44 10t25.5 30l288 1628q4 23 -14 29t-39.5 9t-40 8t-14.5 24q2 14 22.5 27.5t48 22.5t55 14t46.5 5h59q61 0 53 -39l-77 -440q-2 -27 12 -27q8 0 24 9q92 45 195 45q90 0 158.5 -37t110.5 -101.5t57.5 -149.5t-2.5 -183 q-18 -104 -65.5 -201.5t-119 -172.5t-169 -120t-216.5 -45q-39 0 -73.5 6t-81.5 19l-76 -431q-6 -39 -68 -38h-59q-18 0 -44 5t-50.5 14t-41 21.5t-12.5 28.5zM350 168q-4 -25 13.5 -38t43 -19.5t52 -7.5t43.5 -1q63 0 126.5 28t116 82t92.5 135t58 188q29 166 -25.5 264 t-185.5 98q-18 0 -53 -3t-71 -12.5t-63.5 -25.5t-31.5 -41z" />
<glyph unicode="&#xdf;" horiz-adv-x="1292" d="M47 31q2 18 22.5 28.5t45 18.5t45 19.5t24.5 31.5l129 733q6 37 -34 37h-39q-39 0 -31 51q8 49 49 49h59q23 0 25 21q31 180 138.5 260t299.5 80h37q33 0 84 -8.5t95 -33t72 -70.5t15 -122q-6 -41 -25.5 -73.5t-45 -59t-53 -46t-52.5 -34.5q-10 -6 -26.5 -15t-33 -26.5 t-29.5 -41t-19 -56.5q-20 -119 221 -213q129 -49 176 -121.5t31 -171.5q-25 -141 -127.5 -210.5t-276.5 -69.5q-72 0 -147.5 16t-155.5 55l-2 209q6 33 55 33q29 0 33 -31l17 -90q10 -45 53 -75.5t123 -30.5q123 0 190.5 57t83.5 143q18 102 -225 199q-244 96 -207 289 q14 80 65.5 134t137.5 95q27 12 64.5 41t49.5 94l5 21q2 72 -51.5 102.5t-139.5 30.5h-6q0 -4 -2 -4q-4 0 -8 4q-104 -4 -167 -61.5t-87 -198.5l-158 -891q-4 -20 12.5 -31.5t38 -19.5t38 -18.5t13.5 -28.5q-6 -31 -45 -31h-319q-41 0 -35 31z" />
<glyph unicode="&#xe0;" horiz-adv-x="970" d="M86 258q12 86 56 149.5t115 103.5t165 59.5t209 19.5h33q39 0 45 41l12 71q20 111 -18.5 169.5t-137.5 58.5q-63 0 -121.5 -7.5t-117.5 -23.5q-41 4 -35 31q6 29 49 47q84 39 235 39q186 0 259 -86t45 -246l-97 -547q-4 -27 9.5 -39t31 -20t30.5 -16.5t11 -26.5 q-10 -35 -67 -35q-119 0 -168 70q-147 -70 -287 -70q-141 0 -206.5 70.5t-49.5 187.5zM237.5 210q4.5 -34 25 -60.5t57 -43t96.5 -16.5q86 0 162 21q39 8 49 49l55 321q8 39 -31 39q-205 -8 -298 -68.5t-113 -172.5q-7 -35 -2.5 -69zM459 1327q4 25 22.5 40t44.5 15 q16 0 29.5 -8t36.5 -37l184 -231h-53l-227 158q-43 30 -37 63z" />
<glyph unicode="&#xe1;" horiz-adv-x="970" d="M88 272q14 84 61.5 144.5t118 98.5t162.5 56.5t201 18.5h33q39 0 45 41l12 71q20 111 -21 169.5t-139 58.5q-61 0 -119.5 -7.5t-115.5 -23.5q-41 4 -35 31q6 29 49 47q84 39 235 39q186 0 259 -86t45 -246l-97 -547q-4 -27 9.5 -39t31 -20t30.5 -16.5t11 -26.5 q-10 -35 -67 -35q-119 0 -168 70q-147 -70 -287 -70q-147 0 -212 74.5t-42 197.5zM237.5 210q4.5 -34 25 -60.5t57 -43t96.5 -16.5q86 0 162 21q39 8 49 49l55 321q8 39 -31 39q-205 -8 -298 -68.5t-113 -172.5q-7 -35 -2.5 -69zM399 1106l267 231q35 29 50 37t32 8 q27 0 39 -15t8 -40q-6 -35 -58 -63l-284 -158h-54z" />
<glyph unicode="&#xe2;" horiz-adv-x="970" d="M88 272q14 84 61.5 144.5t118 98.5t162.5 56.5t201 18.5h33q39 0 45 41l12 71q20 111 -21 169.5t-139 58.5q-61 0 -119.5 -7.5t-115.5 -23.5q-41 4 -35 31q6 29 49 47q84 39 235 39q186 0 259 -86t45 -246l-97 -547q-4 -27 9.5 -39t31 -20t30.5 -16.5t11 -26.5 q-10 -35 -67 -35q-119 0 -168 70q-147 -70 -287 -70q-147 0 -212 74.5t-42 197.5zM237.5 210q4.5 -34 25 -60.5t57 -43t96.5 -16.5q86 0 162 21q39 8 49 49l55 321q8 39 -31 39q-205 -8 -298 -68.5t-113 -172.5q-7 -35 -2.5 -69zM381 1108l207 250h82l116 -250h-38l-138 152 l-190 -152h-39z" />
<glyph unicode="&#xe3;" horiz-adv-x="970" d="M88 272q14 84 61.5 144.5t118 98.5t162.5 56.5t201 18.5h33q39 0 45 41l12 71q20 111 -21 169.5t-139 58.5q-61 0 -119.5 -7.5t-115.5 -23.5q-41 4 -35 31q6 29 49 47q84 39 235 39q186 0 259 -86t45 -246l-97 -547q-4 -27 9.5 -39t31 -20t30.5 -16.5t11 -26.5 q-10 -35 -67 -35q-119 0 -168 70q-147 -70 -287 -70q-147 0 -212 74.5t-42 197.5zM237.5 210q4.5 -34 25 -60.5t57 -43t96.5 -16.5q86 0 162 21q39 8 49 49l55 321q8 39 -31 39q-205 -8 -298 -68.5t-113 -172.5q-7 -35 -2.5 -69zM365 1116l16 94q47 43 85 58.5t71 15.5 q14 0 41.5 -9t58.5 -20.5t58.5 -20.5t41.5 -9q31 0 68 18.5t90 65.5l-16 -92q-45 -45 -83 -60.5t-73 -15.5q-14 0 -44 9t-60.5 20.5t-58.5 20.5t-40 9q-29 0 -65.5 -15.5t-89.5 -68.5z" />
<glyph unicode="&#xe4;" horiz-adv-x="970" d="M88 272q14 84 61.5 144.5t118 98.5t162.5 56.5t201 18.5h33q39 0 45 41l12 71q20 111 -21 169.5t-139 58.5q-61 0 -119.5 -7.5t-115.5 -23.5q-41 4 -35 31q6 29 49 47q84 39 235 39q186 0 259 -86t45 -246l-97 -547q-4 -27 9.5 -39t31 -20t30.5 -16.5t11 -26.5 q-10 -35 -67 -35q-119 0 -168 70q-147 -70 -287 -70q-147 0 -212 74.5t-42 197.5zM237.5 210q4.5 -34 25 -60.5t57 -43t96.5 -16.5q86 0 162 21q39 8 49 49l55 321q8 39 -31 39q-205 -8 -298 -68.5t-113 -172.5q-7 -35 -2.5 -69zM426 1202q8 63 82 64q70 0 61 -64 q-12 -63 -84 -63q-71 0 -59 63zM643 1202q8 63 82 64q70 0 61 -64q-12 -63 -84 -63q-71 0 -59 63z" />
<glyph unicode="&#xe5;" horiz-adv-x="970" d="M88 272q14 84 61.5 144.5t118 98.5t162.5 56.5t201 18.5h33q39 0 45 41l12 71q20 111 -21 169.5t-139 58.5q-61 0 -119.5 -7.5t-115.5 -23.5q-41 4 -35 31q6 29 49 47q84 39 235 39q186 0 259 -86t45 -246l-97 -547q-4 -27 9.5 -39t31 -20t30.5 -16.5t11 -26.5 q-10 -35 -67 -35q-119 0 -168 70q-147 -70 -287 -70q-147 0 -212 74.5t-42 197.5zM237.5 210q4.5 -34 25 -60.5t57 -43t96.5 -16.5q86 0 162 21q39 8 49 49l55 321q8 39 -31 39q-205 -8 -298 -68.5t-113 -172.5q-7 -35 -2.5 -69zM475 1241q10 53 56.5 97t109.5 44 q55 0 92 -41t27 -100t-59.5 -101t-108.5 -42t-93 41t-24 102zM537 1241q-6 -35 12 -58.5t53 -23.5q33 0 60.5 23.5t33.5 58.5q4 29 -14 53.5t-51 24.5q-31 0 -59.5 -22.5t-34.5 -55.5z" />
<glyph unicode="&#xe6;" horiz-adv-x="1497" d="M88 272q14 84 61.5 144.5t118 98.5t162.5 56.5t201 18.5h33q39 0 45 41l12 71q20 111 -21 169.5t-139 58.5q-61 0 -119.5 -7.5t-115.5 -23.5q-41 4 -35 31q4 20 29.5 36.5t65.5 27t89 16.5t100 6q117 0 190 -38t101 -106q80 72 169 110t169 38q180 0 247 -131t24 -373 q-4 -31 -37 -31h-584q-16 -86 -9 -158.5t35.5 -124.5t78 -82t116.5 -30q92 0 225 51q39 0 37 -26q-4 -25 -42 -46.5t-87 -37t-97 -24.5t-73 -9q-78 0 -148.5 30.5t-121.5 84.5q-111 -57 -217.5 -86t-192.5 -29q-154 0 -223.5 74.5t-46.5 199.5zM237.5 210q4.5 -34 23 -60.5 t54 -43t95.5 -16.5q41 0 84 7t88 20q39 12 45 43l51 289q0 12 2 25t1 23.5t-7 16.5t-23 6q-205 -4 -298 -66.5t-113 -174.5q-7 -35 -2.5 -69zM883 606q-6 -41 32 -41h390q41 0 45 41q20 174 -20 249t-163 75q-109 0 -175 -87t-109 -237z" />
<glyph unicode="&#xe7;" horiz-adv-x="894" d="M127 485q18 104 66.5 199.5t120 168.5t163.5 115t201 42q88 0 233 -41l-26 -160q-10 -43 -47 -43q-20 0 -30.5 18.5t-19 43t-18.5 48t-29 33.5q-23 12 -46 16.5t-46 4.5q-57 0 -114.5 -33t-106.5 -92.5t-86 -140t-53 -179.5q-16 -90 -4 -163.5t49 -127t95 -82t136 -28.5 q82 0 197 37q43 0 37 -27q-4 -23 -36 -41t-76 -31.5t-91 -20.5t-80 -7h-20l-52 -98q31 6 64 6q88 0 128 -41t26 -115q-14 -76 -79 -120t-169 -44q-125 0 -183 33l17 94q72 -51 143 -51q66 0 97.5 21.5t39.5 66.5q8 43 -33.5 61.5t-103.5 18.5h-16q-14 0 -17 -2l78 176 q-29 4 -56.5 10t-55.5 19q-125 53 -175.5 171.5t-21.5 284.5z" />
<glyph unicode="&#xe8;" horiz-adv-x="942" d="M126 305q-15 94 5 205q18 109 66.5 202t117 161.5t154.5 107.5t180 39q180 0 247 -131t24 -373q-4 -31 -37 -31h-584q-16 -86 -8 -158.5t35.5 -124.5t77 -82t116.5 -30q92 0 225 51q39 0 37 -26q-4 -25 -42 -46.5t-87 -37t-97 -24.5t-73 -9q-98 0 -174 38t-122 106.5 t-61 162.5zM328 606q-6 -41 32 -41h390q41 0 45 41q18 168 -19 244t-153 80q-115 2 -182.5 -82t-112.5 -242zM459 1327q4 25 22.5 40t44.5 15q16 0 29.5 -8t36.5 -37l184 -231h-53l-227 158q-43 30 -37 63z" />
<glyph unicode="&#xe9;" horiz-adv-x="942" d="M126 305q-15 94 5 205q18 109 66.5 202t117 161.5t154.5 107.5t180 39q180 0 247 -131t24 -373q-4 -31 -37 -31h-584q-16 -86 -9 -158.5t35.5 -124.5t78 -82t116.5 -30q92 0 225 51q39 0 37 -26q-4 -25 -42 -46.5t-87 -37t-97 -24.5t-73 -9q-98 0 -174 38t-122 106.5 t-61 162.5zM328 606q-6 -41 32 -41h390q41 0 45 41q20 174 -20 249t-163 75q-109 0 -175 -87t-109 -237zM440 1106l267 231q35 29 50 37t31 8q27 0 39.5 -15t8.5 -40q-6 -35 -58 -63l-284 -158h-54z" />
<glyph unicode="&#xea;" horiz-adv-x="942" d="M126 305q-15 94 5 205q18 109 66.5 202t117 161.5t154.5 107.5t180 39q180 0 247 -131t24 -373q-4 -31 -37 -31h-584q-16 -86 -9 -158.5t35.5 -124.5t78 -82t116.5 -30q92 0 225 51q39 0 37 -26q-4 -25 -42 -46.5t-87 -37t-97 -24.5t-73 -9q-98 0 -174 38t-122 106.5 t-61 162.5zM328 606q-6 -41 32 -41h390q41 0 45 41q20 174 -20 249t-163 75q-109 0 -175 -87t-109 -237zM442 1108l207 250h82l117 -250h-39l-137 152l-191 -152h-39z" />
<glyph unicode="&#xeb;" horiz-adv-x="942" d="M126 305q-15 94 5 205q18 109 66.5 202t117 161.5t154.5 107.5t180 39q180 0 247 -131t24 -373q-4 -31 -37 -31h-584q-16 -86 -9 -158.5t35.5 -124.5t78 -82t116.5 -30q92 0 225 51q39 0 37 -26q-4 -25 -42 -46.5t-87 -37t-97 -24.5t-73 -9q-98 0 -174 38t-122 106.5 t-61 162.5zM328 606q-6 -41 32 -41h390q41 0 45 41q20 174 -20 249t-163 75q-109 0 -175 -87t-109 -237zM487 1202q8 63 82 64q70 0 62 -64q-12 -63 -84 -63t-60 63zM705 1202q8 63 81 64q70 0 62 -64q-12 -63 -84 -63q-71 0 -59 63z" />
<glyph unicode="&#xec;" horiz-adv-x="573" d="M68 31q4 23 24.5 36t45 24t46 23.5t25.5 35.5l125 710q4 23 -13.5 30t-40 10t-41 7t-14.5 23q2 14 22.5 27.5t47.5 22.5t55.5 14t48.5 5h78q41 0 35 -38l-143 -809q-4 -23 12 -36.5t35.5 -25.5t36 -25.5t14.5 -33.5q-6 -31 -45 -31h-320q-40 0 -34 31zM274 1327 q4 25 22.5 40t45.5 15q16 0 29.5 -8t36.5 -37l184 -231h-53l-228 158q-43 30 -37 63z" />
<glyph unicode="&#xed;" horiz-adv-x="552" d="M47 31q4 23 24.5 36t45 24t46 23.5t25.5 35.5l125 710q4 23 -13 30t-39.5 10t-41 7t-14.5 23q2 14 22.5 27.5t47 22.5t55 14t49.5 5h78q41 0 35 -38l-144 -809q-4 -23 12.5 -36.5t36 -25.5t36 -25.5t13.5 -33.5q-6 -31 -45 -31h-319q-41 0 -35 31zM236 1106l266 231 q35 29 50 37t32 8q27 0 39 -15t8 -40q-6 -35 -58 -63l-284 -158h-53z" />
<glyph unicode="&#xee;" horiz-adv-x="565" d="M59 31q4 23 24.5 36t45.5 24t46.5 23.5t25.5 35.5l125 710q4 23 -13.5 30t-40 10t-41 7t-14.5 23q2 14 22.5 27.5t47 22.5t55.5 14t49 5h78q41 0 35 -38l-144 -809q-4 -23 12.5 -36.5t36 -25.5t36 -25.5t14.5 -33.5q-6 -31 -45 -31h-320q-41 0 -35 31zM236 1108l206 250 h82l117 -250h-39l-137 152l-191 -152h-38z" />
<glyph unicode="&#xef;" horiz-adv-x="552" d="M47 31q4 23 24.5 36t45 24t46 23.5t25.5 35.5l125 710q4 23 -13 30t-39.5 10t-41 7t-14.5 23q2 14 22.5 27.5t47 22.5t55 14t49.5 5h78q41 0 35 -38l-144 -809q-4 -23 12.5 -36.5t36 -25.5t36 -25.5t13.5 -33.5q-6 -31 -45 -31h-319q-41 0 -35 31zM254 1202q8 63 82 64 q70 0 61 -64q-12 -63 -84 -63q-71 0 -59 63zM471 1202q8 63 82 64q72 0 63 -64q-12 -63 -86 -63q-71 0 -59 63z" />
<glyph unicode="&#xf0;" horiz-adv-x="1005" d="M120 395.5q1 57.5 9 108.5q18 104 61 195.5t106.5 159t147.5 106.5t187 39q98 0 160.5 -43t66.5 -121l-4 141q0 45 -16.5 96t-53.5 92q-4 10 -20 23l-117 -66h-55l121 105l-19 8q-29 12 -63.5 20.5t-75.5 8.5q-39 0 -84 -10.5t-92 -10.5q-29 0 -29 33q4 27 35 42t71 24.5 t81 12.5t65 3q113 0 207 -47l51 43q35 29 49.5 37t32.5 8q57 -2 47 -55q-6 -31 -57 -64l-47 -27q29 -27 48 -58.5t36 -65.5q45 -111 49 -256.5t-29 -325.5q-25 -145 -77 -249.5t-121.5 -171.5t-150.5 -98.5t-167 -31.5q-170 0 -276 111q-29 29 -46.5 74.5t-24.5 99t-6 111z M289 395q0 -43 6 -90t24.5 -87t52.5 -66.5t89 -26.5q289 0 358 395l8 51q8 45 8.5 89.5t-20.5 60.5q-39 88 -90 129t-111 41q-61 0 -113 -30t-92 -82t-68 -120.5t-42 -144.5q-2 -10 -6 -43t-4 -76z" />
<glyph unicode="&#xf1;" horiz-adv-x="1153" d="M47 31q2 18 23.5 28.5t45 19.5t44 20.5t24.5 29.5l129 731q4 23 -13 30t-39.5 10t-41 7t-14.5 23q2 14 22.5 27.5t47 22.5t55 14t49.5 5h78q41 0 35 -38l-19 -101q98 72 184 113t164 41q137 0 192.5 -93.5t28.5 -240.5l-100 -549q-4 -20 13.5 -31.5t39 -20.5t38 -19.5 t14.5 -28.5q-6 -31 -48 -31h-319q-41 0 -35 31q2 18 23.5 28.5t46 19.5t45 20.5t24.5 29.5l99 551q6 37 1 76t-21.5 69.5t-47.5 50t-74 19.5q-53 0 -122.5 -30.5t-159.5 -84.5l-115 -649q-4 -20 13.5 -31.5t38 -20.5t37 -19.5t13.5 -28.5q-6 -31 -45 -31h-319q-41 0 -35 31z M487 1116l17 94q47 43 85 58.5t70 15.5q14 0 42 -9t59 -20.5t58.5 -20.5t41.5 -9q31 0 68 18.5t90 65.5l-17 -92q-45 -45 -82.5 -60.5t-72.5 -15.5q-14 0 -44 9t-60.5 20.5t-58.5 20.5t-40 9q-29 0 -66 -15.5t-90 -68.5z" />
<glyph unicode="&#xf2;" horiz-adv-x="1013" d="M123 285q-14 92 4 202q33 180 123 310.5t223 179.5q94 35 176 35q94 0 167 -37t118 -105.5t59.5 -166t-6.5 -216.5q-20 -113 -67.5 -205t-116 -158.5t-153.5 -102t-181 -35.5q-98 0 -171 36.5t-117 103.5t-58 159zM281 334q2 -72 24.5 -124t67.5 -83t114 -31 q66 0 121.5 28t97.5 79t71.5 120.5t43.5 155.5q37 205 -10 317.5t-178 112.5q-59 0 -115 -26q-90 -41 -145.5 -146.5t-79.5 -249.5q-14 -81 -12 -153zM541 1327q4 25 22.5 40t44.5 15q16 0 29.5 -8t36.5 -37l184 -231h-53l-227 158q-43 30 -37 63z" />
<glyph unicode="&#xf3;" horiz-adv-x="1013" d="M121.5 282.5q-15.5 92.5 5.5 204.5q33 180 123 310.5t223 179.5q94 35 176 35q92 0 165 -36t118 -103.5t60.5 -165t-5.5 -220.5q-18 -111 -65.5 -202.5t-115 -158.5t-153.5 -103.5t-184 -36.5q-96 0 -169 35.5t-118 102t-60.5 159zM281 335q2 -71 24.5 -124t66.5 -84 t115 -31q63 0 119 28t99 79t72.5 120.5t43.5 155.5q16 94 15.5 173t-23 136.5t-67 89t-113.5 31.5q-59 0 -115 -26q-90 -41 -145.5 -146.5t-79.5 -249.5q-14 -81 -12 -152zM481 1106l267 231q35 29 50 37t31 8q27 0 39.5 -15t8.5 -40q-6 -35 -58 -63l-284 -158h-54z" />
<glyph unicode="&#xf4;" horiz-adv-x="1013" d="M121.5 282.5q-15.5 92.5 5.5 204.5q33 180 123 310.5t223 179.5q94 35 176 35q92 0 165 -36t118 -103.5t60.5 -165t-5.5 -220.5q-18 -111 -65.5 -202.5t-115 -158.5t-153.5 -103.5t-184 -36.5q-96 0 -169 35.5t-118 102t-60.5 159zM281 335q2 -71 24.5 -124t66.5 -84 t115 -31q63 0 119 28t99 79t72.5 120.5t43.5 155.5q16 94 15.5 173t-23 136.5t-67 89t-113.5 31.5q-59 0 -115 -26q-90 -41 -145.5 -146.5t-79.5 -249.5q-14 -81 -12 -152zM469 1108l207 250h82l116 -250h-38l-138 152l-190 -152h-39z" />
<glyph unicode="&#xf5;" horiz-adv-x="1013" d="M121.5 282.5q-15.5 92.5 5.5 204.5q33 180 123 310.5t223 179.5q94 35 176 35q92 0 165 -36t118 -103.5t60.5 -165t-5.5 -220.5q-18 -111 -65.5 -202.5t-115 -158.5t-153.5 -103.5t-184 -36.5q-96 0 -169 35.5t-118 102t-60.5 159zM281 335q2 -71 24.5 -124t66.5 -84 t115 -31q63 0 119 28t99 79t72.5 120.5t43.5 155.5q16 94 15.5 173t-23 136.5t-67 89t-113.5 31.5q-59 0 -115 -26q-90 -41 -145.5 -146.5t-79.5 -249.5q-14 -81 -12 -152zM406 1116l16 94q47 43 85 58.5t71 15.5q14 0 41.5 -9t58.5 -20.5t58.5 -20.5t41.5 -9q31 0 68 18.5 t90 65.5l-16 -92q-45 -45 -83 -60.5t-73 -15.5q-14 0 -44 9t-60.5 20.5t-58.5 20.5t-40 9q-29 0 -65.5 -15.5t-89.5 -68.5z" />
<glyph unicode="&#xf6;" horiz-adv-x="1013" d="M121.5 282.5q-15.5 92.5 5.5 204.5q33 180 123 310.5t223 179.5q94 35 176 35q92 0 165 -36t118 -103.5t60.5 -165t-5.5 -220.5q-18 -111 -65.5 -202.5t-115 -158.5t-153.5 -103.5t-184 -36.5q-96 0 -169 35.5t-118 102t-60.5 159zM281 335q2 -71 24.5 -124t66.5 -84 t115 -31q63 0 119 28t99 79t72.5 120.5t43.5 155.5q16 94 15.5 173t-23 136.5t-67 89t-113.5 31.5q-59 0 -115 -26q-90 -41 -145.5 -146.5t-79.5 -249.5q-14 -81 -12 -152zM508 1202q8 63 82 64q70 0 61 -64q-12 -63 -84 -63q-71 0 -59 63zM725 1202q8 63 82 64q70 0 61 -64 q-12 -63 -84 -63q-71 0 -59 63z" />
<glyph unicode="&#xf7;" horiz-adv-x="911" d="M137 543q10 47 60 47h655q49 0 43 -47q-4 -25 -22.5 -37t-38.5 -12h-658q-51 0 -39 49zM358 293q14 88 117 88q98 0 84 -88t-115 -88q-100 0 -86 88zM358 293q-14 -88 86 -88t115 88q14 88 -84 88q-103 0 -117 -88zM379 293q12 68 92 67q41 0 57.5 -18t10.5 -49 q-12 -68 -93 -68q-79 0 -67 68zM449 799q14 88 114 88t86 -88t-117 -88q-97 0 -83 88zM449 799q-14 -88 83 -88q102 0 117 88q14 88 -86 88t-114 -88zM469 799q12 68 92 67q80 0 68 -67q-12 -68 -92 -68t-68 68z" />
<glyph unicode="&#xf8;" horiz-adv-x="1013" d="M121.5 282.5q-15.5 92.5 5.5 204.5q33 180 123 310.5t223 179.5q94 35 176 35q92 0 165 -36t118 -103.5t60.5 -165t-5.5 -220.5q-18 -111 -65.5 -202.5t-115 -158.5t-153.5 -103.5t-184 -36.5q-96 0 -169 35.5t-118 102t-60.5 159zM281 335q2 -71 24 -124q16 -39 47 -70 l361 754q-23 14 -80 14q-59 0 -115 -26q-90 -41 -145.5 -146.5t-79.5 -249.5q-14 -81 -12 -152zM403 111q27 -14 84 -15q63 0 119 28t99 79t72.5 120.5t43.5 155.5q16 94 15.5 173t-23.5 136q-18 43 -47 72z" />
<glyph unicode="&#xf9;" horiz-adv-x="1153" d="M205 930q2 14 22.5 27.5t48 22.5t60.5 14t61 5h60q41 0 35 -38l-111 -621q-6 -41 -1 -82t23.5 -72.5t51 -51t80.5 -19.5q100 0 266 104l112 641q4 23 -14 29t-39.5 8t-40 7t-14.5 26q4 29 66.5 49t185.5 20q39 0 33 -38l-148 -832q-4 -23 13.5 -30t40 -10t40 -7t15.5 -21 q-2 -16 -23.5 -29.5t-49.5 -22.5t-55.5 -14t-43.5 -5l-70 2q-49 0 -39 49l16 98q-184 -141 -331 -141q-143 0 -202.5 93t-31.5 249l92 520q4 23 -14 29t-39.5 8t-40 7.5t-14.5 25.5zM561 1327q4 25 22.5 40t45.5 15q16 0 29.5 -8t35.5 -37l185 -231h-54l-227 158 q-43 30 -37 63z" />
<glyph unicode="&#xfa;" horiz-adv-x="1153" d="M205 930q2 14 22.5 27.5t48 22.5t60.5 14t61 5h60q41 0 35 -38l-111 -621q-6 -41 -1 -82t23.5 -72.5t51 -51t80.5 -19.5q100 0 266 104l112 641q4 23 -14 29t-39.5 8t-40 7t-14.5 26q4 29 66.5 49t185.5 20q39 0 33 -38l-148 -832q-4 -23 13.5 -30t40 -10t40 -7t15.5 -21 q-2 -16 -23.5 -29.5t-49.5 -22.5t-55.5 -14t-43.5 -5l-70 2q-49 0 -39 49l16 98q-184 -141 -331 -141q-143 0 -202.5 93t-31.5 249l92 520q4 23 -14 29t-39.5 8t-40 7.5t-14.5 25.5zM543 1106l266 231q35 29 50 37t32 8q27 0 39 -15t8 -40q-6 -35 -57 -63l-285 -158h-53z " />
<glyph unicode="&#xfb;" horiz-adv-x="1153" d="M205 930q2 14 22.5 27.5t48 22.5t60.5 14t61 5h60q41 0 35 -38l-111 -621q-6 -41 -1 -82t23.5 -72.5t51 -51t80.5 -19.5q100 0 266 104l112 641q4 23 -14 29t-39.5 8t-40 7t-14.5 26q4 29 66.5 49t185.5 20q39 0 33 -38l-148 -832q-4 -23 13.5 -30t40 -10t40 -7t15.5 -21 q-2 -16 -23.5 -29.5t-49.5 -22.5t-55.5 -14t-43.5 -5l-70 2q-49 0 -39 49l16 98q-184 -141 -331 -141q-143 0 -202.5 93t-31.5 249l92 520q4 23 -14 29t-39.5 8t-40 7.5t-14.5 25.5zM520 1108l207 250h82l117 -250h-39l-137 152l-191 -152h-39z" />
<glyph unicode="&#xfc;" horiz-adv-x="1153" d="M205 930q2 14 22.5 27.5t48 22.5t60.5 14t61 5h60q41 0 35 -38l-111 -621q-6 -41 -1 -82t23.5 -72.5t51 -51t80.5 -19.5q100 0 266 104l112 641q4 23 -14 29t-39.5 8t-40 7t-14.5 26q4 29 66.5 49t185.5 20q39 0 33 -38l-148 -832q-4 -23 13.5 -30t40 -10t40 -7t15.5 -21 q-2 -16 -23.5 -29.5t-49.5 -22.5t-55.5 -14t-43.5 -5l-70 2q-49 0 -39 49l16 98q-184 -141 -331 -141q-143 0 -202.5 93t-31.5 249l92 520q4 23 -14 29t-39.5 8t-40 7.5t-14.5 25.5zM549 1202q8 63 82 64q70 0 61 -64q-12 -63 -84 -63q-71 0 -59 63zM766 1202q8 63 82 64 q70 0 61 -64q-12 -63 -84 -63q-71 0 -59 63z" />
<glyph unicode="&#xfd;" horiz-adv-x="1083" d="M35 -285q6 33 43 33q18 0 31.5 -8t29 -17.5t35 -17.5t51.5 -8q37 0 74 24.5t66 77.5l110 211l-143 854q-4 27 -24.5 42.5t-42 24.5t-39 17t-13.5 23q6 29 45 28h330q39 0 35 -28q-2 -12 -20.5 -19.5t-41 -15.5t-41 -18.5t-20.5 -24.5q2 -4 2 -14l94 -576q4 -23 10 -22 q10 0 21 22l297 576l4 12q2 16 -12.5 26.5t-34 18.5t-35 15t-12.5 20q4 29 43 28l272 2q37 0 35 -30q-2 -12 -21.5 -20.5t-46 -18.5t-52.5 -25.5t-40 -42.5l-575 -1095q-49 -94 -107.5 -131t-124.5 -39q-29 0 -62.5 9t-61 24.5t-45 36.5t-13.5 46zM584 1106l266 231 q35 29 50 37t32 8q27 0 39 -15t8 -40q-6 -35 -57 -63l-285 -158h-53z" />
<glyph unicode="&#xfe;" horiz-adv-x="1069" d="M-25 -377q2 18 21.5 22.5t43 7.5t44 10t25.5 30l288 1628q4 23 -14 29t-39.5 9t-40 8t-14.5 24q2 14 22.5 27.5t48 22.5t55 14t46.5 5h59q61 0 53 -39l-77 -440q-2 -27 12 -27q8 0 24 9q92 45 195 45q90 0 158.5 -37t110.5 -101.5t57.5 -149.5t-2.5 -183 q-18 -104 -65.5 -201.5t-119 -172.5t-169 -120t-216.5 -45q-39 0 -73.5 6t-81.5 19l-76 -431q-6 -39 -68 -38h-59q-18 0 -44 5t-50.5 14t-41 21.5t-12.5 28.5zM350 168q-4 -25 13.5 -38t43 -19.5t52 -7.5t43.5 -1q63 0 126.5 28t116 82t92.5 135t58 188q29 166 -25.5 264 t-185.5 98q-18 0 -53 -3t-71 -12.5t-63.5 -25.5t-31.5 -41z" />
<glyph unicode="&#xff;" horiz-adv-x="1083" d="M35 -285q6 33 43 33q18 0 31.5 -8t29 -17.5t35 -17.5t51.5 -8q37 0 74 24.5t66 77.5l110 211l-143 854q-4 27 -24.5 42.5t-42 24.5t-39 17t-13.5 23q6 29 45 28h330q39 0 35 -28q-2 -12 -20.5 -19.5t-41 -15.5t-41 -18.5t-20.5 -24.5q2 -4 2 -14l94 -576q4 -23 10 -22 q10 0 21 22l297 576l4 12q2 16 -12.5 26.5t-34 18.5t-35 15t-12.5 20q4 29 43 28l272 2q37 0 35 -30q-2 -12 -21.5 -20.5t-46 -18.5t-52.5 -25.5t-40 -42.5l-575 -1095q-49 -94 -107.5 -131t-124.5 -39q-29 0 -62.5 9t-61 24.5t-45 36.5t-13.5 46zM590 1202q8 63 82 64 q70 0 61 -64q-12 -63 -84 -63q-71 0 -59 63zM807 1202q8 63 82 64q70 0 61 -64q-12 -63 -84 -63q-71 0 -59 63z" />
<glyph unicode="&#x152;" horiz-adv-x="1886" d="M162 680q121 688 657 688h27q104 0 184 -31q10 23 43 23h899q41 0 35 -41l-25 -139q-8 -39 -38 -39q-18 0 -25.5 18.5t-12.5 41t-12.5 41t-25.5 18.5h-535q-39 0 -45 -37l-78 -443q-6 -41 37 -41h232q18 0 32.5 18.5t27.5 42t26.5 42t31.5 18.5q31 0 25 -41l-45 -254 q-8 -45 -39 -45q-18 0 -25.5 18.5t-12.5 42t-13 42t-27 18.5h-231q-43 0 -51 -45l-80 -461q-6 -35 28 -35h533q23 0 38 18.5t28.5 41t26.5 41t32 18.5q29 0 22 -39l-24 -137q-10 -43 -51 -43h-893q-33 0 -39 20q-98 -29 -197 -28h-27q-536 0 -413 688zM322 680 q-49 -279 31.5 -426.5t254.5 -161.5q115 10 207 72q90 61 156 160l127 710q-31 102 -101 162q-72 61 -182 72q-90 -6 -169 -47t-143.5 -115t-110 -181.5t-70.5 -244.5z" />
<glyph unicode="&#x153;" horiz-adv-x="1638" d="M121.5 282.5q-15.5 92.5 5.5 204.5q20 119 69.5 216.5t118 166t154.5 105.5t180 37q104 0 188.5 -49.5t125.5 -141.5q78 94 181 146.5t202 52.5q180 0 246.5 -131t23.5 -373q-4 -31 -37 -31h-584q-16 -86 -9 -158.5t36 -124.5t78 -82t117 -30q92 0 225 51q39 0 37 -26 q-4 -25 -42 -46.5t-87.5 -37t-97.5 -24.5t-72 -9q-100 0 -188.5 49t-133.5 135q-72 -98 -177.5 -147t-211.5 -49q-96 0 -169 35.5t-118 102t-60.5 159zM281 335q2 -71 24.5 -124t66.5 -84t115 -31q61 0 115.5 27t97.5 76t74 116.5t45 149.5l10 63q33 180 -17 280.5 t-179 100.5q-59 0 -115 -26q-90 -41 -145.5 -146.5t-79.5 -249.5q-14 -81 -12 -152zM1024 606q-6 -41 33 -41h389q41 0 45 41q20 174 -19.5 249t-162.5 75q-109 0 -175.5 -87t-109.5 -237z" />
<glyph unicode="&#x178;" horiz-adv-x="1253" d="M274 1329q6 31 48 31h337q41 0 35 -31q-2 -14 -19.5 -21.5t-47.5 -17.5l-31 -10q-12 -2 -16 -18q-4 -10 2 -23l166 -444q6 -16 16 -17q8 0 18 17l318 444q8 16 8 21q2 12 -12 12l-31 8q-29 8 -41 22.5t-10 26.5q6 31 47 31h278q41 0 35 -31q-4 -18 -23.5 -28.5t-45 -18.5 t-51 -18.5t-40.5 -30.5l-395 -559q-33 -45 -33 -68l-84 -475q-4 -20 13.5 -31.5t39 -20.5t38 -19.5t14.5 -28.5q-6 -31 -47 -31h-320q-39 0 -32 31q2 18 22.5 28.5t45 19.5t44 20.5t23.5 29.5l84 479q6 29 -9 68l-219 557q-6 18 -27.5 28.5t-44 19.5t-40 19.5t-13.5 28.5z M719 1579q12 63 82 63q74 0 61 -63q-12 -63 -84 -63q-71 0 -59 63zM936 1579q12 63 82 63q74 0 61 -63q-12 -63 -84 -63q-71 0 -59 63z" />
<glyph unicode="&#x2c6;" horiz-adv-x="559" d="M236 1108l206 250h82l117 -250h-39l-137 152l-191 -152h-38z" />
<glyph unicode="&#x2dc;" horiz-adv-x="651" d="M238 1116l16 94q47 43 85 58.5t71 15.5q14 0 41.5 -9t58.5 -20.5t58.5 -20.5t41.5 -9q31 0 69 18.5t91 65.5l-16 -92q-47 -45 -85 -60.5t-73 -15.5q-14 0 -43 9t-59.5 20.5t-58 20.5t-42.5 9q-31 0 -66.5 -18.5t-88.5 -65.5z" />
<glyph unicode="&#x2000;" horiz-adv-x="858" />
<glyph unicode="&#x2001;" horiz-adv-x="1716" />
<glyph unicode="&#x2002;" horiz-adv-x="858" />
<glyph unicode="&#x2003;" horiz-adv-x="1716" />
<glyph unicode="&#x2004;" horiz-adv-x="571" />
<glyph unicode="&#x2005;" horiz-adv-x="428" />
<glyph unicode="&#x2006;" horiz-adv-x="284" />
<glyph unicode="&#x2007;" horiz-adv-x="284" />
<glyph unicode="&#x2008;" horiz-adv-x="212" />
<glyph unicode="&#x2009;" horiz-adv-x="342" />
<glyph unicode="&#x200a;" horiz-adv-x="94" />
<glyph unicode="&#x2010;" horiz-adv-x="751" d="M137 543q10 47 60 47h497q49 0 43 -47q-4 -25 -22.5 -37t-38.5 -12h-500q-51 0 -39 49z" />
<glyph unicode="&#x2011;" horiz-adv-x="751" d="M137 543q10 47 60 47h497q49 0 43 -47q-4 -25 -22.5 -37t-38.5 -12h-500q-51 0 -39 49z" />
<glyph unicode="&#x2012;" horiz-adv-x="751" d="M137 543q10 47 60 47h497q49 0 43 -47q-4 -25 -22.5 -37t-38.5 -12h-500q-51 0 -39 49z" />
<glyph unicode="&#x2013;" horiz-adv-x="1054" d="M133 522q8 39 57 39h799q51 0 45 -39q-4 -20 -21.5 -30.5t-37.5 -10.5h-801q-51 0 -41 41z" />
<glyph unicode="&#x2014;" horiz-adv-x="1595" d="M133 522q8 39 57 39h1340q51 0 45 -39q-4 -20 -21.5 -30.5t-37.5 -10.5h-1342q-51 0 -41 41z" />
<glyph unicode="&#x2018;" horiz-adv-x="352" d="M262 1260l8 36q4 27 16.5 54.5t31 51t44 39t60.5 15.5q47 0 45 -33q-4 -16 -27 -24l-24 -6q-25 -10 -34 -23.5t-13 -26.5h10q98 0 82 -90q-12 -78 -113 -77q-47 0 -69.5 22.5t-16.5 61.5z" />
<glyph unicode="&#x2019;" horiz-adv-x="352" d="M279 1210q2 18 24 23q6 4 13.5 5t13.5 3q25 8 34 22.5t13 24.5h-10q-100 0 -84 84t112 84q102 0 86 -84l-6 -35q-4 -27 -16.5 -55.5t-31.5 -51t-46 -37.5t-59 -15q-49 -1 -43 32z" />
<glyph unicode="&#x201a;" horiz-adv-x="352" d="M51 -84q2 14 13.5 20.5t23.5 10.5q4 0 7 1t7 1q23 8 33 21.5t15 25.5h-11q-100 0 -84 84t113 84q102 0 86 -84l-6 -37q-4 -27 -16.5 -55.5t-32 -51t-46 -38t-59.5 -15.5q-49 0 -43 33z" />
<glyph unicode="&#x201c;" horiz-adv-x="571" d="M262 1260l8 36q4 27 16.5 54.5t31 51t44 39t60.5 15.5q47 0 45 -33q-4 -16 -27 -24l-24 -6q-25 -10 -34 -23.5t-13 -26.5h10q98 0 82 -90q-12 -78 -113 -77q-47 0 -69.5 22.5t-16.5 61.5zM479 1260l8 36q4 27 16.5 55.5t32 51t45 38t60.5 15.5q39 0 45 -33 q-4 -16 -27 -24l-24 -6q-25 -10 -34 -23.5t-13 -26.5h8q100 0 84 -83q-12 -84 -115 -84q-47 0 -69.5 22.5t-16.5 61.5z" />
<glyph unicode="&#x201d;" horiz-adv-x="567" d="M279 1210q2 18 24 23q6 4 13.5 5t13.5 3q25 8 34 22.5t13 24.5h-10q-100 0 -84 84t112 84q102 0 86 -84l-6 -35q-4 -27 -16.5 -55.5t-31.5 -51t-46 -37.5t-59 -15q-49 -1 -43 32zM494 1210q2 18 24 23q6 4 13.5 5t13.5 3q25 8 34 22.5t13 24.5h-10q-100 0 -84 84t112 84 q102 0 86 -84l-6 -35q-4 -27 -16 -55.5t-31.5 -51t-46.5 -37.5t-59 -15q-49 -1 -43 32z" />
<glyph unicode="&#x201e;" horiz-adv-x="649" d="M51 -86q2 20 25 23q4 4 11 5t13 3q25 8 34 22.5t13 24.5h-10q-98 0 -82 84q12 84 113 84q98 0 86 -84l-6 -35q-6 -27 -17.5 -55.5t-31 -51t-46 -38t-59.5 -15.5q-49 0 -43 33zM348 -86q2 20 25 23q4 4 11 5t13 3q25 8 34 22.5t13 24.5h-10q-98 0 -82 84q12 84 113 84 q98 0 86 -84l-6 -35q-6 -27 -17.5 -55.5t-31 -51t-46 -38t-59.5 -15.5q-49 0 -43 33z" />
<glyph unicode="&#x2022;" horiz-adv-x="745" d="M168 719q10 61 43 114.5t81 93.5t105.5 63.5t118.5 23.5q59 0 109.5 -23.5t83 -63.5t47 -94.5t4.5 -113.5t-44 -113.5t-81 -95.5t-105.5 -64.5t-119.5 -23.5t-111.5 23.5t-82.5 64.5t-45 94.5t-3 114.5z" />
<glyph unicode="&#x2026;" horiz-adv-x="1155" d="M55 80q12 80 115 80q47 0 69.5 -21.5t16.5 -58.5q-16 -80 -115 -80q-102 0 -86 80zM455 80q6 41 36.5 60.5t77.5 19.5t70 -21.5t16 -58.5q-16 -80 -114 -80t-86 80zM856 80q12 80 115 80q47 0 69.5 -21.5t16.5 -58.5q-16 -80 -115 -80q-102 0 -86 80z" />
<glyph unicode="&#x202f;" horiz-adv-x="342" />
<glyph unicode="&#x2039;" horiz-adv-x="618" d="M129 504q0 -2 2 3l6 15l402 385q16 14 39 15h75q16 0 13 -11q0 -6 -9 -14l-342 -377l-6 -15q-2 -5 -2 -3v-4q0 -2 1 -5.5t1 -7.5l209 -374q2 -8 2 -19q-4 -10 -14 -10h-76q-20 0 -43 16l-254 389q-4 5 -4 17z" />
<glyph unicode="&#x203a;" horiz-adv-x="620" d="M59 92q0 8 13 19l336 374q4 2 8 19v16l-213 377v8q0 2 -2 4q2 12 18 13h74q27 -4 37 -15l266 -387v-16q0 -8 -8 -17l-393 -389q-23 -16 -50 -16h-73q-17 0 -13 10z" />
<glyph unicode="&#x205f;" horiz-adv-x="428" />
<glyph unicode="&#x20ac;" horiz-adv-x="1216" d="M152 625q8 39 47 39h102l12 63h-104q-43 0 -33 41q8 39 47 39h105q33 137 86 226t131 163q182 174 465 174q180 0 319 -82l-31 -178q-12 -59 -41 -59q-27 0 -36 59l-11 59q-43 100 -204 101q-141 0 -262 -85t-199 -251q-16 -39 -27.5 -60.5t-25.5 -66.5h413q41 0 35 -39 q-4 -20 -17.5 -30.5t-29.5 -10.5h-416l-12 -63h416q41 0 34 -39q-10 -41 -49 -41h-407q0 -33 -3 -82t1 -76q20 -166 110 -251t232 -85q162 0 237 100l33 60q29 59 59 59q31 0 21 -59l-33 -180q-178 -80 -350 -80q-287 0 -406 172q-47 70 -62 184.5t-5 237.5h-111 q-40 0 -30 41z" />
<glyph unicode="&#x2122;" horiz-adv-x="1503" d="M264 1262l12 77q6 20 29 21h492q18 0 16 -21l-10 -77q-4 -23 -23 -23q-10 0 -14 10.5t-7 22.5t-7 22.5t-15 10.5h-127q-18 0 -24 -23l-105 -596q-4 -23 29 -29q29 -12 27 -26q-4 -16 -25 -17h-174q-25 0 -21 17q2 8 13.5 14t25 11.5t24.5 11.5t13 16l105 598q6 23 -19 23 h-137q-10 0 -17.5 -10.5t-15.5 -22.5l-15 -22.5t-18 -10.5q-18 0 -12 23zM713 631q2 10 13 15t24.5 10.5t24.5 11.5t13 16l107 606q2 10 -7 16.5t-20.5 11.5t-20.5 10t-7 15q4 16 24 17h140q23 0 28 -35l103 -520q2 -8 8 -8q4 0 6 8l307 520q23 35 43 35h111q23 0 18 -17 q-2 -18 -39 -26q-33 -6 -37 -29l-106 -602q-2 -12 7 -18t20.5 -11.5t20.5 -10.5t7 -15q-4 -16 -26 -17h-170q-27 0 -23 17q2 10 13.5 15t24.5 10.5t24.5 11.5t13.5 16l92 522v8q-4 0 -16 -22l-289 -498q-23 -37 -43 -37q-25 0 -31 37l-108 520q-6 23 -9 23q-4 0 -4 -10 l-96 -541q-2 -12 7 -18t20.5 -11.5t20.5 -10.5t7 -15q-4 -16 -24 -17h-152q-24 1 -20 17z" />
<glyph unicode="&#xe000;" horiz-adv-x="1000" d="M0 1000h1000v-1000h-1000v1000z" />
<glyph unicode="&#xfb01;" horiz-adv-x="1085" d="M47 31q2 18 22.5 28.5t45 18.5t45 19.5t24.5 31.5l129 733q6 37 -34 37h-39q-39 0 -31 51q8 49 49 49h59q23 0 25 21q31 180 138.5 260t299.5 80q104 0 162.5 -18.5t85.5 -41t31 -43t4 -22.5q6 -14 2 -37q-12 -78 -104 -78q-88 0 -76 80q8 43 37 62q-29 10 -60 15t-59 5 q-123 0 -199 -56.5t-102 -205.5q-2 -20 14 -21h473q41 0 35 -38l-143 -809q-4 -23 12 -36.5t35.5 -25.5t36 -25.5t14.5 -33.5q-6 -31 -45 -31h-320q-41 0 -34 31q4 23 24.5 36t45 24t46 23.5t25.5 35.5l125 710q6 39 -53 39h-295q-18 0 -21 -20l-133 -750q-4 -20 12.5 -31.5 t38 -19.5t38 -18.5t13.5 -28.5q-6 -31 -45 -31h-319q-41 0 -35 31z" />
<glyph unicode="&#xfb02;" horiz-adv-x="1114" d="M47 33q2 18 23.5 28.5t45 19.5t44 20.5t24.5 31.5l129 731q8 37 -32 37h-39q-41 0 -33 51q8 49 49 49h59q23 0 25 21q20 123 65.5 208t124 136t197.5 73.5t291 22.5h80q41 0 30 -41l-227 -1290q-4 -18 13.5 -29.5t39 -20.5t38 -19.5t14.5 -28.5q-6 -31 -45 -31h-322 q-39 0 -33 29q2 18 22.5 28.5t45 20.5t44 21.5t23.5 31.5l211 1190q4 20 -8 37.5t-41 17.5q-43 0 -47 -2h-4q-90 0 -150.5 -23.5t-100.5 -69.5t-63.5 -111.5t-37.5 -149.5q-2 -20 16 -21h98q41 0 33 -49q-8 -51 -47 -51h-100q-23 0 -25 -18l-133 -752q-4 -18 13.5 -29.5 t38 -20.5t37 -19.5t13.5 -28.5q-6 -31 -45 -31h-319q-41 0 -35 31z" />
<glyph unicode="&#xfb03;" horiz-adv-x="1757" d="M1297 67q20 13 44.5 24t46 23.5t25.5 35.5l125 710q4 23 -13 30t-39.5 10t-41 7t-14.5 23q2 14 22.5 27.5t47 22.5t55 14t49.5 5h78q41 0 35 -38l-144 -809q-4 -23 12.5 -36.5t36 -25.5t36 -25.5t13.5 -33.5q-6 -31 -45 -31h-319q-36 0 -36 23q1 28 26 44zM1577 1200 q12 80 105 80q78 0 77 -61q0 -10 -2 -21q-12 -78 -104 -78q-77 0 -77 62q-1 8 1 18zM682 59q20 10 44.5 18.5t45 20t24.5 31.5l129 733q6 37 -34 37h-39q-32 0 -33 35q0 7 2 16q8 49 49 49h59q23 0 25 21q31 180 138.5 260t299.5 80q41 0 35 -41q-8 -39 -49 -39 q-111 0 -175.5 -59.5t-88.5 -200.5q-2 -20 14 -21h100q34 0 35 -34q0 -7 -2 -15q-8 -51 -49 -51h-102q-18 0 -21 -20l-133 -750q-4 -20 12.5 -31.5t38 -19.5t38 -18.5t13.5 -28.5q-6 -31 -45 -31h-319q-36 0 -36 23q1 24 24 36zM70 59q20 10 44.5 18.5t45 20t24.5 31.5 l129 733q6 37 -34 37h-39q-32 0 -33 35q0 7 2 16q8 49 49 49h59q23 0 25 21q31 180 138.5 260t299.5 80q41 0 35 -41q-8 -39 -49 -39q-111 0 -175.5 -59.5t-88.5 -200.5q-2 -20 14 -21h100q34 0 35 -34q0 -7 -2 -15q-8 -51 -49 -51h-102q-18 0 -21 -20l-133 -750 q-4 -20 12.5 -31.5t38 -19.5t38 -18.5t13.5 -28.5q-6 -31 -45 -31h-319q-36 0 -36 23q1 24 24 36z" />
<glyph unicode="&#xfb04;" horiz-adv-x="1757" d="M1295 59q20 10 44.5 18.5t45 20t24.5 31.5l211 1192q4 23 -14.5 29t-40 9t-39.5 8t-14 24q2 14 22.5 27.5t48 22.5t55 14t46.5 5h80q34 0 33 -30q0 -5 -1 -11l-227 -1290q-4 -20 12.5 -31.5t38 -19.5t38 -18.5t13.5 -28.5q-6 -31 -45 -31h-319q-36 0 -36 23q1 24 24 36z M682 59q20 10 44.5 18.5t45 20t24.5 31.5l129 733q6 37 -34 37h-39q-32 0 -33 35q0 7 2 16q8 49 49 49h59q23 0 25 21q31 180 138.5 260t299.5 80q41 0 35 -41q-8 -39 -49 -39q-111 0 -175.5 -59.5t-88.5 -200.5q-2 -20 14 -21h100q34 0 35 -34q0 -7 -2 -15q-8 -51 -49 -51 h-102q-18 0 -21 -20l-133 -750q-4 -20 12.5 -31.5t38 -19.5t38 -18.5t13.5 -28.5q-6 -31 -45 -31h-319q-36 0 -36 23q1 24 24 36zM70 59q20 10 44.5 18.5t45 20t24.5 31.5l129 733q6 37 -34 37h-39q-32 0 -33 35q0 7 2 16q8 49 49 49h59q23 0 25 21q31 180 138.5 260 t299.5 80q41 0 35 -41q-8 -39 -49 -39q-111 0 -175.5 -59.5t-88.5 -200.5q-2 -20 14 -21h100q34 0 35 -34q0 -7 -2 -15q-8 -51 -49 -51h-102q-18 0 -21 -20l-133 -750q-4 -20 12.5 -31.5t38 -19.5t38 -18.5t13.5 -28.5q-6 -31 -45 -31h-319q-36 0 -36 23q1 24 24 36z" />
</font>
</defs>
</svg>
