<?xml version="1.0" standalone="no"?>
<!DOCTYPE svg PUBLIC "-//W3C//DTD SVG 1.1//EN" "http://www.w3.org/Graphics/SVG/1.1/DTD/svg11.dtd" >
<svg xmlns="http://www.w3.org/2000/svg">
<metadata>
This is a custom SVG webfont generated by Font Squirrel.
Copyright   : Copyright c 20092010 Ed Merritt ededmerrittcomThis Font Software is licensed under the SIL Open Font License Version 11This license is available with a FAQ at httpscriptssilorgOFL
Designer    : Ed Merritt 
Foundry     : Ten by Twenty
Foundry URL : httpwwwtenbytwentycom
</metadata>
<defs>
<font id="JuraBoldItalic" horiz-adv-x="1392" >
<font-face units-per-em="2048" ascent="1602" descent="-446" />
<missing-glyph horiz-adv-x="573" />
<glyph unicode=" "  horiz-adv-x="573" />
<glyph unicode="&#x09;" horiz-adv-x="573" />
<glyph unicode="&#xa0;" horiz-adv-x="573" />
<glyph unicode="!" horiz-adv-x="444" d="M33 102q10 51 46 76t89 25t79.5 -26.5t16.5 -74.5q-10 -51 -45 -76.5t-88 -25.5t-80.5 25.5t-17.5 76.5zM109 295l129 962q6 51 41.5 77t91.5 26q53 0 80.5 -24.5t17.5 -78.5l-211 -962q-8 -33 -30.5 -48.5t-55.5 -15.5q-31 0 -49 15.5t-14 48.5z" />
<glyph unicode="&#x22;" horiz-adv-x="528" d="M115 1378q18 102 133 103q37 0 58.5 -10.5t31.5 -25.5t11 -32.5t-3 -34.5q-12 -47 -29.5 -93t-39 -85t-45 -62.5t-44.5 -23.5q-18 0 -32.5 23.5t-23.5 62.5t-13 85t-4 93zM330 1378q18 102 133 103q37 0 58.5 -10.5t31.5 -25.5t11 -32.5t-3 -34.5q-12 -47 -29.5 -93 t-39 -85t-45 -62.5t-44.5 -23.5q-18 0 -32.5 23.5t-23.5 62.5t-13 85t-4 93z" />
<glyph unicode="#" horiz-adv-x="1343" d="M98 475q4 12 8 21l19 55q29 59 88 59h221l47 142h-235q-23 0 -39.5 11t-11.5 38q4 12 8 20l18 58q29 57 88 57h236l125 367q10 29 32.5 43t51.5 14h41q20 0 36.5 -10.5t12.5 -36.5q-4 -16 -8 -21l-119 -356h188l125 367q10 29 32.5 43t51.5 14h41q20 0 36.5 -10.5 t12.5 -36.5q-4 -16 -8 -21l-121 -356h234q23 0 38 -11.5t11 -39.5q-4 -8 -4 -13q-2 -4 -5 -14t-8 -20q-6 -12 -10 -29q-31 -59 -86 -59h-231l-47 -142h243q23 0 38.5 -10t11.5 -37q-2 -14 -7 -20l-18 -60q-29 -57 -86 -57h-246l-123 -365q-23 -59 -86 -59h-41 q-23 0 -38 11.5t-11 39.5q2 12 6 19l121 354h-188l-123 -365q-23 -59 -86 -59h-41q-23 0 -37 11.5t-10 37.5q4 16 6 21l119 354h-221q-25 0 -40.5 11t-11.5 40zM606 610h189l47 140h-189z" />
<glyph unicode="$" horiz-adv-x="1009" d="M47 78l19 207l2 8q4 23 18 40t43 17q59 0 70 -55l12 -72q29 -33 84 -60.5t147 -27.5q123 0 189.5 60.5t89.5 177.5q4 27 -4 55.5t-35 59t-74 62.5t-119 64q-147 66 -225 162t-55 232q14 86 59 153.5t108.5 113.5t143.5 70.5t166 24.5q76 0 154 -20.5t168 -67.5l-17 -205 q-4 -29 -19.5 -48t-53.5 -19q-29 0 -42.5 17t-17.5 40l-12 72q-29 31 -72 55.5t-108 24.5q-109 0 -167.5 -52.5t-74.5 -138.5q-10 -66 44 -132.5t200 -129.5q147 -66 216.5 -155t47.5 -220q-18 -104 -65.5 -181t-115 -126t-150.5 -73.5t-173 -24.5q-82 0 -174 20.5 t-207 71.5zM305 -12l248 1407q12 76 78 75q61 0 49 -75l-248 -1407q-6 -31 -25.5 -55.5t-52.5 -20.5q-29 2 -42 22.5t-7 53.5zM469 -12l248 1407q12 76 78 75q61 0 49 -75l-248 -1407q-6 -31 -25.5 -55.5t-52.5 -20.5q-29 2 -42 22.5t-7 53.5z" />
<glyph unicode="%" horiz-adv-x="1466" d="M76 -2l1257 1360h168l-1249 -1360h-176zM192.5 870.5q-12.5 63.5 0.5 137.5q23 117 86 207t167 128q68 23 129 23q141 0 213 -97.5t43 -260.5q-12 -76 -44.5 -138.5t-81 -107.5t-113 -70.5t-141.5 -25.5q-72 0 -125.5 25.5t-87 70.5t-46 108.5zM373 1008 q-16 -100 9.5 -153.5t92.5 -53.5q63 0 110.5 49t65.5 154q20 119 -5 174t-93 55q-10 0 -25.5 -2t-33.5 -10q-90 -39 -121 -213zM749.5 198.5q-12.5 63.5 0.5 137.5q23 117 86 207t168 129q68 23 129 22q141 0 212.5 -96t43.5 -262q-12 -74 -45 -137.5t-81.5 -108.5 t-113 -70.5t-141.5 -25.5q-72 0 -125.5 25.5t-87 70.5t-46 108.5zM930 336q-16 -98 9.5 -151.5t92.5 -53.5q66 0 112 48t64 153q23 119 -3.5 175t-94.5 56q-23 0 -59 -14q-88 -35 -121 -213z" />
<glyph unicode="&#x26;" horiz-adv-x="1316" d="M92 434q12 72 47 137.5t84 122t109.5 99.5t126.5 71q-41 88 -23 185q25 147 120 229t237 82q59 0 100 -21.5t63.5 -55.5t29.5 -77t-1 -84q-14 -78 -75.5 -142.5t-184.5 -125.5l190 -348l52 112h133l-119 -231l115 -201q6 -6 11 -12t15 -10l43 -25q29 -16 45.5 -33.5 t12.5 -42.5q-4 -27 -22.5 -45t-49.5 -18h-152q-47 0 -65 33l-76 129q-63 -84 -159.5 -123t-225.5 -39q-104 0 -183 33t-128 91t-67.5 137t-2.5 173zM330 481q-10 -61 2 -119.5t43 -104.5t75 -73.5t97 -27.5q94 0 154.5 30.5t89.5 75.5l-273 496q-53 -23 -110.5 -94.5 t-77.5 -182.5zM641 1037q6 -40 23 -85q127 53 143 150q14 80 -7.5 108.5t-45.5 28.5q-47 0 -74 -26.5t-37 -92.5q-8 -43 -2 -83z" />
<glyph unicode="'" horiz-adv-x="327" d="M115 1378q18 102 133 103q37 0 58.5 -10.5t31.5 -25.5t11 -32.5t-3 -34.5q-12 -47 -29.5 -93t-39 -85t-45 -62.5t-44.5 -23.5q-18 0 -32.5 23.5t-23.5 62.5t-13 85t-4 93z" />
<glyph unicode="(" horiz-adv-x="569" d="M145 739q70 401 336 809q16 23 36 37t48 14q29 0 38 -19t5 -46q-92 -203 -154.5 -399.5t-97.5 -395.5t-42 -395.5t14 -396.5q-4 -27 -20.5 -47.5t-45.5 -20.5t-44 15.5t-21 37.5q-124 399 -52 807z" />
<glyph unicode=")" horiz-adv-x="509" d="M6 -53q92 201 153.5 397.5t96.5 394.5q70 393 31 795q4 29 20.5 47t46.5 18q49 0 66 -51q59 -203 72.5 -402.5t-23.5 -402.5q-70 -412 -336 -811q-16 -23 -35.5 -38t-46.5 -15q-33 0 -41 20.5t-4 47.5z" />
<glyph unicode="*" horiz-adv-x="677" d="M219 1151q4 33 26.5 45t51.5 18q18 4 43 9.5t59 15.5q-49 18 -67 21q-18 4 -29.5 7t-23.5 13q-33 20 -27 51q6 29 32.5 51.5t53.5 22.5q25 0 37 -6t24 -25q6 -8 14.5 -20.5t22.5 -30.5q-4 16 -5 26.5t-3 16.5l-6 18q0 16 2 27q12 70 86 70q76 0 63 -68q-4 -16 -9 -28.5 t-15 -28.5l-19 -37l7 4l43 43q18 18 36.5 28.5t47.5 10.5q35 0 49 -26.5t10 -49.5q-6 -33 -27.5 -45t-50.5 -20q-16 -4 -40.5 -9.5t-59.5 -15.5q33 -12 48 -16t25 -6q8 -2 19 -3q12 -2 29 -14q10 -12 18 -25.5t4 -29.5q-4 -25 -29.5 -48.5t-56.5 -23.5q-29 0 -41 10.5 t-22 26.5q-4 8 -11.5 18.5l-17.5 24.5l-4 6q4 -25 6 -36t4 -15l4 -10l-2 2q2 -4 3 -11.5t-1 -19.5q-12 -70 -88 -70t-65 68q4 20 8 27q2 6 10 14q4 4 10 16.5t17 34.5q-39 -33 -45 -43q-4 -4 -8.5 -7t-8.5 -7q-6 -6 -24 -15q-25 -14 -47 -14q-29 0 -47.5 24.5t-12.5 53.5z " />
<glyph unicode="+" horiz-adv-x="952" d="M107.5 493.5q-3.5 14.5 1.5 30.5q4 29 28 51q27 16 58 17l266 -2l39 256q4 16 10 29.5t20 23.5q27 18 60 16t49 -18q16 -23 10 -51l-39 -262l267 -2q16 0 29.5 -3.5t23.5 -13.5q16 -18 12 -51t-29 -55q-29 -18 -59 -19l-266 6l-37 -243q-6 -35 -29 -53 q-25 -20 -58.5 -17.5t-49.5 19.5q-16 20 -13 53l37 241l-270 5q-14 2 -26.5 5t-20.5 13q-10 10 -13.5 24.5z" />
<glyph unicode="," horiz-adv-x="468" d="M27 70q10 47 47 69.5t94 22.5q59 0 89 -22.5t19 -69.5l-4 -31q-4 -25 -17 -52.5t-34.5 -51t-52.5 -39t-74 -15.5q-29 0 -50 10.5t-15 38.5q4 20 19 30.5t38 16.5h8q2 2 4 3q-83 12 -71 90z" />
<glyph unicode="-" horiz-adv-x="866" d="M109 535q8 29 31.5 45t56.5 16h487q76 0 66 -64q-12 -63 -88 -63h-488q-31 0 -52 15.5t-13 50.5z" />
<glyph unicode="." horiz-adv-x="460" d="M29 80q8 41 46 60.5t95 19.5q53 0 86 -20.5t25 -59.5q-6 -41 -44 -60.5t-96 -19.5q-57 0 -87.5 19.5t-24.5 60.5z" />
<glyph unicode="/" horiz-adv-x="835" d="M6 0l717 1481h172l-715 -1481h-174z" />
<glyph unicode="0" horiz-adv-x="1157" d="M117 561q47 274 188 416.5t377 142.5h23q238 0 327.5 -142t42.5 -417q-49 -276 -190.5 -418.5t-376.5 -142.5h-23q-238 0 -327.5 142.5t-40.5 418.5zM334 561q-39 -217 10 -319.5t174 -112.5q129 10 215 112.5t125 319.5q37 215 -13 318.5t-175 113.5 q-127 -10 -213 -113.5t-123 -318.5z" />
<glyph unicode="1" horiz-adv-x="634" d="M98 53q4 29 30 47.5t58 32.5q16 6 31.5 12.5t18.5 22.5l135 764q2 8 -7.5 6t-25.5 -2h-41q-45 0 -62.5 15.5t-13.5 35.5q6 31 33 48.5t61 25.5l232 57q70 0 59 -63l-157 -887q-2 -16 11 -22.5t27 -12.5q29 -14 47.5 -32.5t14.5 -47.5q-6 -29 -26.5 -41t-47.5 -12h-321 q-29 0 -45.5 12t-10.5 41z" />
<glyph unicode="2" horiz-adv-x="1030" d="M74 63l12 68q4 27 25.5 51.5t52.5 46.5l424 312q121 86 141 209q18 106 -18.5 147t-155.5 41q-53 0 -112.5 -7t-125.5 -24q-6 -2 -22 -2q-45 0 -64 49q10 70 72 86q182 82 334 82q188 0 276 -92t58 -237q-25 -115 -115 -211.5t-233 -202.5l-164 -121l-97 -65h340 q10 0 21.5 10t15.5 16q12 12 19 21q25 27 50.5 47t53.5 20q29 0 45.5 -15.5t10.5 -47.5l-60 -168q-12 -33 -33.5 -54.5t-56.5 -21.5h-639q-31 0 -46 17t-9 46z" />
<glyph unicode="3" horiz-adv-x="1077" d="M66 -92q25 59 88 59q174 -45 274 -45q123 0 193.5 61.5t93.5 190.5q16 98 -26 147.5t-136 49.5h-102q-35 0 -46.5 20.5t-5.5 48.5l7 33q10 63 73 64h103q82 0 132 43t64 122q18 104 -27.5 176t-162.5 72q-49 0 -107.5 -11t-128.5 -38q-63 0 -69 62q6 37 51 65.5t103.5 49 t115.5 31.5t90 11q102 0 175 -33.5t116 -90t57.5 -132.5t-0.5 -159q-16 -86 -52 -148.5t-99 -105.5q66 -43 87 -117t3 -176q-14 -86 -56.5 -161t-108 -130t-153.5 -87t-196 -32q-35 0 -96.5 10.5t-120 31t-99 50t-34.5 68.5z" />
<glyph unicode="4" horiz-adv-x="1159" d="M43 160l8 49q10 47 39 80l674 768l27 26q18 23 40.5 30t47.5 7h79q63 0 56 -61l-135 -772q-4 -10 -1 -12.5t11 -2.5h121q29 0 44 -16t11 -47l-8 -49q-6 -31 -27.5 -46.5t-50.5 -15.5h-121q-14 0 -16 -14l-45 -262q-6 -31 -27.5 -46.5t-50.5 -15.5h-80q-29 0 -45 15.5 t-10 46.5l45 262q2 14 -11 14h-520q-29 0 -45 15.5t-10 46.5zM279 272h370q8 0 10.5 2t6.5 13l104 598q4 0 12.5 2t5.5 -15l13 13z" />
<glyph unicode="5" horiz-adv-x="1071" d="M66 -100q10 63 79 63q66 -16 122.5 -22.5t105.5 -6.5q160 0 261 76t126 217q8 53 0 100.5t-48 82t-120 55t-215 20.5q-25 0 -51.5 -1t-55.5 -1q-33 0 -42 19.5t-3 46.5l125 508q6 29 26.5 46t49.5 17h563q63 0 53 -61l-10 -60q-6 -35 -28.5 -49t-47.5 -14h-462 q-16 0 -17 -6l-65 -273h20q172 0 285.5 -30.5t178.5 -87t84 -135t3 -175.5q-18 -104 -69.5 -190t-129 -148.5t-178 -97.5t-213.5 -35q-33 0 -90 8.5t-112.5 26t-93 44t-31.5 63.5z" />
<glyph unicode="6" horiz-adv-x="1036" d="M92.5 307.5q-16.5 104.5 7.5 247.5q27 158 80 303.5t137 258t204 179t280 66.5q100 0 200 -33q51 -16 43 -74q-10 -23 -26.5 -38t-42.5 -15q-8 0 -13.5 1t-9.5 1q-80 18 -149 19q-109 0 -183.5 -46.5t-121.5 -105.5t-71 -119.5t-30 -87.5q104 33 219 33q84 0 160 -27.5 t128 -82t76 -136.5t5 -192q-18 -111 -70.5 -196t-125 -143.5t-160.5 -89t-180 -30.5t-168 33t-124 101.5t-64.5 173zM311 520q-35 -186 19.5 -270t187.5 -80q88 2 156.5 73.5t95.5 223.5q10 55 6 105.5t-25.5 87t-60.5 59t-98 22.5q-90 0 -223 -45q-20 -12 -31.5 -50 t-18.5 -77z" />
<glyph unicode="7" horiz-adv-x="937" d="M55 -201q4 16 19 35l708 1079l4 5h-520q-16 0 -25.5 -14.5t-19.5 -31.5q-10 -12 -17 -23t-18 -22q-10 -10 -25.5 -18t-33.5 -8q-66 0 -55 63l34 193q4 29 26 46t52 17h760q31 0 44 -17.5t9 -45.5l-14 -78q-6 -33 -33 -84l-637 -1102q-27 -33 -59 -33h-160q-16 0 -29.5 8 t-9.5 31z" />
<glyph unicode="8" horiz-adv-x="1081" d="M98 410q37 201 228 317q-98 121 -72 268q12 76 52 142.5t100.5 116t140.5 78t176 28.5q92 0 162.5 -27.5t116 -77t62.5 -116t3 -142.5q-14 -78 -56 -144.5t-120 -125.5q158 -115 121 -326q-16 -88 -64.5 -162.5t-119 -130t-159.5 -87t-186 -31.5q-102 0 -181 32.5 t-129 89t-70.5 133.5t-4.5 165zM332 406q-20 -111 31 -175.5t151 -64.5t172 60.5t90 170.5q18 104 -32 168t-154 64q-100 0 -170 -59.5t-88 -163.5zM457 989q-16 -92 23.5 -144t137.5 -52q104 0 162 56t74 148q16 98 -21.5 147.5t-138.5 49.5q-104 0 -161.5 -53.5 t-75.5 -151.5z" />
<glyph unicode="9" horiz-adv-x="1095" d="M84 -135q8 23 24.5 38t43.5 15q47 0 89 -9t78 -9q109 0 185 45t124 104.5t72.5 119.5t32.5 89q-123 -35 -221 -35q-88 0 -164 28t-128 82t-74.5 136t-4.5 193t69.5 195.5t125.5 143t164 89t188 30.5q90 0 164 -32.5t121 -101t63.5 -173t-8.5 -246.5q-31 -174 -87 -322.5 t-142 -256t-203 -169t-266 -61.5q-111 0 -203 33q-51 21 -43 74zM352 549q6 -49 27.5 -87t60.5 -60.5t95 -22.5q47 0 104 11t123 36q18 6 28.5 45t16.5 74l8 51q35 193 -17.5 273.5t-187.5 80.5q-88 0 -156.5 -69.5t-97.5 -227.5q-10 -55 -4 -104z" />
<glyph unicode=":" horiz-adv-x="460" d="M33 102q10 53 48 79t97 26t88 -25.5t19 -79.5q-10 -53 -47 -77.5t-97 -24.5q-59 0 -88.5 24.5t-19.5 77.5zM96 457q10 53 47 77.5t97 24.5q59 0 88.5 -24.5t19.5 -77.5t-48 -79t-97 -26t-88 26t-19 79z" />
<glyph unicode=";" horiz-adv-x="460" d="M29 -63q4 23 20.5 34t36.5 17q8 4 16 4q-84 16 -69 104q10 53 47 79t94 26q59 0 89 -25.5t20 -79.5l-7 -35q-4 -27 -17 -58.5t-35.5 -58t-54.5 -45t-75 -18.5q-29 0 -49 13.5t-16 42.5zM96 453q10 53 47 79.5t95 26.5q59 0 88.5 -26.5t19.5 -79.5t-48 -78t-97 -25 q-57 0 -86 26t-19 77z" />
<glyph unicode="&#x3c;" horiz-adv-x="864" d="M115 563q2 14 16 35l535 494q16 16 34.5 22t36.5 6h101q16 0 29.5 -8t9.5 -31q-2 -14 -17 -30l-452 -482l-5 -10q-4 -6 0 -6l281 -479q4 -10 6 -19.5t0 -17.5q-4 -23 -20.5 -30t-28.5 -7h-100q-43 0 -72 27l-346 497q-12 16 -8 39z" />
<glyph unicode="=" horiz-adv-x="1011" d="M88 412q16 61 88 61h678q76 0 66 -63q-12 -63 -89 -64h-677q-33 0 -53.5 15.5t-12.5 50.5zM135 678q16 61 88 61h678q76 0 66 -63q-12 -63 -88 -64h-678q-33 0 -54.5 15.5t-11.5 50.5z" />
<glyph unicode="&#x3e;" horiz-adv-x="849" d="M25 37q4 20 20 37l449 479q4 4 4 8v2q0 2 -1 3t-1 3l-285 480q-4 8 -5 15t-1 15q10 41 55 41l100 -2q18 0 37 -5t29 -21l356 -494q10 -16 6 -35q-4 -23 -20 -39l-522 -497q-41 -27 -84 -27h-101q-12 0 -26 7t-10 30z" />
<glyph unicode="?" horiz-adv-x="763" d="M70 1327q6 33 55 61.5t113.5 49t128 32t94.5 11.5q111 0 184.5 -34t115.5 -89t53 -128t-3 -153q-23 -127 -101.5 -225t-193.5 -164q-63 -35 -95 -76t-40 -86l-55 -293h-168l49 295q14 84 64.5 154t136.5 127q147 96 174 256q23 123 -28.5 187.5t-174.5 64.5 q-88 0 -236 -39q-12 -4 -24 -4q-27 0 -38 15t-11 38zM102 102q10 51 45 77t89 26q53 0 80.5 -27.5t17.5 -75.5q-10 -51 -45 -76.5t-88 -25.5t-81 25.5t-18 76.5z" />
<glyph unicode="@" horiz-adv-x="1753" d="M109 528q35 199 129 354.5t223 263t282.5 165t311.5 57.5q127 0 236.5 -35t192.5 -95t137 -139t71 -165q16 -86 16 -170t-14 -164q-41 -231 -148.5 -360t-263.5 -129q-96 0 -160.5 19.5t-93.5 66.5q-160 -72 -264 -72q-78 0 -129 32.5t-79 89t-34 132.5t10 162 q16 94 54.5 177t94.5 144.5t128 97t156 35.5q74 0 155 -34q14 29 43 39t64 10q41 0 72.5 -16.5t23.5 -59.5l-106 -606q-4 -18 12 -32.5t80 -14.5q47 0 91 67.5t75 241.5q20 117 9 225.5t-62.5 192.5t-147.5 134t-244 50q-109 0 -219.5 -42t-206.5 -125t-166.5 -205 t-99.5 -281q-18 -109 3 -216.5t90 -192.5t185.5 -138t286.5 -53q98 0 208 14t245 49l-2 -2q6 4 28 4q55 0 60 -65q-16 -29 -39 -49.5t-55 -30.5q-152 -43 -283 -63.5t-246 -20.5q-199 0 -344 63.5t-235 169t-123 240.5t-8 280zM726 479q-1 -49 11.5 -89t39 -63.5t73.5 -23.5 q55 0 156 33l84 467q-84 25 -144 24q-100 0 -145 -68.5t-64 -176.5q-10 -54 -11 -103z" />
<glyph unicode="A" d="M-16 55q4 23 22.5 36t40.5 22q8 4 25 8q18 8 36.5 15t28.5 24l598 1161q14 27 37 42t53 15h78q55 0 66 -53l190 -1167q2 -10 12.5 -19.5t36.5 -13.5q39 -14 55 -34q12 -15 12 -29q0 -33 -27 -49q-22 -13 -48 -13h-317q-27 0 -45.5 12.5t-14.5 42.5q4 18 27.5 36t54.5 28 q10 4 18.5 8t18.5 8q2 2 3 0l-30 232q-2 18 -22 18h-447q-20 0 -26 -5t-10 -11l-105 -230l-2 -2v-2q4 -4 8 -4t8 -2q6 -4 19 -8q27 -10 44 -26.5t13 -39.5q-4 -31 -27.5 -43t-48.5 -12h-280q-27 0 -43 13q-13 11 -13 31q0 5 1 11zM494 526l4 4h389v7l-90 563l-299 -565z" />
<glyph unicode="B" horiz-adv-x="1187" d="M25 55q4 16 15 28.5t23 18.5t24.5 11.5t25.5 9.5q16 4 30.5 8t16.5 19l188 1048q4 16 -10 22.5t-29 14.5q-23 10 -46 25.5t-17 44.5q4 29 25.5 42t47.5 13h371q250 0 366 -91q90 -71 90 -203q0 -37 -7 -79q-31 -172 -164 -266q147 -70 147 -243q0 -41 -8 -87 q-35 -199 -177 -295t-384 -96h-473q-27 0 -43 13q-13 11 -13 31q0 5 1 11zM371 160q-4 -12 14 -13h195q145 0 223 59.5t100 176.5q5 31 6 57q0 75 -43 119q-57 59 -204 59h-201q-8 0 -10 -10zM481 768q2 -2 11 -2h129q129 0 197.5 56.5t88.5 164.5q4 26 5 50q0 72 -44 114 q-57 55 -204 59l-97 2q-10 0 -12 -8l-74 -424q-1 -5 -1 -8t1 -4z" />
<glyph unicode="C" horiz-adv-x="1130" d="M135 680q121 690 733 690q92 0 176 -20.5t168 -67.5l-32 -188q-8 -43 -27.5 -62.5t-42.5 -19.5q-31 0 -44 23.5t-17 51.5l-11 54q-18 41 -61 62.5t-117 21.5q-86 0 -168 -34t-149.5 -101.5t-117.5 -170t-75 -239.5q-16 -87 -15 -160q0 -42 5 -80q14 -102 59 -169.5 t115 -101.5t156 -34q143 0 204 84l31 53q14 29 35 52.5t53 23.5q23 0 35 -19.5t4 -62.5l-33 -190q-104 -45 -195 -65.5t-179 -20.5q-309 0 -429 173q-80 116 -81 308q0 95 20 209z" />
<glyph unicode="D" horiz-adv-x="1292" d="M25 55q4 16 15 28.5t23 18.5t24.5 11.5t25.5 9.5q16 4 30.5 8t16.5 19l188 1058q2 14 -11 18.5t-28 10.5q-10 4 -20 9t-21 11q-10 6 -18 18.5t-4 29.5q4 31 27.5 43t48.5 12h456q297 0 412 -172q76 -113 75 -298q0 -96 -20 -210q-59 -336 -234 -508t-470 -172h-461 q-27 0 -43 13q-13 11 -13 31q0 5 1 11zM373 162q-2 -10 1 -13.5t17 -3.5h176q170 0 290 130.5t167 404.5q18 107 18 192q0 133 -45 212q-74 130 -243 130h-179q-16 0 -18 -12z" />
<glyph unicode="E" horiz-adv-x="1189" d="M25 55q4 16 15 28.5t23 18.5t24.5 11.5t25.5 9.5q16 4 30.5 8t16.5 19l190 1058q2 14 -11 17.5t-28 7.5q-12 4 -23.5 8t-21.5 12t-17 20.5t-3 31.5q4 29 25.5 42t47.5 13h900q57 0 56 -48q0 -7 -1 -16l-23 -135q-4 -25 -21.5 -43t-45.5 -18q-27 0 -40.5 21.5t-19.5 49.5 q-4 14 -5 28.5t-11 14.5h-535q-14 0 -16 -12l-76 -426q-2 -8 1 -11t16 -3h231q12 0 18.5 14.5t14.5 28.5q14 23 33.5 48.5t52.5 25.5q31 0 40 -20.5t5 -43.5l-43 -246q-4 -27 -20.5 -47t-49.5 -20q-31 0 -42 25.5t-15 47.5q-4 14 -6 28.5t-15 14.5h-231q-10 0 -13 -3t-7 -17 l-78 -442q-2 -10 8 -11h532q14 0 21.5 14.5t17.5 28.5q8 10 14.5 21.5t16.5 21.5q8 10 21.5 19.5t31.5 9.5q29 0 39 -18.5t6 -42.5l-24 -133q-10 -66 -80 -66h-893q-27 0 -45 12q-15 10 -15 33q0 4 1 10z" />
<glyph unicode="F" horiz-adv-x="1189" d="M25 55q6 29 34.5 42.5t53.5 23.5q16 6 31.5 10t17.5 16l188 1067q0 2 -6 7q-12 8 -35 16q-29 10 -48 27.5t-15 40.5q4 29 25.5 42t47.5 13h910q29 0 39 -19q7 -13 7 -29q0 -7 -1 -14l-23 -137q-4 -25 -20.5 -43t-44.5 -18q-25 0 -37 15t-19 34q-2 6 -3 11t-3 11 q-4 14 -6 28.5t-14 14.5h-522q-23 0 -25 -14l-76 -426q-2 -12 19 -12h231q10 0 16.5 13t14.5 30q16 29 37.5 51.5t48.5 22.5q29 0 39 -18.5t6 -45.5l-45 -254q-4 -25 -21.5 -42t-46.5 -17q-31 0 -42 25.5t-15 47.5q-4 14 -6 28.5t-15 14.5h-231q-18 0 -20 -16l-80 -455 q-2 -12 12 -16l29 -8q10 -4 20 -9t21 -12q10 -8 18 -19t4 -28q-4 -31 -27.5 -43t-48.5 -12h-315q-27 0 -45 12q-15 10 -15 33q0 4 1 10z" />
<glyph unicode="G" horiz-adv-x="1202" d="M135 680q59 340 236.5 514t474.5 174q70 0 125 -6t101 -18.5t87 -30t84 -39.5l-35 -205q-4 -25 -20.5 -45t-48.5 -20q-20 0 -37 17t-23 56l-10 56q-8 18 -21.5 34.5t-38 28.5t-64.5 19.5t-97 7.5q-90 0 -172 -32t-149.5 -98.5t-117 -169t-73.5 -243.5q-16 -90 -16 -165 q0 -41 5 -77q13 -102 57 -168.5t113.5 -99.5t159.5 -33q109 0 151 25.5t46 54.5l47 264q2 10 -11.5 13.5t-27.5 9.5q-29 12 -48 28.5t-15 40.5q4 29 27.5 41.5t47.5 12.5h314q27 0 42 -12.5t11 -41.5q-4 -18 -15.5 -29.5t-23.5 -19.5q-12 -6 -24.5 -11t-24.5 -9 q-16 -4 -30.5 -9.5t-16.5 -17.5l-70 -393q-61 -23 -113.5 -40t-102.5 -28.5t-102 -17.5t-114 -6q-297 0 -412 174q-76 115 -75 301q0 97 20 213z" />
<glyph unicode="H" horiz-adv-x="1421" d="M25 55q4 16 15 28.5t23 18.5q12 8 25.5 12.5t26.5 8.5q16 4 30.5 8t16.5 16l188 1065q2 12 -11 15.5t-28 9.5q-29 10 -43 20q-10 6 -18 18.5t-4 29.5q4 31 27.5 43t48.5 12h321q27 0 42 -13.5t11 -41.5q-4 -16 -15 -28.5t-24 -19.5q-20 -10 -51 -20q-16 -4 -30.5 -8 t-16.5 -19l-76 -432q-4 -16 13 -16h567q4 0 8 10l78 445q0 4 -6 4q-6 4 -15.5 8t-17.5 8q-29 10 -49.5 27.5t-16.5 40.5q4 33 29 44t51 11h316q27 0 43 -13q13 -11 13 -32q0 -5 -1 -10q-4 -23 -22.5 -36.5t-40.5 -23.5l-13 -4l-12 -4q-16 -6 -30.5 -10t-16.5 -17l-189 -1063 q0 -4 4.5 -11t34.5 -11q29 -8 50.5 -24.5t15.5 -45.5q-4 -33 -28.5 -44t-51.5 -11h-313q-27 0 -45.5 12.5t-14.5 42.5q4 23 23.5 36t40.5 22q6 4 12 5t14 5q16 4 30.5 7t17.5 15l81 463q0 10 -6 10h-567q-16 0 -18 -16l-80 -455q-2 -12 11 -16t28 -8q12 -4 22 -8t21 -13 q10 -6 18 -18t4 -29q-4 -29 -24.5 -42t-47.5 -13h-319q-27 0 -45 12q-15 10 -15 33q0 4 1 10z" />
<glyph unicode="I" horiz-adv-x="651" d="M25 55q6 31 31.5 45.5t60.5 24.5q8 4 18 6t19 6q8 6 8 10l188 1070q0 4 -6 4q-6 4 -15.5 8t-17.5 8q-29 10 -49 27.5t-16 40.5q4 31 27.5 43t50.5 12h315q25 0 43 -12q15 -10 15 -33q0 -5 -1 -10q-4 -29 -31.5 -45.5t-60.5 -24.5q-31 -4 -38 -12.5t-7 -12.5l-188 -1060 q-2 -14 11 -17.5t28 -7.5q12 -4 23 -8t22 -11q29 -18 22 -53q-8 -29 -29.5 -41t-48.5 -12h-317q-25 0 -43 12q-15 10 -15 33q0 4 1 10z" />
<glyph unicode="J" horiz-adv-x="819" d="M35 111q4 23 18.5 44t44.5 21q23 0 39.5 -3t32.5 -7q14 -4 27.5 -6t27.5 -2q63 0 94 24.5t39 73.5l170 952q0 8 -4 15.5t-30 11.5q-29 8 -50.5 24.5t-17.5 45.5q4 31 27.5 43t48.5 12h319q27 0 43 -13q13 -11 13 -32v-10q-4 -16 -15.5 -28.5t-23.5 -19.5q-20 -10 -52 -20 q-16 -4 -30.5 -8t-16.5 -19l-161 -915q-16 -86 -43 -144.5t-66 -93t-91 -49t-118 -14.5q-37 0 -78 6t-75.5 19.5t-56.5 35.5q-17 18 -17 42z" />
<glyph unicode="K" horiz-adv-x="1302" d="M25 55q4 16 15 28.5t23 18.5q12 8 25.5 12.5t26.5 8.5q16 4 30.5 8t16.5 16l188 1067q0 2 -6 7q-12 8 -35 16q-29 10 -48 27.5t-15 40.5q4 29 25.5 42t47.5 13h322q27 0 43 -13.5t12 -41.5q-4 -23 -23.5 -36.5t-39.5 -23.5l-12 -4q-6 -2 -15 -4q-16 -6 -30.5 -9 t-16.5 -16l-65 -372l444 399l-12 6q-18 10 -31.5 24.5t-9.5 35.5q4 31 27.5 43t50.5 12h258q25 0 43 -12q15 -10 15 -33q0 -5 -1 -10q-4 -23 -30.5 -40.5t-63.5 -29.5q-14 -4 -27 -8l-24 -8q-23 -8 -29 -15l-492 -442q-4 -2 -4 -3t-2 -3t-2 -4q0 -4 1 -9.5t9 -15.5l424 -563 q14 -16 35 -25.5t43 -17.5q31 -10 47.5 -25.5t12.5 -40.5q-4 -31 -28 -43t-48 -12h-160q-49 0 -88 35l-408 530l-73 -420q-2 -12 12 -15t29 -7q29 -10 49 -27.5t16 -42.5q-8 -29 -29.5 -41t-46.5 -12h-319q-25 0 -43 12q-15 10 -15 33q0 4 1 10z" />
<glyph unicode="L" horiz-adv-x="1083" d="M25 55q4 16 15 28.5t23 18.5q12 8 25.5 12.5t26.5 8.5q16 4 30.5 8t16.5 16l188 1063q2 14 -11 18.5t-28 10.5q-29 10 -43 21q-10 6 -18 18t-4 29q4 31 28.5 42t49.5 11h319q25 0 41 -12.5t12 -40.5q-4 -23 -29.5 -40.5t-58.5 -27.5q-16 -6 -31.5 -9t-17.5 -16 l-186 -1052q-2 -14 14 -15h494q12 0 17 14.5t13 28.5q18 29 39 51.5t47 22.5q29 0 39 -17q7 -12 8 -28q0 -6 -2 -12l-24 -150q-6 -29 -27.5 -43t-50.5 -14h-858q-25 0 -43 12q-15 10 -15 33q0 4 1 10z" />
<glyph unicode="M" horiz-adv-x="1693" d="M25 55q4 16 15 28.5t23 18.5q12 8 25.5 12.5t26.5 8.5q16 4 30.5 8t16.5 16l188 1065q2 12 -11 15.5t-28 9.5q-29 10 -43 20q-10 6 -18 18.5t-4 29.5q4 31 27.5 43t50.5 12h251q33 0 50.5 -21.5t23.5 -56.5l191 -885l536 887q20 35 46 55.5t61 20.5h200q27 0 42 -13 q12 -11 13 -31q0 -5 -1 -11q-4 -29 -33 -45.5t-62 -24.5q-29 -4 -36 -12.5t-7 -14.5l-188 -1056q-2 -14 11.5 -19.5t27.5 -9.5q12 -4 22.5 -8t20.5 -13q10 -6 18.5 -18t4.5 -29q-4 -31 -28 -43t-50 -12h-314q-27 0 -45 12.5t-14 42.5q4 16 15.5 28.5t23.5 18.5t24.5 11.5 t24.5 9.5q16 4 30.5 8t16.5 19l148 827l-490 -821q-20 -33 -46 -55.5t-56 -22.5q-35 0 -52.5 22.5t-25.5 57.5l-193 856l-153 -862q-2 -14 11 -19.5t28 -9.5q12 -4 22 -8t21 -13q10 -6 18 -18t4 -29q-4 -31 -27.5 -43t-48.5 -12h-278q-25 0 -43 12q-15 10 -15 33q0 4 1 10z " />
<glyph unicode="N" horiz-adv-x="1320" d="M25 55q4 16 15 28.5t23 18.5q20 10 52 21q16 4 30.5 8t16.5 19l186 1048q2 16 -11 22.5t-28 14.5q-23 10 -46 25.5t-17 44.5q4 31 27.5 43t48.5 12h200q57 0 76 -51l363 -934l147 835q0 6 -4 13.5t-33 11.5q-29 8 -50.5 24.5t-16.5 45.5q4 31 27.5 43t49.5 12h275 q27 0 45 -12q15 -10 15 -33q0 -5 -1 -10q-4 -23 -22.5 -36.5t-40.5 -23.5l-13 -4l-12 -4q-16 -6 -30.5 -9t-16.5 -16l-203 -1149q-4 -29 -26.5 -46t-53.5 -17h-94q-57 0 -78 51l-348 922l-145 -823q-2 -14 11 -18.5t28 -8.5q29 -10 43 -21q10 -6 18 -18t4 -29 q-4 -29 -25.5 -42t-48.5 -13h-280q-25 0 -43 12q-15 10 -15 33q0 4 1 10z" />
<glyph unicode="O" horiz-adv-x="1331" d="M135 680q59 336 230.5 512t453.5 176h27q279 0 389 -176q72 -115 72 -297q0 -98 -21 -215q-59 -336 -231 -512t-453 -176h-27q-281 0 -390 176q-71 114 -71 296q0 98 21 216zM333 451q9 -98 46 -166t97.5 -105t139.5 -43q80 6 153 43t133.5 104.5t105.5 166t67 229.5 q16 93 16 169q0 31 -2 60q-9 98 -46 166t-97.5 105t-138.5 43q-164 -14 -289 -147.5t-172 -395.5q-16 -93 -16 -170q0 -30 3 -59z" />
<glyph unicode="P" horiz-adv-x="1130" d="M25 55q6 29 31.5 44.5t60.5 25.5q14 4 28.5 7t16.5 18l188 1062q2 12 -11 15.5t-28 9.5q-29 10 -43 20q-10 6 -18 18.5t-4 29.5q4 31 27.5 43t48.5 12h395q240 0 348 -92q82 -70 82 -197q0 -41 -8 -88q-35 -193 -177.5 -291t-386.5 -98h-110q-16 0 -16 -10l-78 -434 q0 -4 4 -11.5t33 -11.5q31 -6 52 -22.5t15 -49.5q-4 -29 -25.5 -42t-48.5 -13h-319q-25 0 -43 12q-15 10 -15 33q0 4 1 10zM477 741q2 -2 12 -2l115 2q147 4 224 59.5t100 176.5q5 31 5 57q0 74 -42 115q-57 55 -205 61l-106 4q-20 0 -23 -12l-80 -450q-1 -4 -1 -7t1 -4z " />
<glyph unicode="Q" horiz-adv-x="1331" d="M135 678q59 336 230.5 513t453.5 177h27q279 0 389 -177q72 -115 72 -298q0 -98 -21 -215q-25 -133 -72 -243.5t-109.5 -193.5t-135 -136.5t-146.5 -71.5q0 6 2 8h2l-4 4q115 -78 256 -78q52 0 52 -42q0 -10 -3 -21q-4 -27 -22.5 -45.5t-48.5 -18.5q-127 0 -237.5 32 t-207.5 101q-16 10 -22 12.5t-12 2.5q-285 0 -394 176q-70 114 -70 295q0 99 21 219zM333 447q9 -99 45 -166.5t96.5 -104.5t139.5 -43q162 14 288 147.5t173 397.5q16 93 16 169q0 31 -2 60q-9 98 -46 166t-97.5 104.5t-138.5 43.5q-164 -12 -289 -146.5t-172 -396.5 q-16 -93 -16 -170q0 -32 3 -61z" />
<glyph unicode="R" horiz-adv-x="1183" d="M25 55q4 16 15 28.5t23 18.5q20 10 52 21q16 4 30.5 8t16.5 19l188 1062q2 12 -11 15.5t-28 9.5q-29 10 -43 20q-10 6 -18 18.5t-4 29.5q4 31 27.5 43t48.5 12h417q211 0 322 -95q85 -73 85 -202q0 -38 -7 -80q-14 -78 -57.5 -144.5t-100.5 -115.5t-120.5 -78t-115.5 -29 v2q0 -2 3 -4l202 -460q6 -14 22.5 -21.5t28.5 -13.5q27 -10 42.5 -25.5t11.5 -38.5q-4 -31 -27.5 -43t-50.5 -12h-121q-55 0 -76 49l-227 524q-10 20 -29 21h-59q-16 0 -16 -10l-78 -434q0 -4 5 -12.5t34 -12.5q29 -8 50 -24.5t15 -45.5q-4 -29 -25.5 -42t-48.5 -13h-319 q-25 0 -43 12q-15 10 -15 33q0 4 1 10zM477 741q2 -2 12 -2l115 2q147 4 224 59.5t100 176.5q5 31 5 57q0 74 -42 115q-57 55 -205 61l-106 4q-20 0 -23 -12l-80 -450q-1 -4 -1 -7t1 -4z" />
<glyph unicode="S" horiz-adv-x="1001" d="M47 78l19 207l2 8q4 23 18 40t43 17q59 0 70 -55l12 -72q29 -33 84 -60.5t147 -27.5q123 0 189.5 60.5t89.5 177.5q4 27 -4 55.5t-35 59t-74 62.5t-119 64q-147 66 -225 162q-60 75 -60 173q0 28 5 59q14 86 59 153.5t108.5 113.5t143.5 70.5t166 24.5q76 0 154 -20.5 t168 -67.5l-17 -205q-4 -29 -19.5 -48t-53.5 -19q-29 0 -42.5 17t-17.5 40l-12 72q-29 31 -72 55.5t-108 24.5q-109 0 -167.5 -52.5t-74.5 -138.5q-2 -10 -2 -21q0 -55 46 -111q54 -67 200 -130q147 -66 217 -155q53 -67 52 -158q0 -30 -5 -62q-18 -104 -65.5 -181 t-115 -126t-150.5 -73.5t-173 -24.5q-82 0 -174 20.5t-207 71.5z" />
<glyph unicode="T" horiz-adv-x="1153" d="M180 1161l23 137q6 31 28.5 46.5t51.5 15.5h897q55 0 54 -46q0 -7 -1 -16l-21 -137q-4 -27 -21 -44t-46 -17q-25 0 -37 15t-16 36q-2 4 -3.5 10t-3.5 10q-4 14 -6 28.5t-14 14.5h-229q-14 0 -17 -16l-186 -1046q0 -8 5 -15.5t34 -11.5q39 -14 54 -33.5t11 -36.5 q-4 -31 -27.5 -43t-47.5 -12h-320q-27 0 -43 13.5t-12 41.5q6 29 34.5 42.5t53.5 23.5q16 6 31.5 10t17.5 19l186 1048q2 16 -14 16h-250q-14 0 -21.5 -14t-15.5 -29q-6 -10 -13 -21t-15 -22q-10 -10 -23.5 -19t-32.5 -9q-31 0 -40 18q-6 13 -6 29q0 6 1 14z" />
<glyph unicode="U" horiz-adv-x="1320" d="M221 487l129 723q2 14 -11 18.5t-28 8.5q-29 10 -43 20q-10 6 -18 18.5t-4 29.5q4 31 27.5 43t48.5 12h319q27 0 43 -13.5t12 -41.5q-4 -16 -15 -28.5t-24 -19.5q-20 -10 -51 -20q-16 -4 -30.5 -8t-16.5 -19l-135 -761q-8 -47 -8 -86q0 -85 40 -134q55 -66 188 -65h15 q143 4 217 75.5t99 206.5l135 764q2 12 -11.5 16.5t-27.5 10.5q-10 4 -21.5 9t-21.5 11q-8 6 -17.5 16.5t-6.5 29.5q4 31 26.5 44t48.5 13l281 -2q27 0 43 -12q13 -10 13 -31q0 -5 -1 -10q-4 -18 -16.5 -29.5t-22.5 -18.5q-12 -6 -24.5 -11t-24.5 -9q-16 -6 -30.5 -10 t-16.5 -17l-131 -743q-20 -117 -71.5 -204t-127.5 -145.5t-170 -88t-200 -29.5q-211 0 -306 123q-66 86 -65 229q0 62 12 135z" />
<glyph unicode="V" horiz-adv-x="1212" d="M85 1348q24 12 48 12h344q27 0 43.5 -13.5t11.5 -41.5q-4 -25 -29.5 -40.5t-56.5 -25.5q-10 -4 -19 -7t-17 -7h-4l153 -832l445 834h-3h-4q-6 4 -13 7t-13 7q-25 10 -41.5 25.5t-11.5 38.5q4 31 27.5 43t47.5 12h240q27 0 48 -11q18 -9 18 -34q0 -5 -1 -10 q-4 -25 -27.5 -41.5t-56.5 -26.5q-18 -6 -40 -16q-14 -8 -21 -19l-594 -1143q-31 -59 -86 -59q-53 0 -74 53l-229 1149q-2 10 -12 16l-19 9q-4 4 -10 5t-10 3q-29 12 -47 29q-15 13 -15 32q0 37 28 52z" />
<glyph unicode="W" horiz-adv-x="1740" d="M91 1348q24 12 48 12h342q27 0 43.5 -13.5t12.5 -41.5q-4 -23 -29 -39.5t-55 -26.5q-8 -4 -17.5 -7t-19.5 -7h-4l84 -822l397 809q14 29 41 49.5t70 20.5q37 0 59 -17.5t24 -43.5l80 -828l400 836h-2q-2 0 -2 2q-6 4 -13.5 6t-13.5 6q-27 10 -43 24.5t-12 37.5 q4 31 27.5 43t47.5 12h240q29 0 51 -10q18 -8 18 -32q0 -6 -1 -13q-4 -23 -28 -39.5t-58 -28.5l-21 -8q-10 -4 -20 -10q-16 -10 -19 -17l-551 -1143q-29 -59 -92 -59t-69 61l-91 865l-430 -867q-31 -59 -88 -59t-73 57l-146 1147q-2 10 -21.5 18.5t-29.5 12.5q-29 12 -48 30 q-16 14 -16 32q0 36 28 51z" />
<glyph unicode="X" horiz-adv-x="1361" d="M25 55q4 23 29.5 40.5t60.5 27.5l24 8q12 4 23 8q23 10 26 17l402 469q14 14 18 30v13l-223 534q-4 10 -28.5 19.5t-32.5 13.5q-33 14 -52.5 31.5t-15.5 38.5q4 31 27.5 43t48.5 12h350q27 0 43 -13.5t12 -41.5q-4 -29 -32.5 -44.5t-57.5 -21.5l-26 -6l159 -395l342 389 l-20 8q-37 14 -54.5 29.5t-11.5 42.5q6 29 27.5 41t48.5 12h289q25 0 43 -12q15 -10 15 -33q0 -5 -1 -10q-4 -23 -29.5 -39.5t-60.5 -28.5q-10 -4 -37.5 -14.5t-36.5 -20.5l-420 -477q-16 -16 -16 -27q-2 -6 2 -14l236 -526q4 -8 20 -17q10 -4 21.5 -8t21.5 -8 q31 -12 50.5 -29.5t15.5 -40.5q-4 -31 -27.5 -43t-48.5 -12h-348q-27 0 -43.5 13.5t-12.5 41.5q4 16 26 36t65 34l24 8l-168 375l-321 -375l20 -8q67 -23 67 -60q0 -5 -1 -10q-4 -31 -27.5 -43t-48.5 -12h-299q-25 0 -43 12q-15 10 -15 33q0 4 1 10z" />
<glyph unicode="Y" horiz-adv-x="1128" d="M84 1348q23 12 49 12h338q25 0 43 -12.5t12 -42.5q-4 -23 -22.5 -33t-36.5 -19q-6 -2 -13.5 -3t-15.5 -5l-26 -8v-6l168 -420l305 418l-23 6q-33 8 -52 26.5t-15 43.5q6 31 28.5 43t48.5 12h279q25 0 43 -12q14 -9 14 -29q0 -7 -2 -14q-4 -25 -29.5 -41.5t-60.5 -26.5 l-24 -8q-12 -4 -23 -8q-20 -8 -27 -19l-391 -540q-16 -20 -21 -33t-5 -19l-82 -458q-4 -14 10 -18.5t29 -10.5q10 -4 21 -9t22 -12q10 -6 18 -18t4 -29q-6 -31 -28.5 -43t-47.5 -12h-319q-29 0 -45.5 13.5t-9.5 41.5q4 23 22.5 36t38.5 22q16 8 25 10q16 6 30.5 10t18.5 17 l82 460q4 23 -8 54l-224 536q-4 12 -26.5 21.5t-34.5 13.5q-31 12 -50 30q-16 14 -16 32q0 35 29 51z" />
<glyph unicode="Z" horiz-adv-x="1136" d="M27 63l6 39q4 23 18.5 43.5t30.5 40.5l844 1022h-469q-18 0 -30.5 -10t-27.5 -33q-8 -10 -14 -21t-14 -22q-10 -10 -23.5 -19t-32.5 -9q-23 0 -35 19q-8 12 -9 33q0 13 3 30l21 122q6 31 27.5 46.5t50.5 15.5h768q29 0 45 -15q12 -11 12 -31q0 -7 -2 -16l-6 -41 q-6 -25 -23 -49q-6 -10 -13 -18t-13 -19l-846 -1021h551q18 0 30.5 10t26.5 33q6 10 13.5 21t15.5 22q10 10 23.5 19t33.5 9q16 0 32 -19q10 -13 10 -36q0 -12 -3 -27l-18 -116q-4 -31 -25.5 -48.5t-52.5 -17.5h-850q-57 0 -57 47q1 7 2 16z" />
<glyph unicode="[" horiz-adv-x="530" d="M16 0l260 1481h293l-28 -166h-121l-203 -1149h121l-29 -166h-293z" />
<glyph unicode="\" horiz-adv-x="587" d="M98 1481h176l191 -1481h-172z" />
<glyph unicode="]" horiz-adv-x="530" d="M16 0l29 166h121l203 1149h-121l28 166h293l-260 -1481h-293z" />
<glyph unicode="^" horiz-adv-x="643" d="M188 1108l240 250h111l149 -250h-94l-133 119l-176 -119h-97z" />
<glyph unicode="_" horiz-adv-x="1280" d="M16 0l21 123h1050l-20 -123h-1051z" />
<glyph unicode="`" horiz-adv-x="468" d="M98 1315q4 29 31 48t64 19q25 0 42 -9t41 -36l228 -231h-121l-240 137q-23 12 -36 30.5t-9 41.5z" />
<glyph unicode="a" horiz-adv-x="1036" d="M66 285q14 88 64 150.5t126 101t173 56t206 17.5h33q8 0 10 2t4 13l12 67q5 30 5 56q0 136 -146 137q-59 0 -115.5 -6.5t-115.5 -22.5q-27 2 -45.5 13.5t-14.5 39.5q4 25 23.5 41.5t42.5 26.5q92 39 247 39q199 0 278 -88q58 -65 58 -170q0 -38 -8 -82l-92 -520 q-6 -20 29 -35q20 -6 34 -19q10 -6 16.5 -17t2.5 -28q-8 -33 -37 -45t-59 -12q-121 0 -174 61q-152 -61 -281 -61q-158 0 -228 78q-54 59 -54 147q1 29 6 60zM266 232q4 -28 21.5 -49t50.5 -34.5t86 -13.5q76 0 154 19q25 6 26 22l53 307q1 5 1 8t-1 4q-2 1 -10 1 q-100 -4 -168.5 -19.5t-114 -41t-68 -63.5t-30.5 -83q-2 -14 -2 -28.5t2 -28.5z" />
<glyph unicode="b" horiz-adv-x="1142" d="M150 86l217 1214q2 12 -11.5 11.5t-25.5 1.5q-10 2 -22.5 4t-22.5 6q-12 4 -22.5 14.5t-6.5 30.5q2 18 26.5 34.5t56.5 29t64.5 20.5t55.5 8h59q33 0 57.5 -13t18.5 -48l-74 -424v2q53 25 103.5 35t103.5 10q96 0 170 -38t119 -103.5t61 -152.5q8 -41 8 -84 q0 -49 -10 -101q-18 -102 -65 -200.5t-122 -174.5t-177.5 -122t-227.5 -46q-72 0 -153.5 20.5t-179.5 65.5zM379 186q-4 -18 11.5 -27t36.5 -12q14 -1 30 -1h15q24 1 36 1q57 0 113.5 24t105.5 73t86 122.5t55 174.5q10 56 11 102q0 84 -33 138q-51 85 -168 85q-16 0 -47 -1 t-61.5 -5t-54 -15t-28.5 -32z" />
<glyph unicode="c" horiz-adv-x="921" d="M100 485q18 104 67.5 198.5t125.5 167.5t173 116t212 43q51 0 112.5 -11.5t147.5 -33.5l-31 -170q-4 -29 -23.5 -47.5t-52.5 -18.5q-27 0 -43 20.5t-28 51.5q-6 25 -17 43q-8 16 -20 24q-18 10 -38.5 13.5t-43.5 3.5q-49 0 -100.5 -28t-96.5 -80t-79.5 -125.5 t-51.5 -166.5q-7 -42 -7 -80q0 -35 6 -67q13 -66 48 -112t89.5 -71.5t123.5 -25.5q39 0 86.5 8t106.5 27q25 0 46.5 -10.5t14.5 -38.5q-4 -25 -38.5 -46.5t-82 -38t-99.5 -26.5t-91 -10q-117 0 -203 37t-139 101.5t-73 154.5q-10 46 -10 97q0 48 9 101z" />
<glyph unicode="d" horiz-adv-x="1085" d="M91 308q-3 32 -3 62q0 42 6 79q16 90 59.5 192t114 188t167.5 143.5t224 57.5q37 0 76 -6t84 -16h2q2 0 2 6l51 286q2 10 -10 10.5t-22 2.5t-21.5 4t-21.5 6t-19.5 14.5t-9.5 30.5q6 18 30.5 35.5t56.5 30t63.5 19.5t52.5 7h82q33 0 45 -17q9 -13 9 -33q0 -6 -1 -13 l-219 -1237q-4 -16 3 -23.5t23 -15.5l17 -6q18 -8 29.5 -20.5t11.5 -35.5q-6 -35 -37 -47t-59 -12q-123 0 -175 70q-80 -35 -150.5 -55.5t-137.5 -20.5q-111 0 -178.5 48t-102.5 117.5t-42 148.5zM321 330q7 -63 30.5 -104.5t61.5 -62t85 -20.5q16 0 46.5 1t61.5 6.5 t55.5 16.5t28.5 32l113 641q0 6 -2 11t-13 9q-61 31 -122 31q-51 0 -103.5 -27.5t-98.5 -81t-82 -130.5t-52 -175q-11 -58 -12 -107q1 -21 3 -40z" />
<glyph unicode="e" horiz-adv-x="997" d="M102 306q-8 44 -7 92q0 54 9 112q18 106 68.5 199.5t122.5 162t162 108.5t192 40q195 0 266 -135q46 -86 46 -212q0 -72 -15 -157q-10 -53 -67 -53h-557q-6 -43 -7 -82q0 -95 40 -158q56 -88 173 -88q41 0 94.5 11.5t125.5 35.5q27 0 47 -9t16 -40q-4 -27 -45 -51.5 t-94.5 -43t-106.5 -29.5t-82 -11q-106 0 -186 39t-129.5 107.5t-65.5 161.5zM352 589q2 -1 13 -1h389q10 0 12 1t2 11q6 53 6 95q0 87 -25 128q-38 61 -145 62q-92 0 -150.5 -71t-101.5 -214q-1 -5 -1 -7.5t1 -3.5z" />
<glyph unicode="f" horiz-adv-x="780" d="M25 55q4 16 15 28.5t23 18.5q20 10 52 21q16 4 30.5 8t16.5 19l125 706q2 10 -13 10h-38q-35 0 -47.5 21.5t-8.5 52.5q6 31 25.5 51.5t54.5 20.5h55q35 184 151 266t314 82q57 0 57 -48q0 -7 -1 -16q-4 -31 -27 -47t-51 -16q-98 0 -153.5 -47t-78.5 -174h92 q35 0 47.5 -20.5t6.5 -51.5q-4 -31 -22.5 -52.5t-53.5 -21.5h-96l-127 -716q-2 -14 11 -18.5t28 -8.5q10 -4 21 -9t22 -12q10 -6 17 -18t3 -29q-4 -29 -25.5 -42t-48.5 -13h-319q-25 0 -43 12q-15 10 -15 33q0 4 1 10z" />
<glyph unicode="g" horiz-adv-x="1081" d="M-16 -182q10 66 51 111.5t106 80.5q47 23 72 23h4q27 0 45.5 -16.5t13.5 -39.5q-4 -16 -26 -36q-8 -6 -15.5 -13.5t-17.5 -15.5q-18 -16 -30.5 -32.5t-16.5 -37.5q-6 -31 20.5 -54.5t88.5 -23.5h290q88 0 126 25t46 66q2 12 2 22q0 44 -33 73q-42 36 -143 36h-159 q-147 0 -219 54q-54 41 -53 122q0 26 5 55q10 47 31 84t57 64q-63 47 -85 121q-12 42 -12 91q0 37 7 76q31 174 160 268.5t342 94.5q80 0 154 -25l28 -10l203 33q35 0 47 -18q9 -13 9 -32q0 -6 -1 -14q-10 -59 -69 -63l-49 -15q29 -47 32 -104q1 -16 1 -32q0 -40 -7 -79 q-29 -166 -150.5 -265t-334.5 -99q-61 0 -127 14l-17 -10q-6 -4 -15 -11t-13 -14q-8 -8 -10 -18q-4 -29 21.5 -46.5t98.5 -17.5h160q180 0 260 -81q59 -60 59 -165q0 -38 -8 -81q-25 -133 -120 -197.5t-252 -64.5h-330q-41 0 -87 8t-81 32.5t-53 66.5q-11 25 -11 60 q0 23 5 50zM362 497q16 -32 55.5 -51.5t106.5 -19.5q66 0 110 19.5t73.5 52t45 74.5t23.5 90q7 36 7 68q0 8 -1 15q-2 39 -21.5 68t-57 46.5t-101.5 17.5q-49 0 -98 -19q-41 -16 -67.5 -34.5t-43 -43t-26 -56.5t-15.5 -71q-7 -38 -7 -75q-1 -47 17 -81z" />
<glyph unicode="h" horiz-adv-x="1144" d="M25 55q4 16 15 28.5t23 18.5q20 10 52 21q16 6 30.5 9t16.5 18l205 1150q2 12 -11.5 11.5t-25.5 1.5t-23.5 4t-21.5 6q-12 4 -22.5 14.5t-6.5 30.5q2 18 26.5 34.5t56.5 29t64.5 20.5t55.5 8h80q57 0 56 -47q0 -7 -1 -16l-78 -445q137 74 264 74q174 0 245 -93 q50 -66 50 -168q0 -41 -8 -89l-94 -524q-4 -14 10 -18.5t29 -10.5l20 -8q10 -4 21 -13q10 -6 18 -18q5 -8 6 -18q0 -5 -2 -11q-4 -31 -27.5 -43t-48.5 -12h-319q-25 0 -43.5 12.5t-13.5 42.5q6 29 34.5 43.5t55.5 24.5q16 6 31.5 10t17.5 17l94 526q3 17 3 32q0 54 -33 99 q-42 57 -138 57q-78 0 -196 -49l-119 -665q-2 -14 11 -18.5t28 -8.5q10 -4 21 -9t22 -12q10 -6 17 -18t3 -29q-4 -29 -25.5 -42t-48.5 -13h-319q-25 0 -43 12q-15 10 -15 33q0 4 1 10z" />
<glyph unicode="i" horiz-adv-x="565" d="M56 101q26 19 59 34q23 8 39 19q12 8 12 14l121 684q2 12 -10.5 12t-26.5 2q-10 2 -22.5 3t-22.5 5t-20.5 14.5t-6.5 31.5q2 18 25.5 34.5t54.5 28.5t64.5 19.5t58.5 7.5h78q29 0 45 -15.5t10 -46.5l-137 -778q-4 -14 10 -21.5t29 -15.5l20 -12q10 -6 21 -15 q10 -10 16 -22t2 -31q-4 -29 -25.5 -41t-48.5 -12h-319q-25 0 -43 12q-15 10 -15 31q0 33 32 58zM324 1178q8 53 43.5 77.5t89.5 24.5q53 0 81 -26q20 -19 20 -51q0 -12 -3 -25q-10 -51 -45 -76t-88 -25t-80 26q-20 20 -20 53q0 10 2 22z" />
<glyph unicode="j" horiz-adv-x="837" d="M93 -251q22 15 54 15q51 -12 111 -12q68 0 101.5 26.5t43.5 80.5l175 989q2 10 -9.5 10t-23.5 2q-10 2 -22.5 3t-22.5 5t-20.5 14.5t-8.5 30.5t26.5 38t56.5 30t64.5 19.5t53.5 7.5h80q55 0 55 -45q0 -8 -2 -19l-184 -1048q-25 -137 -101 -219.5t-203 -82.5 q-59 0 -106 11.5t-80 28t-50 34.5q-14 15 -14 29q0 33 26 52zM618 1178q14 102 134 102q98 0 98 -78q0 -11 -2 -24q-10 -51 -45 -77t-88 -26t-80 26q-19 18 -19 50q-1 13 2 27z" />
<glyph unicode="k" horiz-adv-x="1024" d="M25 55q4 16 15 28.5t23 18.5q20 10 52 21q16 6 30.5 9t16.5 18l205 1150q2 12 -11.5 11.5t-25.5 1.5t-23.5 4t-21.5 6q-12 4 -22.5 14.5t-6.5 30.5q2 18 26.5 34.5t56.5 29t64.5 20.5t55.5 8h80q57 0 56 -47q0 -7 -1 -16l-129 -729l231 204q4 4 6.5 5.5t4.5 5.5 q0 2 -2.5 0t-2.5 0q-6 4 -13 8t-15 8q-23 12 -38 29.5t-11 34.5q6 29 27.5 41t45.5 12h281q25 0 44 -12q15 -9 15 -29q0 -6 -2 -12q-4 -25 -28.5 -42.5t-59.5 -31.5q-25 -10 -52.5 -21.5t-47.5 -27.5l-291 -256q-10 -10 -13 -14.5t-3 -6.5t4 -6l325 -393q2 -2 8 -5l15 -9 q10 -4 21.5 -9.5t21.5 -9.5q29 -14 47 -32.5t14 -35.5q-4 -29 -23.5 -46t-51.5 -17h-121q-51 0 -82 37l-303 352l-43 -239q-2 -14 11 -18.5t28 -8.5q10 -4 21 -9t22 -12q10 -6 17 -18t3 -29q-4 -29 -25.5 -42t-48.5 -13h-319q-25 0 -43 12q-15 10 -15 33q0 4 1 10z" />
<glyph unicode="l" horiz-adv-x="561" d="M25 55q4 16 15 28.5t23 18.5q20 10 52 21q16 6 30.5 9t16.5 18l205 1150q2 12 -11.5 11.5t-25.5 1.5t-23.5 4t-21.5 6q-12 4 -22.5 14.5t-6.5 30.5q2 18 26.5 34.5t56.5 29t64.5 20.5t55.5 8h80q57 0 56 -47q0 -7 -1 -16l-221 -1247q-2 -14 11 -18.5t28 -8.5q10 -4 21 -9 t22 -12q10 -6 17 -18t3 -29q-4 -29 -25.5 -42t-48.5 -13h-319q-25 0 -43 12q-15 10 -15 33q0 4 1 10z" />
<glyph unicode="m" horiz-adv-x="1685" d="M59 97q29 13 54 24q16 6 31.5 10t17.5 16l123 697q4 12 -9.5 12t-25.5 2t-23.5 3t-21.5 5q-12 4 -22.5 13.5t-6.5 29.5q2 18 25.5 35t54.5 29t64.5 20t58.5 8h78q29 0 45 -16t10 -45l-2 -20q72 47 141.5 72.5t136.5 25.5q72 0 130.5 -30t89.5 -77q182 111 327 111 q164 0 231 -97q47 -68 46 -165q0 -42 -8 -88l-95 -525q-2 -14 11.5 -17t27.5 -9q12 -4 22.5 -8t20.5 -13q10 -6 19 -17q5 -8 5 -18q0 -5 -1 -12q-4 -29 -27.5 -41t-48.5 -12h-319q-27 0 -43.5 12.5t-12.5 40.5q4 18 15.5 29.5t23.5 17.5q12 8 25 13l24 8q16 6 31.5 9 t17.5 17l93 525q3 19 3 38q0 16 -2 31q-5 35 -23.5 61.5t-49.5 43t-72 16.5t-91 -17.5t-116 -56.5q4 -29 1 -57.5t-9 -58.5l-92 -522q-2 -14 11.5 -18.5t27.5 -10.5q10 -4 21.5 -8t21.5 -13q10 -6 17.5 -17t2.5 -30q-4 -29 -25.5 -41t-47.5 -12h-322q-27 0 -43 12.5 t-12 40.5q6 31 34.5 44.5t53.5 23.5q16 6 31.5 10t17.5 16l92 525q3 18 4 36q0 15 -3 30q-5 34 -21.5 60.5t-42 43t-62.5 16.5q-41 0 -93 -21.5t-122 -60.5l-110 -626q-2 -14 11 -18.5t28 -10.5q10 -4 21 -8t22 -13q10 -6 17 -17t3 -30q-4 -29 -25.5 -41t-48.5 -12h-319 q-25 0 -43 12q-15 10 -15 31q-1 37 35 54z" />
<glyph unicode="n" horiz-adv-x="1146" d="M59 97q29 13 54 24q16 6 31.5 10t17.5 16l123 697q4 12 -9.5 12t-25.5 2t-23.5 3t-21.5 5q-12 4 -22.5 13.5t-6.5 29.5q2 18 25.5 35t54.5 29t64.5 19t58.5 7h78q29 0 45 -15t10 -46l-8 -43q86 55 163.5 87t153.5 32t129.5 -25.5t83 -72t37.5 -108.5q3 -23 3 -47 q0 -42 -9 -89l-94 -522q-2 -14 12 -18.5t29 -10.5q25 -6 41 -21q10 -6 18 -17q5 -8 6 -18q0 -5 -2 -12q-4 -29 -27.5 -41t-48.5 -12h-319q-25 0 -43.5 12.5t-13.5 40.5q6 31 34.5 44.5t55.5 23.5q16 6 31.5 10t17.5 16l92 525q4 19 4 37q0 46 -22 87q-31 56 -103 56 q-45 0 -106.5 -25.5t-147.5 -72.5l-106 -604q-2 -14 11 -18.5t28 -10.5q25 -6 43 -21q10 -6 17 -17t3 -30q-4 -29 -25.5 -41t-48.5 -12h-319q-25 0 -43 12q-15 10 -15 31q-1 37 35 54z" />
<glyph unicode="o" horiz-adv-x="1118" d="M98 284q-7 41 -7 86q0 56 11 117q31 176 125.5 307.5t235.5 182.5q98 35 186 35q98 0 176 -37t126 -104.5t66 -164.5q8 -45 8 -95q0 -58 -11 -124q-18 -109 -66.5 -200.5t-120 -158.5t-163 -104.5t-195.5 -37.5q-102 0 -180 36.5t-126.5 102.5t-64.5 159zM319 487 q-12 -63 -11 -117q0 -77 24 -133q41 -97 164 -98q113 0 192.5 90t108.5 250q14 80 14 145q0 83 -24 140q-42 102 -160 102q-53 0 -105 -24q-78 -35 -129 -127.5t-74 -227.5z" />
<glyph unicode="p" horiz-adv-x="1173" d="M-45 -346q4 23 22.5 36t40.5 23l13 4l12 4q16 6 30.5 10.5t18.5 18.5l193 1090q2 10 -11.5 10t-25.5 2q-10 2 -22.5 3t-22.5 5q-12 6 -21.5 17.5t-5.5 29.5q2 18 25.5 34.5t55.5 29t64.5 20.5t55.5 8h80q57 0 57 -49q68 31 129.5 48.5t118.5 17.5q94 0 161.5 -42 t106.5 -110.5t49 -160.5q4 -35 4 -71q0 -58 -10 -118q-18 -109 -66.5 -205t-116 -168.5t-153.5 -115.5t-182 -43q-49 0 -98 16t-101 53l-53 -301q-4 -14 10.5 -18t28.5 -11q10 -4 20.5 -9t20.5 -11t18.5 -18.5t4.5 -28.5q-6 -29 -27 -42t-49 -13h-320q-25 0 -43 12 q-14 9 -14 29q0 6 2 14zM383 205q53 -41 96 -57.5t78 -16.5q55 0 106.5 29.5t93.5 82t72.5 125t47.5 158.5q8 48 8 92q0 22 -2 42q-6 62 -30 108.5t-60.5 73t-85.5 26.5q-41 0 -95.5 -14t-119.5 -39z" />
<glyph unicode="q" horiz-adv-x="1067" d="M96 463q18 98 70.5 197.5t132.5 179.5t184.5 130t225.5 50q72 0 148.5 -25.5t166.5 -81.5l-205 -1163q-2 -12 12.5 -16t28.5 -10q29 -12 48.5 -30t15.5 -40q-6 -29 -26.5 -42t-49.5 -13h-301q-27 0 -43.5 13t-9.5 42q4 23 21 36t38 23l12 4l13 4q14 6 27 10.5t18 18.5 l51 293q-106 -53 -223 -53q-96 0 -170 39t-120 104.5t-64 151.5q-9 44 -9 90q0 43 8 88zM304 321q11 -60 41 -102.5t75 -65t100 -22.5q18 0 47 2t57.5 9.5t50 19.5t25.5 31l113 632q2 18 -14.5 29.5t-41 15.5t-49 5.5t-36.5 1.5q-51 0 -108.5 -30t-109 -85t-92 -133 t-57.5 -172q-6 -40 -6 -75q0 -32 5 -61z" />
<glyph unicode="r" horiz-adv-x="899" d="M59 97q29 13 54 24q16 6 31.5 10t17.5 16l123 697q2 12 -10.5 11t-24.5 3q-27 0 -45 6q-12 4 -22.5 14.5t-6.5 30.5q2 18 25.5 35t54.5 29t64.5 19t58.5 7h78q29 0 45 -15t10 -46l-4 -31q121 102 248 103q53 0 141 -35l-14 -209v-8q-6 -31 -26.5 -41t-39.5 -10 q-20 -2 -28.5 7t-12.5 19q-2 4 -3 9.5t-5 9.5q-2 4 -4 9t-6 11l-31 53q-25 25 -61 25q-68 0 -185 -92l-108 -608q-2 -14 11 -18.5t28 -10.5q25 -6 43 -21q10 -6 17 -17t3 -30q-4 -29 -25.5 -41t-48.5 -12h-319q-25 0 -43 12q-15 10 -15 31q-1 37 35 54z" />
<glyph unicode="s" horiz-adv-x="931" d="M66 287q6 35 31.5 46t54.5 11q45 0 55 -45l14 -84q10 -35 47 -60.5t111 -25.5q115 0 172 47q70 58 70 127q0 32 -41 69q-47 42 -174 89q-125 47 -183 121q-43 56 -43 129q0 24 4 49q23 127 131.5 192.5t274.5 65.5q63 0 129.5 -13.5t138.5 -48.5l4 -215q-4 -29 -25.5 -42 t-48.5 -13q-25 0 -43 11.5t-22 33.5l-14 82q-23 41 -48.5 62.5t-76.5 21.5q-92 0 -136.5 -36t-54.5 -89q-1 -6 -1 -12q0 -36 40 -75q47 -46 172 -93q226 -84 226 -253q0 -24 -5 -50q-27 -147 -138.5 -219t-291.5 -72q-76 0 -154.5 17.5t-170.5 58.5z" />
<glyph unicode="t" horiz-adv-x="741" d="M180 940q6 29 26.5 52.5t55.5 21.5l39 -2q10 0 12 2t4 12l27 156q4 20 14.5 50t29 58.5t46 49t66.5 20.5h20q29 0 45.5 -15.5t9.5 -46.5l-49 -286l154 2q35 2 46 -21q7 -15 7 -32q0 -10 -2 -21q-4 -29 -22.5 -50.5t-53.5 -21.5h-157l-95 -536q-9 -51 -8 -86v-14 q2 -38 16.5 -59t40 -28.5t60.5 -7.5q27 0 52.5 7.5t51.5 17.5l13 4q4 0 6 1t6 1q29 0 39 -18.5t6 -40.5q-4 -27 -37 -47.5t-73.5 -36t-83.5 -23.5t-68 -8q-141 0 -202 82q-40 54 -40 149q0 48 11 107l94 536l-51 -2q-35 -2 -48 21q-9 17 -9 38q0 7 1 15z" />
<glyph unicode="u" horiz-adv-x="1167" d="M176 909q2 16 25.5 32.5t55.5 29t70 20.5t70 8h60q29 0 45 -15t10 -46l-104 -590q-3 -20 -4 -38q0 -51 25 -94q34 -58 114 -58q43 0 101 20.5t136 67.5l105 596q2 12 -10.5 11t-24.5 1q-29 0 -47 8q-12 4 -21.5 15.5t-5.5 31.5q4 31 73 60.5t208 29.5q55 0 55 -43 q0 -8 -2 -18l-139 -791q-2 -12 10 -12t27 -2q10 -2 21 -3t22 -5q10 -4 22 -13.5t8 -29.5q-4 -18 -28.5 -35.5t-57 -30t-65.5 -19.5t-51 -7l-70 2q-35 2 -51.5 19.5t-9.5 51.5l6 41q-164 -106 -299 -106q-158 0 -222 97q-45 69 -44 166q0 41 8 87l88 494q2 12 -10.5 11 t-24.5 1q-29 0 -47 8q-12 4 -22 16q-6 8 -6 20q0 5 1 11z" />
<glyph unicode="v" horiz-adv-x="1142" d="M141 948q8 29 30 40t46 11h320q27 0 43 -11t12 -40q-4 -23 -27.5 -38t-54.5 -27q-8 -4 -17.5 -7.5t-17.5 -7.5l-4 -2v-10l107 -528l278 534q0 2 -6 2q-6 6 -14.5 9.5t-16.5 7.5q-27 12 -43 29.5t-12 43.5q16 20 32.5 32.5t39.5 12.5l262 2q29 0 44 -12q12 -10 12 -29 q0 -5 -1 -12q-4 -31 -32.5 -45t-55.5 -24q-20 -10 -42 -19.5t-32 -30.5l-452 -829h-97l-180 827q-4 18 -19.5 29.5t-37.5 22.5q-23 10 -45.5 24t-18.5 45z" />
<glyph unicode="w" horiz-adv-x="1609" d="M141 948q8 29 30 40t46 11h320q27 0 43 -11t12 -40q-4 -23 -27.5 -38t-52.5 -27q-8 -4 -17.5 -7.5t-17.5 -7.5q-6 -6 -6 -4h-2l78 -499l303 575q14 27 35.5 43t52.5 16q29 0 45 -17t21 -44l98 -571l231 495q0 -2 -6 4q-6 4 -14 7.5t-15 7.5q-27 12 -44 28.5t-13 38.5 q4 29 26.5 40t47.5 11h262q27 0 43 -11q13 -9 13 -29q0 -5 -1 -11q-4 -31 -33.5 -45t-54.5 -24q-23 -10 -43 -19.5t-31 -30.5l-415 -829h-97l-106 641l-354 -641h-95l-141 829q-4 20 -21.5 29.5t-35.5 20.5q-23 10 -45.5 24t-18.5 45z" />
<glyph unicode="x" horiz-adv-x="1175" d="M53 92q25 16 60 29q16 4 40.5 13t36.5 24l304 336l-152 344q-10 14 -33.5 22t-40.5 14q-33 12 -51 30t-14 44q4 29 26.5 40t46.5 11h342q27 0 43.5 -11t12.5 -40q-4 -20 -27.5 -37.5t-54.5 -27.5q-10 -4 -18.5 -7.5t-16.5 -7.5l92 -206l180 206q-6 4 -14 6.5t-16 6.5 q-27 10 -44.5 26.5t-13.5 38.5q4 31 27 43t49 12h281q25 0 43 -12t14 -41q-8 -25 -32.5 -41t-59.5 -28q-14 -6 -40 -16.5t-36 -20.5l-278 -316l190 -366q10 -14 33.5 -22.5t40.5 -14.5q31 -12 49 -28.5t14 -41.5q-4 -29 -25.5 -41t-47.5 -12h-363q-59 0 -57 53 q8 29 34.5 44.5t55.5 25.5l37 12l-107 232q-16 -18 -41.5 -46t-54.5 -60t-59.5 -65.5t-57.5 -64.5q12 -4 28.5 -10t31 -15.5t21.5 -21.5t5 -31q-4 -29 -27.5 -41t-48.5 -12h-278q-25 0 -43 11q-15 9 -15 30q0 31 29 51z" />
<glyph unicode="y" horiz-adv-x="1153" d="M-27 -264q4 29 24.5 43t47.5 14q25 0 40 -9t34 -20q12 -10 28.5 -16t45.5 -6q27 0 56.5 18.5t53.5 65.5l107 194l-148 816q-2 14 -13 24t-25.5 18.5t-30 14.5t-27.5 12q-8 4 -18.5 14.5t-6.5 28.5q8 29 30 40t46 11h330q27 0 43 -12t12 -41q-4 -16 -16.5 -25.5 t-20.5 -13.5q-18 -10 -43 -16q-12 -4 -24.5 -6t-16.5 -11q0 -6 2 -10l90 -536l285 542h-2q4 10 -9 13.5t-24 7.5l-20 8q-10 4 -19 8q-27 14 -22 39q4 29 26.5 41t47.5 12l272 2q27 0 43 -13q13 -11 13 -31q0 -5 -1 -11q-4 -23 -39 -41q-29 -14 -66.5 -27.5t-53.5 -41.5 l-570 -1057q-53 -98 -118.5 -138t-137.5 -42q-29 0 -66.5 9t-70.5 26.5t-53 42.5q-16 20 -16 44q0 7 1 15z" />
<glyph unicode="z" horiz-adv-x="960" d="M27 63q8 41 36 76l629 746l2 2v2q2 4 2 5t-10 -7h8q4 -4 2 -7l-4 -6h-8h-328q-16 0 -26.5 -13t-20.5 -30q-8 -10 -16 -21t-19 -22q-10 -10 -24 -18t-33 -8q-29 0 -45 15.5t-10 47.5l76 174h659q33 0 45 -17q9 -13 9 -32q0 -6 -1 -14q-6 -39 -37 -76l-618 -717h330 q8 0 17 9.5t13 15.5q4 4 7.5 9t7.5 11q23 29 45 49.5t51 20.5q55 0 55 -46q0 -9 -2 -19l-78 -193h-659q-57 0 -57 47q1 7 2 16z" />
<glyph unicode="{" horiz-adv-x="821" d="M145 739q4 16 17.5 26.5t25.5 16.5q74 35 130.5 136.5t89.5 285.5q35 193 138 294t279 101q25 0 42.5 -12t13.5 -41q-6 -29 -26.5 -40t-47.5 -13q-70 -6 -117 -61.5t-67 -176.5q-10 -51 -13.5 -111.5t-11.5 -107.5q-20 -113 -68.5 -187.5t-130.5 -109.5 q70 -33 92.5 -108.5t2.5 -188.5q-10 -47 -27.5 -107.5t-26.5 -111.5q-23 -121 5 -175t98 -60q25 -2 41 -13.5t12 -40.5q-6 -29 -26.5 -42t-47.5 -13q-176 0 -244.5 101.5t-33.5 293.5q33 184 13.5 287t-83.5 137q-20 10 -25.5 20.5t-3.5 20.5z" />
<glyph unicode="|" horiz-adv-x="417" d="M16 0l260 1481h173l-261 -1481h-172z" />
<glyph unicode="}" horiz-adv-x="688" d="M4 -66q4 29 26.5 40.5t47.5 13.5q70 6 116 60t68 175q8 49 12.5 108.5t12.5 106.5q20 115 69.5 192t126.5 109q-68 35 -89 111t-1 190q8 47 24.5 106.5t26.5 108.5q20 121 -7 176.5t-93 61.5q-25 2 -43 13.5t-12 39.5q4 29 27.5 41t48.5 12q174 0 241.5 -101t32.5 -294 q-33 -184 -12.5 -285.5t84.5 -136.5q10 -6 20 -16t6 -27q-2 -10 -10 -20t-31 -21q-76 -33 -132 -135t-89 -289q-35 -193 -137 -294t-277 -101q-27 0 -45 12t-12 43z" />
<glyph unicode="~" horiz-adv-x="1060" d="M106 518l37 203q86 72 154 97.5t131 25.5q25 0 74 -14.5t102 -30.5t97 -29.5t65 -13.5q20 0 45 5t58.5 21.5t79.5 48t108 84.5l-35 -200q-84 -72 -152.5 -97.5t-132.5 -25.5q-25 0 -75 13t-103 30q-27 10 -51.5 17t-46.5 14q-47 12 -64 12q-20 0 -43.5 -4t-57.5 -20.5 t-80.5 -48.5t-109.5 -87z" />
<glyph unicode="&#xa1;" horiz-adv-x="444" d="M35 96l2 10l209 963q6 33 30.5 48.5t55.5 15.5t49 -15.5t14 -48.5l-129 -963q-8 -53 -45 -77.5t-90 -24.5q-51 0 -78.5 21.5t-17.5 70.5zM238 1262q10 51 44.5 76.5t88.5 25.5q53 0 80.5 -25.5t17.5 -76.5q-8 -47 -44 -74t-89 -27t-80.5 25t-17.5 76z" />
<glyph unicode="&#xa2;" horiz-adv-x="954" d="M100 487q14 78 46 152t79 136.5t107.5 113.5t132.5 82q55 25 121 37l10 59q6 29 25.5 46t50.5 17t46 -17t9 -46l-8 -53q43 -4 95 -13.5t124 -31.5l-31 -172q-4 -29 -23.5 -47.5t-52.5 -18.5q-27 0 -43 21.5t-26 52.5q-4 10 -8 21.5t-11 21.5q-10 18 -18 24q-20 8 -31 11 l-133 -758h12q76 0 193 37q25 0 46.5 -10.5t14.5 -40.5q-4 -25 -38.5 -46.5t-83 -38t-100.5 -26.5t-89 -10h-4l31 24l-11 -57q-6 -31 -27.5 -46t-49.5 -15q-33 0 -45.5 17t-8.5 46l7 41q-25 4 -48.5 9t-46.5 16q-135 57 -188.5 176.5t-24.5 285.5zM313 487 q-23 -123 11 -207.5t112 -123.5l127 716q-4 -4 -10 -5t-10 -5q-74 -41 -139.5 -139.5t-90.5 -235.5z" />
<glyph unicode="&#xa3;" horiz-adv-x="995" d="M27 63l14 78q8 27 25.5 51.5t37.5 47.5t39 48t35 56q23 47 45 158h-53q-31 0 -45 18.5t-10 46.5q6 31 27.5 46.5t50.5 15.5h55l12 73h-55q-29 0 -44.5 17.5t-10.5 46.5q6 31 27.5 47t49.5 16h56v7q25 135 71.5 233t114.5 162.5t152 95.5t180 31q25 0 62.5 -5t72.5 -17.5 t57.5 -32t18.5 -46.5q-14 -63 -80 -63q-35 6 -64.5 8t-58.5 2q-78 0 -130 -21.5t-85 -63.5t-52.5 -103.5t-33.5 -143.5l-8 -36v-7h286q29 0 45.5 -16t10.5 -47q-4 -29 -25.5 -46.5t-52.5 -17.5h-291l-14 -73h293q29 0 45 -15.5t10 -46.5q-4 -29 -25.5 -47t-52.5 -18h-295 q-10 -53 -20.5 -85t-22.5 -65q-16 -43 -32.5 -77.5t-36.5 -63.5q-25 -41 -25 -47q-2 -4 3 -1t11 3h400q4 0 12 12l14 21q4 6 7.5 13l7.5 15q23 37 48 64.5t60 27.5q31 0 44.5 -17t8.5 -46l-34 -193q-4 -29 -23.5 -46t-52.5 -17h-721q-65 0 -55 63z" />
<glyph unicode="&#xa4;" horiz-adv-x="1026" d="M82 432l141 113q-41 78 -24 172q10 49 32.5 93t51.5 79l-101 115l135 108l101 -115q41 23 94 37.5t98 14.5q96 0 174 -52l142 115l96 -108l-139 -115q20 -41 25 -85t-3 -87q-8 -45 -29.5 -88t-54.5 -84l101 -113l-136 -110l-100 114q-43 -23 -93 -37t-99 -14 q-47 0 -93.5 13.5t-81.5 37.5l-141 -114zM354 717q-6 -35 3.5 -71t31.5 -60q49 -53 131 -54q41 0 80 14.5t69.5 40t52 59.5t28.5 71q14 76 -34 130t-130 54q-84 0 -151 -53t-81 -131z" />
<glyph unicode="&#xa5;" horiz-adv-x="1132" d="M61 1305q4 31 28 43t48 12h338q25 0 43.5 -12.5t13.5 -42.5q-4 -23 -22 -33t-39 -19q-16 -4 -27 -8l-28 -8q2 -2 2 -6l166 -420l305 418l-23 6q-31 8 -50 26.5t-15 43.5q4 31 27.5 43t48.5 12h278q25 0 43.5 -12.5t13.5 -42.5q-4 -25 -29.5 -41.5t-60.5 -26.5l-24 -8 q-12 -4 -23 -8q-20 -8 -26 -19l-293 -401h127q35 0 53 -16.5t12 -47.5q-4 -31 -28.5 -47t-59.5 -16h-196l-9 -12q-12 -16 -17 -27.5t-7 -18.5h219q35 0 53.5 -16t11.5 -47q-4 -31 -28.5 -47.5t-59.5 -16.5h-219l-59 -337q-4 -14 10 -18.5t29 -10.5q10 -4 21.5 -9t21.5 -12 q10 -6 17 -18t3 -29q-4 -31 -27.5 -43t-48.5 -12h-319q-27 0 -43 13.5t-12 41.5q4 23 23.5 36t39.5 22q16 8 25 10q16 6 30.5 10t16.5 17l61 339h-219q-33 0 -53.5 15.5t-11.5 50.5q8 29 31.5 45t56.5 16h219q0 10 -2 21.5t-8 26.5l-4 10h-195q-33 0 -53.5 15.5t-12.5 49.5 q8 29 32 45.5t56 16.5h121l-166 399q-6 12 -27.5 21.5t-33.5 13.5q-31 12 -50.5 29.5t-15.5 40.5z" />
<glyph unicode="&#xa6;" horiz-adv-x="417" d="M16 0l115 659h172l-115 -659h-172zM160 821l116 660h173l-117 -660h-172z" />
<glyph unicode="&#xa7;" horiz-adv-x="897" d="M-23 -336l37 215h101q-4 -41 7 -72.5t34.5 -54t56.5 -36t72 -15.5q111 6 181.5 62.5t84.5 140.5q8 45 -50.5 107.5t-207.5 140.5q-117 59 -161 137t-23 190q20 117 89.5 200t174.5 118q-102 53 -141 128.5t-21 188.5q12 74 48 135.5t89 107.5t122 71.5t148 25.5h5 q33 0 80 -8t91 -19.5t73.5 -26t27.5 -26.5l-39 -215h-100q4 43 -10.5 77t-40 56.5t-58.5 33.5t-65 11h-15q-72 0 -115.5 -36.5t-54.5 -96.5q-10 -51 43.5 -112.5t186.5 -126.5q76 -37 123 -75t70.5 -80t26.5 -89t-5 -100q-18 -109 -75.5 -196t-158.5 -142q90 -57 119 -126 t10 -171q-16 -98 -62 -173t-110.5 -126.5t-142.5 -77t-158 -25.5h-16q-33 0 -80 7.5t-90 19.5t-73 26.5t-28 26.5zM295 569q-10 -47 33 -101t153 -114q70 23 116 71t58 114v6v24q-6 20 -21.5 44t-39 43.5t-56 32.5t-75.5 13q-68 0 -113 -37t-55 -96z" />
<glyph unicode="&#xa8;" horiz-adv-x="622" d="M227 1202q6 33 36 48.5t73 15.5t67.5 -15.5t18.5 -48.5t-36 -48t-73 -15t-67.5 15t-18.5 48zM444 1202q6 33 36 48.5t73 15.5t67.5 -15.5t18.5 -48.5t-36 -48t-73 -15t-67.5 15t-18.5 48z" />
<glyph unicode="&#xa9;" horiz-adv-x="1701" d="M141 719q27 145 109 279.5t203.5 237.5t273.5 164.5t317 61.5q150 0 278 -55t217 -154.5t129 -235.5t11 -298q-25 -147 -108.5 -281.5t-205.5 -238t-274.5 -164t-314.5 -60.5q-158 0 -286 59.5t-214 162t-124 236.5t-11 286zM264 719q-23 -133 10 -247t107 -198 t181.5 -132t234.5 -48q133 0 260 50.5t230.5 135.5t174 198.5t92.5 240.5q25 139 -10 253.5t-110.5 197.5t-183 128t-226.5 45q-131 0 -250 -41.5t-246 -142.5q-94 -74 -166.5 -189.5t-97.5 -250.5zM465 717q45 256 183 384t364 128q68 0 130 -16.5t128 -51.5l-27 -141 q-6 -37 -22.5 -51.5t-34.5 -14.5q-23 0 -35 16.5t-16 41.5l-7 39q-16 29 -47.5 46t-93.5 13q-123 -6 -218 -103.5t-130 -289.5q-16 -98 -7 -172t38.5 -123t78 -73.5t107.5 -24.5t95 14t59 43l20 39q10 23 28.5 42t43.5 19q18 0 29.5 -15t5.5 -54l-25 -142 q-78 -35 -146.5 -50t-134.5 -15q-225 0 -318 128t-48 384z" />
<glyph unicode="&#xaa;" horiz-adv-x="774" d="M233 1235q10 63 47 105t91.5 69t121 38t138.5 11h10l6 37q10 53 -10.5 76.5t-69.5 23.5q-41 0 -76.5 -4t-74.5 -14q-23 2 -42.5 12t-13.5 41q4 25 22.5 37t33.5 21q66 27 174 26q139 0 196.5 -60.5t36.5 -170.5l-57 -326q0 -2 8 -6l12 -4q41 -14 35 -55 q-10 -29 -33.5 -40.5t-50.5 -11.5q-80 0 -123 37q-96 -37 -180 -37q-117 0 -167 54.5t-34 140.5zM406 1239q-4 -29 10 -53.5t78 -24.5q23 0 45 3t51 7l33 181q-61 -4 -102.5 -13.5t-65 -24t-34.5 -33.5t-15 -42z" />
<glyph unicode="&#xab;" horiz-adv-x="1298" d="M115 563q2 10 10 20.5t12 14.5l531 494q16 16 33.5 21t39.5 5l103 2q16 0 29.5 -8t9.5 -31q-2 -14 -17 -30l-456 -484q-2 -4 -2 -8q-4 -4 0 -6l282 -479q4 -10 6 -19.5t0 -17.5q-4 -23 -20.5 -30t-28.5 -7h-102q-37 0 -74 25l-344 499q-14 19 -12 39zM545 563q2 16 20 35 l533 494q16 16 33.5 21t37.5 5l103 2q16 0 29.5 -8t9.5 -31q-2 -14 -17 -30l-452 -480l-2 -4l-2 -4v-12l280 -477q4 -10 6 -19.5t0 -17.5q-4 -23 -20.5 -30t-28.5 -7h-102q-45 0 -74 27l-346 499q-12 27 -8 37z" />
<glyph unicode="&#xac;" horiz-adv-x="1122" d="M127 631l25 137h890l-88 -494h-149l63 357h-741z" />
<glyph unicode="&#xad;" horiz-adv-x="573" />
<glyph unicode="&#xae;" horiz-adv-x="1701" d="M141 719q27 145 109 279.5t203.5 237.5t273.5 164.5t317 61.5q150 0 278 -55t217 -154.5t129 -235.5t11 -298q-25 -147 -108.5 -281.5t-205.5 -238t-274.5 -164t-314.5 -60.5q-158 0 -286 59.5t-214 162t-124 236.5t-11 286zM264 719q-23 -133 10 -247t107 -198 t181.5 -132t234.5 -48q133 0 260 50.5t230.5 135.5t174 198.5t92.5 240.5q25 139 -10 253.5t-110.5 197.5t-183 128t-226.5 45q-131 0 -250 -41.5t-246 -142.5q-94 -74 -166.5 -189.5t-97.5 -250.5zM451 252q4 16 13 26.5t19 14.5q10 6 19.5 9t19.5 7t18.5 4t10.5 11 l139 786q2 8 -7 8t-19 4q-23 10 -38.5 25.5t-11.5 32.5q4 25 23.5 36t40.5 11h309q160 0 244 -71t57 -216q-10 -57 -42 -106.5t-74 -87t-88 -59t-85 -23.5l150 -336q4 -10 15.5 -14.5t19.5 -8.5q23 -10 35 -22.5t8 -30.5q-4 -27 -24.5 -37t-41.5 -10h-90q-45 0 -61 41 l-168 387q-6 12 -19 12h-43q-4 0 -4 -2l-57 -319q0 -10 24 -13q23 -8 40.5 -21.5t13.5 -37.5q-4 -25 -22.5 -36t-39.5 -11h-237q-20 0 -35.5 11t-11.5 36zM799 768h2h86q106 0 160.5 42t70.5 126q14 82 -25.5 123t-146.5 45l-78 2h-6h-4z" />
<glyph unicode="&#xaf;" horiz-adv-x="786" d="M225 1194l23 127h567l-22 -127h-568z" />
<glyph unicode="&#xb0;" horiz-adv-x="757" d="M225 1186q8 49 36 94t71 80t97 55.5t118 20.5q61 0 107 -22.5t77 -57.5t43 -80t4 -90q-8 -43 -34.5 -88t-68.5 -81t-98.5 -58.5t-119.5 -22.5t-110.5 21.5t-77 56.5t-41 80t-3.5 92zM381 1186q-10 -49 22.5 -79t79.5 -30q41 0 84 30t54 79q4 27 -4.5 47t-23.5 33.5 t-34.5 20.5t-38.5 7q-20 0 -42.5 -7t-43 -21.5t-35 -33.5t-18.5 -46z" />
<glyph unicode="&#xb1;" horiz-adv-x="995" d="M72 176q8 33 31.5 50.5t56.5 17.5h655q76 0 66 -68q-8 -37 -35 -54.5t-55 -17.5h-658q-35 0 -53 18.5t-8 53.5zM135 682q8 33 31 51q25 18 57 19l266 -4l37 241q2 16 8.5 29.5t22.5 23.5q25 18 57.5 16.5t51.5 -18.5q14 -23 10 -51l-39 -246l268 -4q16 0 29.5 -2 t23.5 -14q16 -18 11.5 -51t-27.5 -56q-31 -18 -61 -18l-265 6l-41 -266q-6 -35 -30 -53q-23 -20 -56.5 -18.5t-50.5 20.5q-18 23 -12 53l41 264l-272 4q-12 2 -25.5 5t-22.5 14q-18 22 -12 55z" />
<glyph unicode="&#xb2;" horiz-adv-x="735" d="M209 1096l6 41q12 39 59 69l250 174q68 47 76 117q8 43 -10.5 59.5t-83.5 16.5q-27 0 -58.5 -3t-72.5 -14q-4 0 -9.5 -1t-13.5 -1q-43 0 -55 43q10 57 59 70q117 47 211 47q125 0 179.5 -57.5t37.5 -145.5q-14 -72 -72.5 -131t-144.5 -118l-104 -72h147q0 2 -2 2l17 16 q14 16 34.5 30.5t45.5 14.5q27 0 41 -13t10 -42l-37 -96q-8 -20 -25.5 -40t-50.5 -20h-383q-27 0 -41 13.5t-10 40.5z" />
<glyph unicode="&#xb3;" horiz-adv-x="737" d="M190 995q25 49 82 49q47 -16 85 -20t73 -4q63 0 100 29.5t48 97.5q14 88 -82 88h-60q-29 0 -41 16.5t-8 44.5l4 19q4 29 23.5 42t46.5 13h59q45 0 66.5 19.5t27.5 60.5q10 49 -13 84t-87 35q-51 0 -135 -29q-61 0 -64 51q4 25 35 45.5t70 36t78 23.5t59 8q66 0 113 -21.5 t74.5 -56.5t37 -83t0.5 -99q-16 -88 -75 -139q66 -55 43 -170q-18 -111 -106.5 -182.5t-227.5 -71.5q-23 0 -63 8t-77.5 23.5t-63.5 36.5t-22 46z" />
<glyph unicode="&#xb4;" horiz-adv-x="614" d="M176 1106l307 231q35 27 55.5 36t45.5 9q37 0 56 -19.5t15 -47.5q-4 -23 -24.5 -41.5t-46.5 -30.5l-287 -137h-121z" />
<glyph unicode="&#xb5;" horiz-adv-x="1294" d="M-41 -319q6 31 27.5 47t50.5 16q98 0 154.5 49t78.5 176l154 871q2 12 -10.5 11t-24.5 1t-24.5 3t-22.5 5q-14 4 -22.5 15.5t-4.5 31.5q2 18 26 34.5t55.5 29t69.5 20.5t71 8h59q29 0 45 -15t10 -46l-104 -600q-14 -74 19.5 -133.5t113.5 -59.5q88 0 238 91l106 604 q2 12 -10.5 11t-24.5 1t-24.5 3t-22.5 5q-14 4 -22.5 15.5t-4.5 31.5q4 33 73 62.5t208 29.5q66 0 53 -61l-141 -803q-2 -12 10 -12t27 -2q10 -2 21.5 -3t21.5 -5t22.5 -13.5t8.5 -29.5q-4 -18 -29 -36t-57.5 -30t-65.5 -19.5t-51 -7.5h-70q-35 2 -51 20.5t-10 53.5l6 41 q-80 -53 -154.5 -80.5t-144.5 -27.5q-31 0 -56.5 4t-50.5 10l-4 -29q-33 -186 -149.5 -269t-317.5 -83q-65 1 -55 64z" />
<glyph unicode="&#xb6;" horiz-adv-x="1079" d="M205 1073q14 82 57 149.5t106.5 114.5t145.5 73t174 26h467l-20 -117h-127l-232 -1319h-133l231 1319h-114l-232 -1319h-135l125 713q-180 16 -260 113t-53 247z" />
<glyph unicode="&#xb7;" horiz-adv-x="477" d="M139 700q8 41 45 60.5t95 19.5q53 0 85.5 -20.5t26.5 -59.5q-8 -41 -45 -60t-96 -19q-57 0 -88 19t-23 60z" />
<glyph unicode="&#xb8;" horiz-adv-x="548" d="M102 -379l25 139q63 -41 99 -53t67 -12q61 0 82.5 15.5t25.5 39.5q4 20 -21.5 34.5t-94.5 14.5h-19q2 0 1 2t1 2l-39 23l84 174h119l-51 -88h25q96 0 144 -42t36 -120q-16 -80 -91 -124t-186 -44q-59 0 -110.5 8t-96.5 31z" />
<glyph unicode="&#xb9;" horiz-adv-x="534" d="M231 1092q4 18 18.5 30.5t31.5 22.5q4 2 8 3t8 3l12 6q2 2 3 2t3 2l74 414q0 -2 -1 -2t-1 -2h-22q-23 0 -46.5 9t-17.5 40q4 23 24.5 37t49.5 22l141 33q63 0 55 -53l-88 -498q4 -4 9.5 -5t9.5 -5q16 -10 30.5 -23.5t10.5 -35.5q-4 -29 -27.5 -39.5t-40.5 -10.5h-190 q-16 0 -37 10.5t-17 39.5z" />
<glyph unicode="&#xba;" horiz-adv-x="708" d="M112.5 1236q-12.5 60 0.5 132q20 115 83.5 201t168.5 123q63 23 127 22q141 0 213.5 -94t46.5 -252q-12 -72 -44 -132t-80 -104.5t-112.5 -69t-142.5 -24.5q-72 0 -125 24.5t-88 69t-47.5 104.5zM293 1368q-16 -96 9.5 -147.5t94.5 -51.5q63 0 109.5 48.5t64.5 146.5 q20 117 -6 170t-94 53q-23 0 -57 -14q-90 -35 -121 -205z" />
<glyph unicode="&#xbb;" horiz-adv-x="1163" d="M25 37q0 12 20 37l449 477q4 8 4 10v2q0 2 -1 3t-1 3l-283 480q-8 20 -6 32q4 23 20.5 31t32.5 8l102 -2q18 0 36 -5t28 -21l356 -494q10 -18 9 -35q-4 -12 -21 -37l-522 -501q-49 -25 -84 -25h-103q-12 0 -26 7t-10 30zM453 37q0 12 20 37l451 479q4 4 4 8v2q0 2 -1 3 t-1 3l-285 482q-6 16 -4 30q4 23 19.5 31t31.5 8l103 -2q18 0 35.5 -5t29.5 -21l354 -494q10 -14 9 -35q-4 -12 -21 -37l-522 -499q-41 -27 -84 -27h-103q-12 0 -26 7t-10 30z" />
<glyph unicode="&#xbc;" horiz-adv-x="1341" d="M-10 -6l1257 1364h168l-1249 -1364h-176zM203 713q4 23 17 35t32 22q8 6 16 8l13 6q2 2 3 2t3 2l78 439q0 -2 -1.5 -2t-1.5 -2h-22q-23 0 -45.5 9t-18.5 42q6 31 31 45t45 18l142 35q66 0 55 -59l-94 -525q4 -4 9 -5t9 -5q6 -4 14.5 -9t14.5 -13q18 -14 12 -43 q-4 -29 -28.5 -39t-41.5 -10h-190q-16 0 -35.5 10t-15.5 39zM571 113l7 30q6 35 28 60l406 456l14 17q29 29 72 29h47q25 0 40 -14.5t9 -43.5l-78 -448h60q27 0 41 -13.5t10 -42.5l-6 -30q-4 -29 -24.5 -41.5t-45.5 -12.5l-61 -2l-25 -143q-4 -29 -24.5 -43t-45.5 -14h-47 q-27 0 -41 14t-10 43l25 143h-299q-56 1 -52 56zM698 178q0 4 7 10q10 10 26 11h217l43 252l-252 -291l6 12q-8 -6 -14 -8q-12 -4 -10 6q-6 -10 -14 -2q-5 4 -9 10z" />
<glyph unicode="&#xbd;" horiz-adv-x="1398" d="M-10 -2l1257 1360h168l-1249 -1360h-176zM203 717q4 25 24.5 39t42.5 24l11 6l8 5l76 436l-3 -2h-22q-23 0 -45.5 10t-18.5 41q4 25 26 40t50 21l142 35q66 0 55 -57l-94 -527q8 -2 16 -8q16 -6 31.5 -21.5t11.5 -41.5q-4 -29 -27.5 -39t-42.5 -10h-190q-16 0 -35.5 10 t-15.5 39zM748 57l6 41q6 23 21.5 40.5t37.5 33.5l250 182q68 49 80 125q6 43 -12.5 61.5t-81.5 18.5q-27 0 -60 -4t-74 -12q-8 -4 -22 -4q-23 0 -35 13t-18 34q10 55 59 71q113 49 211 50q127 0 179 -59.5t36 -155.5q-14 -74 -73.5 -136.5t-145.5 -124.5l-107 -77h150 q0 4 -2 4l8 8l8 8q14 16 35 32.5t45 16.5q29 0 42 -16.5t7 -44.5l-35 -101q-8 -23 -26.5 -42t-50.5 -19h-383q-29 0 -42 15t-7 42z" />
<glyph unicode="&#xbe;" horiz-adv-x="1501" d="M127 631q25 53 82 53q49 -16 86 -21.5t72 -5.5q125 0 149 134q14 92 -82 92h-59q-29 0 -41 16t-8 45l4 21q4 29 23.5 43t45.5 14h60q45 0 66.5 19.5t29.5 64.5q8 51 -15.5 87t-84.5 36q-51 0 -136 -29q-59 0 -65 53q4 25 34.5 45.5t70.5 36t79 24.5t60 9 q66 0 111.5 -22.5t73.5 -59.5t37 -85t1 -101q-16 -94 -76 -146q63 -57 41 -178q-20 -113 -107 -187.5t-229 -74.5q-23 0 -61.5 9t-76.5 24.5t-63.5 37t-21.5 46.5zM158 -6l1257 1364h168l-1249 -1364h-176zM731 113l6 30q6 35 29 60l405 456l15 15q29 31 71 31h48 q25 0 40 -14.5t9 -43.5l-78 -448h59q27 0 41.5 -13.5t9.5 -42.5l-6 -30q-4 -29 -24.5 -41.5t-44.5 -12.5l-62 -2l-24 -143q-4 -29 -24.5 -43t-45.5 -14h-47q-27 0 -41 14t-10 43l24 143h-299q-27 0 -41 13.5t-10 42.5zM858 178q0 4 6 8q8 12 27 13h217l43 254l-252 -293 l6 12q-8 -6 -14 -8q-12 -4 -10 6q-6 -10 -15 -2q-4 4 -8 10z" />
<glyph unicode="&#xbf;" horiz-adv-x="925" d="M43 160q10 23 26.5 38t41.5 15q16 0 24 -4q63 -23 119.5 -31t103.5 -8q123 0 196 64.5t95 187.5q29 160 -84 256q-133 117 -102 280l53 295h170l-49 -292q-8 -45 10.5 -86t69.5 -76q92 -68 136 -165t21 -224q-14 -84 -51 -157t-98 -128t-146 -87t-196 -32 q-33 0 -92.5 11.5t-115.5 32t-97 49t-35 61.5zM510 1384q10 51 45 77t88 26t81 -25.5t17 -77.5q-10 -47 -46 -74.5t-89 -27.5t-79.5 25.5t-16.5 76.5z" />
<glyph unicode="&#xc0;" d="M-16 55q4 23 22.5 36t40.5 22q6 4 12.5 5t12.5 5q18 6 36.5 14t28.5 25l600 1169q14 27 37 42.5t53 15.5h78q55 0 66 -54l188 -1177q4 -10 13.5 -18.5t35.5 -12.5q41 -16 55.5 -34.5t10.5 -37.5q-4 -29 -25.5 -42t-48.5 -13h-317q-27 0 -45.5 12.5t-14.5 42.5 q4 18 27.5 36t54.5 30q10 4 18.5 8t18.5 8h4l2 -2l-33 234q-2 18 -22 18h-447q-20 0 -26 -4t-10 -12l-105 -230q-2 -2 -2 -4v-2q4 -2 16 -6q4 -2 9.5 -4t9.5 -4q27 -10 44 -26.5t13 -39.5q-4 -31 -27.5 -43t-48.5 -12h-280q-27 0 -43 13t-12 42zM494 530l4 5h389v4l-90 569 l-299 -569zM692 1632q6 35 34 56.5t62 21.5q27 0 43.5 -11t40.5 -40l220 -266h-121l-234 155q-23 16 -36 36.5t-9 47.5z" />
<glyph unicode="&#xc1;" d="M-16 55q4 23 22.5 36t40.5 22q6 4 12.5 5t12.5 5q18 6 36.5 14t28.5 25l600 1169q14 27 37 42.5t53 15.5h78q55 0 66 -54l188 -1177q4 -10 13.5 -18.5t35.5 -12.5q41 -16 55.5 -34.5t10.5 -37.5q-4 -29 -25.5 -42t-48.5 -13h-317q-27 0 -45.5 12.5t-14.5 42.5 q4 18 27.5 36t54.5 30q10 4 18.5 8t18.5 8h4l2 -2l-33 234q-2 18 -22 18h-447q-20 0 -26 -4t-10 -12l-105 -230q-2 -2 -2 -4v-2q4 -2 16 -6q4 -2 9.5 -4t9.5 -4q27 -10 44 -26.5t13 -39.5q-4 -31 -27.5 -43t-48.5 -12h-280q-27 0 -43 13t-12 42zM494 530l4 5h389v4l-90 569 l-299 -569zM594 1393l315 266q35 29 55.5 40t45.5 11q37 0 56 -21.5t13 -56.5q-4 -27 -24.5 -47t-48.5 -37l-291 -155h-121z" />
<glyph unicode="&#xc2;" d="M-16 55q4 23 22.5 36t40.5 22q6 4 12.5 5t12.5 5q18 6 36.5 14t28.5 25l600 1169q14 27 37 42.5t51 15.5h78q57 0 68 -54l188 -1177q4 -10 13.5 -18.5t35.5 -12.5q41 -16 55.5 -34.5t10.5 -37.5q-4 -29 -25.5 -42t-48.5 -13h-317q-27 0 -45.5 12.5t-14.5 42.5 q4 18 27.5 36t54.5 30q10 4 18.5 8t18.5 8h4l2 -2l-33 234q-2 18 -22 18h-447q-20 0 -26 -4t-10 -12l-105 -230q-2 -2 -2 -4v-2q4 -2 16 -6q4 -2 9.5 -4t9.5 -4q27 -10 44 -26.5t13 -39.5q-4 -31 -27.5 -43t-48.5 -12h-280q-27 0 -43 13t-12 42zM494 530l4 5h389v4l-90 569 l-299 -569zM614 1413l246 293h111l143 -293h-96l-129 139l-178 -139h-97z" />
<glyph unicode="&#xc3;" d="M-16 55q4 23 22.5 36t40.5 22q6 4 12.5 5t12.5 5q18 6 36.5 14t28.5 25l600 1167q27 57 88 57h78q57 0 68 -53l188 -1175q4 -10 13.5 -18.5t35.5 -12.5q41 -16 55.5 -34.5t10.5 -37.5q-4 -29 -25.5 -42t-48.5 -13h-317q-27 0 -45.5 12.5t-14.5 42.5q4 18 27.5 36t54.5 30 q10 4 18.5 7t18.5 9l4 -2h2l-33 234q-2 18 -22 18h-447q-20 0 -26 -5t-10 -11l-105 -230q-2 -2 -2 -4v-2q4 -2 16 -6q4 -2 9.5 -4t9.5 -4q27 -10 44 -26.5t13 -39.5q-4 -31 -27.5 -43t-48.5 -12h-280q-27 0 -43 13t-12 42zM494 530l4 5h389v4l-90 567l-299 -569 q-2 -2 -2 -3.5t-2 -3.5zM625 1352l28 166q55 51 99.5 68.5t83.5 17.5q16 0 45.5 -9.5t64.5 -19.5q29 -10 53.5 -19.5t38.5 -9.5q12 0 25.5 4t35 16.5t53.5 36t77 64.5l-29 -162q-55 -53 -99 -71.5t-85 -18.5q-16 0 -46 9.5t-65 21.5q-29 10 -53.5 18.5t-38.5 8.5 q-12 0 -25.5 -4.5t-35 -16.5t-52 -35.5t-75.5 -64.5z" />
<glyph unicode="&#xc4;" d="M-16 55q4 23 22.5 36t40.5 22q6 4 12.5 5t12.5 5q18 6 36.5 14t28.5 25l600 1167q27 57 88 57h78q57 0 68 -53l188 -1175q4 -10 13.5 -18.5t35.5 -12.5q41 -16 55.5 -34.5t10.5 -37.5q-4 -29 -25.5 -42t-48.5 -13h-317q-27 0 -45.5 12.5t-14.5 42.5q4 18 27.5 36t54.5 30 q10 4 18.5 8t18.5 8l4 -2h2l-33 234q-2 18 -22 18h-447q-20 0 -26 -5t-10 -11l-105 -230q-2 -2 -2 -4v-2q4 -2 16 -6q4 -2 9.5 -4t9.5 -4q27 -10 44 -26.5t13 -39.5q-4 -31 -27.5 -43t-48.5 -12h-280q-27 0 -43 13t-12 42zM494 530l4 5h389v4l-90 567l-299 -569 q-2 -2 -2 -3.5t-2 -3.5zM688 1556q10 43 40 64.5t73 21.5q45 0 68.5 -21.5t13.5 -64.5q-8 -45 -38 -65.5t-73 -20.5q-45 0 -68.5 20.5t-15.5 65.5zM905 1556q10 43 40 64.5t73 21.5q45 0 68.5 -21.5t13.5 -64.5q-8 -45 -38 -65.5t-73 -20.5q-45 0 -68.5 20.5t-15.5 65.5z " />
<glyph unicode="&#xc5;" d="M-16 55q4 23 22.5 36t40.5 22q6 4 12.5 5t12.5 5q18 6 36.5 14t28.5 25l600 1169q14 27 37 42.5t53 15.5h78q55 0 66 -54l188 -1177q4 -10 13.5 -18.5t35.5 -12.5q41 -16 55.5 -34.5t10.5 -37.5q-4 -29 -25.5 -42t-48.5 -13h-317q-27 0 -45.5 12.5t-14.5 42.5 q4 18 27.5 36t54.5 30q10 4 18.5 8t18.5 8h4l2 -2l-33 234q-2 18 -22 18h-447q-20 0 -26 -4t-10 -12l-105 -230q-2 -2 -2 -4v-2q4 -2 16 -6q4 -2 9.5 -4t9.5 -4q27 -10 44 -26.5t13 -39.5q-4 -31 -27.5 -43t-48.5 -12h-280q-27 0 -43 13t-12 42zM494 530l4 5h389v4l-90 569 l-299 -569zM723 1554q12 68 68.5 115t128.5 47q78 0 113.5 -50t25.5 -112q-12 -70 -68.5 -116.5t-128.5 -46.5q-76 0 -112.5 50t-26.5 113zM836 1554q-6 -53 45 -53q23 0 41 15.5t22 37.5q4 18 -8 36t-37 18q-20 0 -39.5 -15.5t-23.5 -38.5z" />
<glyph unicode="&#xc6;" horiz-adv-x="1990" d="M-18 43q4 29 31.5 46t66.5 30q23 6 51.5 16t44.5 31l981 1141q43 53 98 53h783q66 0 55 -64l-22 -135q-4 -25 -20.5 -43t-45.5 -18q-27 0 -41 21.5t-20 49.5q-4 10 -6.5 18.5t-6.5 16.5l-4 8h-534q-10 0 -11.5 -2t-3.5 -10l-75 -426q-2 -8 1 -11t15 -3h229 q12 0 17.5 14.5t15.5 28.5q18 29 39.5 51.5t48.5 22.5q29 0 38 -20.5t5 -43.5l-43 -246q-4 -25 -20.5 -46t-46.5 -21q-25 0 -38.5 21.5t-23.5 51.5q-4 14 -5 28.5t-13 14.5h-232q-8 0 -11 -3t-7 -15l-78 -450q2 0 2 -2.5t4 -2.5h535q14 0 20 14.5t17 28.5q6 10 13 21.5 t15 21.5q10 10 23.5 19.5t31.5 9.5q29 0 39.5 -18.5t6.5 -42.5l-23 -136q-4 -31 -26.5 -47t-55.5 -16h-922q-16 0 -36.5 8t-16.5 37q6 33 39 48.5t60 25.5q20 6 37.5 10t21.5 18l45 230q0 8 -10 8h-447q-35 0 -53 -23l-176 -225l-6 -6q2 0 3 -1t5 -1l12 -6q23 -10 37 -24.5 t10 -37.5l-2 -10q-14 -29 -37.5 -40t-48.5 -11h-280q-16 0 -34.5 7t-14.5 36zM659 530h392q2 0 2 11l100 596q4 0 11 2t7 -6q-2 0 -1 -3.5t-3 -7.5z" />
<glyph unicode="&#xc7;" horiz-adv-x="1130" d="M135 674q121 696 733 696q92 0 176 -21.5t168 -68.5l-32 -188q-8 -43 -27.5 -62.5t-42.5 -19.5q-33 0 -45 23.5t-16 49.5l-11 56q-18 41 -61 62.5t-117 21.5q-86 0 -168 -34t-149.5 -102.5t-117.5 -172t-75 -240.5q-25 -139 -10.5 -241.5t58.5 -171t114 -102.5t156 -34 q74 0 124 21.5t82 62.5l29 55q14 29 36 51.5t52 22.5q23 0 36 -19.5t5 -62.5l-35 -190q-203 -88 -374 -89h-11l-20 -34h24q96 0 144.5 -45t32.5 -131q-16 -88 -91 -136.5t-186 -48.5q-61 0 -111.5 9.5t-95.5 31.5l27 152q61 -41 98 -55.5t68 -14.5q59 0 80.5 16.5t25.5 45.5 q6 35 -30.5 44t-85.5 9h-17q2 0 1 2t3 2l-39 24l62 138q-205 29 -305 168q-123 178 -62 520z" />
<glyph unicode="&#xc8;" horiz-adv-x="1191" d="M25 55q4 16 15 28.5t23 18.5q12 8 25 13l25 8q16 6 30.5 10t16.5 17l190 1069q4 14 -9 17t-28 7q-29 8 -45 21q-10 8 -17 20t-3 31q4 29 25.5 42t48.5 13h899q66 0 55 -65l-25 -136q-4 -25 -20.5 -43t-46.5 -18q-25 0 -38 21.5t-20 52.5q-4 14 -5 27.5t-13 13.5h-535 q-12 0 -14 -11l-76 -430q-2 -14 15 -14h231q12 0 18.5 13.5t16.5 29.5q14 23 33.5 48.5t50.5 25.5t40 -20.5t5 -43.5l-43 -248q-4 -27 -20.5 -47t-49.5 -20q-31 0 -41 25.5t-16 48.5q-4 14 -5 28.5t-13 14.5h-232q-10 0 -14 -3.5t-8 -15.5l-78 -448q-2 -8 8 -9h532 q14 0 21.5 13.5t17.5 29.5q8 10 14.5 21.5t16.5 21.5t23.5 19.5t31.5 9.5q29 0 38 -18.5t5 -42.5l-24 -133q-10 -68 -80 -68h-893q-27 0 -45 12t-14 43zM692 1632q6 35 34 56.5t62 21.5q27 0 43.5 -11t40.5 -40l220 -266h-121l-234 155q-23 16 -36 36.5t-9 47.5z" />
<glyph unicode="&#xc9;" horiz-adv-x="1191" d="M25 55q4 16 15 28.5t23 18.5q12 8 25 13l25 8q16 6 30.5 10t16.5 17l190 1069q4 14 -9 17t-28 7q-29 8 -45 21q-10 8 -17 20t-3 31q4 29 25.5 42t48.5 13h899q66 0 55 -65l-25 -136q-4 -25 -20.5 -43t-46.5 -18q-25 0 -38 21.5t-20 52.5q-4 14 -5 27.5t-13 13.5h-535 q-12 0 -14 -11l-76 -430q-2 -14 15 -14h231q12 0 18.5 13.5t16.5 29.5q14 23 33.5 48.5t50.5 25.5t40 -20.5t5 -43.5l-43 -248q-4 -27 -20.5 -47t-49.5 -20q-31 0 -41 25.5t-16 48.5q-4 14 -5 28.5t-13 14.5h-232q-10 0 -14 -3.5t-8 -15.5l-78 -448q-2 -8 8 -9h532 q14 0 21.5 13.5t17.5 29.5q8 10 14.5 21.5t16.5 21.5t23.5 19.5t31.5 9.5q29 0 38 -18.5t5 -42.5l-24 -133q-10 -68 -80 -68h-893q-27 0 -45 12t-14 43zM532 1393l316 266q35 29 55.5 40t44.5 11q37 0 56.5 -21.5t13.5 -56.5q-4 -27 -24.5 -47t-49.5 -37l-291 -155h-121z " />
<glyph unicode="&#xca;" horiz-adv-x="1191" d="M25 55q4 16 15 28.5t23 18.5q12 8 25 13l25 8q16 6 30.5 10t16.5 17l190 1069q4 14 -9 17t-28 7q-29 6 -45 19q-10 10 -17 22t-3 31q4 29 25.5 42t48.5 13h899q66 0 55 -65l-25 -136q-4 -25 -20.5 -43t-46.5 -18q-25 0 -38 21.5t-20 52.5q-4 14 -5 27.5t-13 13.5h-535 q-12 0 -14 -11l-76 -430q-2 -14 15 -14h231q12 0 18.5 13.5t16.5 29.5q14 23 33.5 48.5t50.5 25.5t40 -20.5t5 -45.5l-43 -246q-4 -27 -20.5 -47t-49.5 -20q-31 0 -41 25.5t-16 48.5q-4 14 -5 28.5t-13 14.5h-232q-10 0 -14 -3.5t-8 -15.5l-78 -448q-2 -8 8 -9h532 q14 0 21.5 13.5t17.5 29.5q8 10 14.5 21.5t16.5 21.5t23.5 19.5t31.5 9.5q29 0 38 -18.5t5 -42.5l-24 -133q-10 -68 -80 -68h-893q-27 0 -45 12t-14 43zM553 1413l246 293h110l144 -293h-97l-129 139l-178 -139h-96z" />
<glyph unicode="&#xcb;" horiz-adv-x="1191" d="M25 55q4 16 15 28.5t23 18.5q12 8 25 13l25 8q16 6 30.5 10t16.5 17l190 1067q4 14 -10 17t-27 7q-12 4 -23 8t-22 13q-10 8 -17 20t-3 33q4 29 25.5 41t48.5 12h899q66 0 55 -63l-25 -136q-4 -27 -20.5 -45t-46.5 -18q-25 0 -38 22.5t-22 51.5q-4 14 -4 27.5t-12 13.5 h-535q-14 0 -14 -11l-76 -428q-2 -10 0 -13t15 -3h231q12 0 18.5 14.5t16.5 28.5q14 23 33.5 49.5t50.5 26.5t40 -20.5t5 -45.5l-43 -246q-4 -27 -20.5 -48t-49.5 -21q-31 0 -41 25.5t-16 48.5q-4 16 -5 30.5t-13 14.5h-232q-10 0 -14 -3.5t-8 -17.5l-78 -446q-2 -8 8 -9 h532q14 0 21.5 13.5t17.5 27.5q8 12 14.5 23.5t16.5 21.5t22.5 19.5t32.5 9.5q29 0 38 -19.5t5 -43.5l-24 -133q-10 -66 -80 -66h-893q-27 0 -45 12t-14 43zM627 1556q10 43 39.5 64.5t72.5 21.5q45 0 68.5 -21.5t13.5 -64.5q-8 -45 -37.5 -65.5t-72.5 -20.5 q-45 0 -68.5 20.5t-15.5 65.5zM844 1556q10 43 39.5 64.5t72.5 21.5q45 0 69 -21.5t13 -64.5q-8 -45 -37.5 -65.5t-72.5 -20.5q-45 0 -68.5 20.5t-15.5 65.5z" />
<glyph unicode="&#xcc;" horiz-adv-x="659" d="M25 55q6 29 31.5 44.5t60.5 25.5q14 4 28.5 7t16.5 15l190 1080q0 -2 -6 4q-6 4 -15 7t-20 7q-29 12 -48 28.5t-15 41.5q4 31 27.5 43t50.5 12h315q25 0 43 -12t14 -43q-6 -29 -33.5 -45.5t-58.5 -26.5q-29 -4 -36 -11t-7 -11l-190 -1071q-2 -14 11 -16.5t28 -6.5 q29 -10 50 -25.5t15 -46.5q-4 -31 -27.5 -43t-50.5 -12h-317q-25 0 -43 12t-14 43zM303 1632q6 35 31.5 55.5t64.5 22.5q29 2 44.5 -10t39.5 -41l224 -266h-123l-236 155q-23 16 -36 36.5t-9 47.5z" />
<glyph unicode="&#xcd;" horiz-adv-x="720" d="M25 55q6 31 31.5 46.5t60.5 25.5q8 2 18 5t19 7q8 6 8 8l190 1080q0 -2 -6 4q-6 4 -15 7t-20 7q-29 12 -48 28.5t-15 41.5q4 31 27.5 43t50.5 12h315q25 0 43 -12t14 -43q-6 -29 -33.5 -45.5t-58.5 -26.5q-31 -4 -38 -11t-7 -11l-190 -1071q-2 -14 11 -17.5t28 -7.5 q29 -6 45 -19q29 -18 22 -53q-8 -29 -29.5 -41t-48.5 -12h-317q-25 0 -43 12t-14 43zM287 1393l315 266q35 29 55.5 40t44.5 11q37 0 56.5 -21.5t13.5 -56.5q-4 -27 -24.5 -47t-49.5 -37l-290 -155h-121z" />
<glyph unicode="&#xce;" horiz-adv-x="694" d="M33 55q6 29 31.5 44.5t60.5 25.5q14 4 28.5 6t16.5 16l190 1080q0 -2 -6 4q-6 4 -15 7t-20 7q-29 12 -48 28.5t-15 41.5q4 31 27.5 43t50.5 12h317q25 0 43.5 -12t14.5 -43q-6 -29 -34 -45.5t-61 -26.5q-29 -4 -36 -11t-7 -11l-190 -1071q-2 -14 11.5 -16.5t27.5 -6.5 q29 -10 50.5 -25.5t14.5 -46.5q-4 -31 -27.5 -43t-49.5 -12h-318q-25 0 -43 12t-14 43zM244 1413l245 293h113l143 -293h-98l-129 139l-176 -139h-98z" />
<glyph unicode="&#xcf;" horiz-adv-x="681" d="M25 55q6 31 31.5 46.5t60.5 23.5q8 4 18 7t19 7q8 2 8 8l190 1078q0 -2 -6 4q-18 10 -35 16q-29 10 -48 27.5t-15 42.5q4 29 27.5 41t50.5 12h315q25 0 43 -12.5t14 -40.5q-6 -31 -33.5 -47.5t-58.5 -26.5q-31 -4 -38 -11t-9 -11l-188 -1069q-2 -14 11 -17.5t28 -7.5 q29 -6 45 -19q29 -18 22 -53q-8 -29 -29.5 -41t-48.5 -12h-317q-25 0 -43 12t-14 43zM315 1556q10 43 40 64.5t73 21.5q45 0 68.5 -21.5t13.5 -64.5q-8 -45 -38 -65.5t-73 -20.5q-45 0 -68.5 20.5t-15.5 65.5zM532 1556q10 43 40 64.5t73 21.5q45 0 68.5 -21.5t13.5 -64.5 q-8 -45 -38 -65.5t-73 -20.5q-45 0 -68.5 20.5t-15.5 65.5z" />
<glyph unicode="&#xd0;" horiz-adv-x="1292" d="M25 55q4 16 15 28.5t23 18.5t24.5 11.5t25.5 9.5q16 4 30.5 8t16.5 19l188 1058q2 14 -11 18.5t-28 10.5q-10 4 -20 9t-21 11q-10 6 -18 18.5t-4 29.5q4 31 27.5 43t48.5 12h456q297 0 412 -172t55 -508q-59 -336 -234 -508t-470 -172h-461q-27 0 -43 13t-12 42zM115 678 q16 61 88 61h493q76 0 66 -63q-12 -63 -88 -64h-494q-33 0 -54 15.5t-11 50.5zM373 162q-2 -10 1 -13.5t17 -3.5h176q170 0 290 130.5t167 404.5t-26.5 404t-243.5 130h-179q-16 0 -18 -12z" />
<glyph unicode="&#xd1;" horiz-adv-x="1323" d="M25 55q4 18 16 29.5t22 17.5q12 8 24.5 12.5t27.5 8.5q16 6 30.5 10t16.5 17l186 1056q4 16 -9 22.5t-30 14.5q-23 10 -45 25.5t-16 46.5q4 29 27.5 41t48.5 12h200q55 0 74 -49l363 -942l147 842q2 4 -2 12t-33 12q-29 8 -51.5 24.5t-15.5 47.5q4 31 27.5 42t49.5 11 h275q27 0 45 -11t14 -42q-4 -25 -23.5 -38t-39.5 -24l-13 -4l-12 -4q-16 -6 -30.5 -9t-16.5 -15l-205 -1155q-4 -31 -26.5 -48.5t-53.5 -17.5h-94q-57 0 -78 51l-346 928l-147 -829q-2 -12 12 -16.5t29 -10.5l20 -8q10 -4 21 -13q10 -6 18 -17t4 -30q-4 -29 -25.5 -42 t-48.5 -13h-280q-25 0 -43 12t-14 43zM569 1376l31 170q55 51 99 68.5t83 17.5q16 0 46 -9t63 -19q29 -10 54.5 -19.5t39.5 -9.5q12 0 25.5 4t35 16.5t52 36t76.5 64.5l-29 -162q-53 -53 -98.5 -71.5t-85.5 -18.5q-16 0 -47 9t-66 22q-16 4 -30.5 9t-26.5 9q-18 8 -33 8 q-10 0 -24.5 -3t-36 -15.5t-52.5 -37t-76 -69.5z" />
<glyph unicode="&#xd2;" horiz-adv-x="1339" d="M135 684q59 338 231.5 516t454.5 178h27q279 0 388.5 -178t49.5 -516q-59 -338 -231 -515t-453 -177h-27q-281 0 -390 177t-50 515zM333 453.5q9 -99.5 46 -167t97.5 -104.5t139.5 -43q162 12 287 146.5t172 398.5q25 131 15.5 231.5t-46 168t-97 104.5t-138.5 43 q-164 -14 -290 -148.5t-173 -398.5q-22 -131 -13 -230.5zM692 1632q6 35 34 56.5t62 21.5q27 0 43.5 -11t40.5 -40l220 -266h-121l-234 155q-23 16 -36 36.5t-9 47.5z" />
<glyph unicode="&#xd3;" horiz-adv-x="1337" d="M135 684q59 338 231.5 516t454.5 178h27q279 0 388.5 -178t49.5 -516q-59 -338 -231 -515t-453 -177h-27q-281 0 -390 177t-50 515zM333 453.5q9 -99.5 46 -167t97.5 -104.5t139.5 -43q162 12 287 146.5t172 398.5q25 131 15.5 231.5t-46 168t-97 104.5t-138.5 43 q-164 -14 -290 -148.5t-173 -398.5q-22 -131 -13 -230.5zM594 1393l315 266q35 29 55.5 40t45.5 11q37 0 56 -21.5t13 -56.5q-4 -27 -24.5 -47t-48.5 -37l-291 -155h-121z" />
<glyph unicode="&#xd4;" horiz-adv-x="1339" d="M135 684q59 338 231.5 516t454.5 178h27q279 0 388.5 -178t49.5 -516q-59 -338 -231 -515t-453 -177h-27q-281 0 -390 177t-50 515zM333 453.5q9 -99.5 46 -167t97.5 -104.5t139.5 -43q162 12 287 146.5t172 398.5q25 131 15.5 231.5t-46 168t-97 104.5t-138.5 43 q-164 -14 -290 -148.5t-173 -398.5q-22 -131 -13 -230.5zM592 1413l246 293h110l144 -293h-97l-129 139l-178 -139h-96z" />
<glyph unicode="&#xd5;" horiz-adv-x="1339" d="M135 684q59 338 231.5 515t452.5 177h27q281 0 390.5 -177t49.5 -515q-59 -338 -231 -515t-453 -177h-27q-281 0 -390 177t-50 515zM333 453.5q9 -99.5 46 -167t97.5 -104.5t139.5 -43q162 12 287 146.5t172 398.5q25 131 14.5 230.5t-46 167t-96 104.5t-138.5 43 q-164 -12 -290 -147.5t-173 -397.5q-22 -131 -13 -230.5zM596 1352l29 166q55 51 99 68.5t83 17.5q16 0 46 -9.5t65 -19.5q29 -10 53 -19.5t39 -9.5q12 0 25.5 4t35 16.5t53 36t76.5 64.5l-29 -162q-55 -53 -99 -71.5t-85 -18.5q-16 0 -46 9.5t-64 21.5q-29 10 -53.5 18.5 t-39.5 8.5q-12 0 -25.5 -4.5t-35 -16.5t-52 -35.5t-75.5 -64.5z" />
<glyph unicode="&#xd6;" horiz-adv-x="1335" d="M135 684q59 338 231.5 515t452.5 177h27q281 0 390.5 -177t49.5 -515q-59 -338 -231 -515t-453 -177h-27q-281 0 -390 177t-50 515zM333 453.5q9 -99.5 46 -167t97.5 -104.5t139.5 -43q162 12 287 146.5t172 398.5q25 131 14.5 230.5t-46 167t-96 104.5t-138.5 43 q-164 -12 -290 -147.5t-173 -397.5q-22 -131 -13 -230.5zM657 1556q10 43 40 64.5t73 21.5q45 0 68.5 -21.5t13.5 -64.5q-8 -45 -38 -65.5t-73 -20.5q-45 0 -68.5 20.5t-15.5 65.5zM874 1556q10 43 40 64.5t73 21.5q45 0 69.5 -20t14.5 -66q-8 -45 -37.5 -65.5t-75.5 -20.5 q-45 0 -68.5 20.5t-15.5 65.5z" />
<glyph unicode="&#xd7;" horiz-adv-x="804" d="M78 295q6 29 35 51l221 170l-170 180q-23 23 -17 47q4 29 34 49.5t57 20.5t51 -20l170 -181l225 174q12 8 26.5 14.5t28.5 6.5q29 0 52 -23q10 -10 13 -23t1 -24q-6 -29 -33 -49l-221 -172l156 -162q20 -20 16 -49q-4 -27 -34 -47t-58 -20q-25 0 -49 20l-158 164 l-221 -172q-29 -25 -60 -25q-27 0 -48 21.5t-17 48.5z" />
<glyph unicode="&#xd8;" horiz-adv-x="1331" d="M135 680q59 336 230.5 512t453.5 176h27q279 0 389.5 -176t50.5 -512q-59 -336 -231 -512t-453 -176h-27q-281 0 -390 176t-50 512zM346 680q-45 -262 33 -395q20 -37 45 -62l479 975q-51 18 -96 25q-164 -14 -289 -147.5t-172 -395.5zM514 162q49 -18 102 -25 q80 6 153 43t133.5 104.5t105.5 166t67 229.5q23 129 13.5 227.5t-48.5 167.5q-20 37 -43 60z" />
<glyph unicode="&#xd9;" horiz-adv-x="1193" d="M84 489l129 732q2 12 -11.5 16t-27.5 10q-12 4 -22.5 8.5t-20.5 12.5q-10 6 -18.5 17t-3.5 30q4 31 27.5 43t47.5 12h320q27 0 43 -13.5t12 -41.5q-4 -18 -15.5 -29.5t-23.5 -17.5q-12 -8 -24.5 -12.5t-26.5 -8.5q-16 -6 -30.5 -10t-16.5 -16l-135 -768 q-27 -147 27.5 -217t189.5 -70q154 0 230.5 71.5t101.5 213.5l137 770q2 10 -11.5 14t-27.5 10q-10 4 -21.5 9.5t-21.5 11.5q-8 6 -17.5 17t-7.5 28q4 33 26.5 46t49.5 13l281 -2q27 0 43 -13.5t12 -41.5q-4 -16 -16.5 -27.5t-22.5 -17.5q-12 -8 -24.5 -13.5t-24.5 -9.5 q-16 -6 -30.5 -10t-16.5 -14l-133 -750q-20 -117 -71.5 -205t-127.5 -147.5t-170 -89t-201 -29.5q-211 0 -305 122.5t-51 366.5zM553 1632q6 35 33.5 56.5t62.5 21.5q27 0 43.5 -11t40.5 -40l221 -266h-123l-233 155q-23 16 -36 36.5t-9 47.5z" />
<glyph unicode="&#xda;" horiz-adv-x="1193" d="M84 489l129 732q2 12 -11.5 16t-27.5 10q-12 4 -22.5 8.5t-20.5 12.5q-10 6 -18.5 17t-3.5 30q4 31 27.5 43t47.5 12h320q27 0 43 -13.5t12 -41.5q-4 -18 -15.5 -29.5t-23.5 -17.5q-12 -8 -24.5 -12.5t-26.5 -8.5q-16 -6 -30.5 -10t-16.5 -16l-135 -768 q-29 -152 29.5 -221.5t203.5 -65.5q143 4 218 75.5t98 209.5l137 770q2 10 -11.5 14t-27.5 10q-10 4 -21.5 9.5t-21.5 11.5q-8 6 -17.5 17t-7.5 28q4 33 26.5 46t49.5 13l281 -2q27 0 43 -13.5t12 -41.5q-4 -16 -16.5 -27.5t-22.5 -17.5q-12 -8 -24.5 -13.5t-24.5 -9.5 q-16 -6 -30.5 -10t-16.5 -14l-133 -750q-20 -117 -71.5 -205t-127.5 -147.5t-170 -89t-201 -29.5q-211 0 -305 122.5t-51 366.5zM496 1393l315 266q35 29 55.5 40t44.5 11q37 0 56.5 -21.5t13.5 -56.5q-4 -27 -24.5 -47t-49.5 -37l-289 -155h-122z" />
<glyph unicode="&#xdb;" horiz-adv-x="1193" d="M86 489l127 732q4 12 -10.5 16t-28.5 10q-10 4 -21.5 8.5t-21.5 12.5q-10 6 -17.5 17t-2.5 30q4 31 27.5 43t47.5 12h320q27 0 43 -13.5t12 -41.5q-4 -18 -16.5 -29.5t-24.5 -17.5q-10 -8 -23.5 -12.5l-25.5 -8.5q-16 -6 -30.5 -10t-18.5 -16l-135 -768 q-27 -152 31.5 -221.5t203.5 -65.5q143 4 217 75.5t99 209.5l135 770q4 10 -10.5 14t-28.5 10q-10 4 -20.5 9.5t-20.5 11.5t-18.5 17t-8.5 28q6 33 29 46t49 13l281 -2q27 0 43 -13.5t10 -41.5q-4 -16 -15.5 -27.5t-21.5 -17.5q-12 -8 -24.5 -13.5t-24.5 -9.5 q-16 -6 -30.5 -10t-18.5 -14l-131 -750q-20 -117 -71.5 -205t-127.5 -147.5t-170 -89t-201 -29.5q-211 0 -305 122.5t-51 366.5zM477 1413l246 293h111l143 -293h-96l-131 139l-179 -139h-94z" />
<glyph unicode="&#xdc;" horiz-adv-x="1198" d="M90 489l129 730q2 14 -11 17t-28 9q-29 10 -43 21q-10 6 -18 18t-4 31q4 29 27.5 41t47.5 12h320q27 0 43 -12.5t12 -40.5q-4 -18 -15 -30.5t-24 -18.5q-20 -10 -51 -21q-16 -6 -30.5 -9t-16.5 -17l-135 -766q-29 -152 29.5 -222.5t203.5 -66.5q143 4 218 76.5t100 210.5 l135 768q2 12 -11.5 16t-27.5 10q-10 4 -21.5 9.5t-21.5 11.5q-8 6 -17.5 16t-7.5 29q4 31 27 44t49 13l281 -2q27 0 43 -12.5t12 -40.5q-4 -18 -16.5 -29.5t-22.5 -17.5q-12 -6 -24.5 -11.5t-24.5 -9.5q-16 -6 -30.5 -10t-16.5 -16l-133 -750q-20 -117 -71.5 -204 t-126.5 -146.5t-170 -89t-202 -29.5q-211 0 -305 122.5t-51 366.5zM537 1556q8 43 37.5 64.5t74.5 21.5q43 0 66.5 -21.5t15.5 -64.5q-8 -45 -38.5 -65.5t-74.5 -20.5q-43 0 -66 20.5t-15 65.5zM754 1556q8 43 37.5 64.5t74.5 21.5q43 0 66.5 -21.5t15.5 -64.5 q-8 -45 -38.5 -65.5t-73.5 -20.5t-66.5 20.5t-15.5 65.5z" />
<glyph unicode="&#xdd;" horiz-adv-x="1120" d="M47 1315q6 31 28.5 43t47.5 12h338q27 0 45 -12t12 -43q-4 -23 -22.5 -34t-38.5 -17l-13 -4q-6 -2 -14 -7l-27 -8v-6l166 -422l305 420l-22 6q-31 10 -50.5 28.5t-15.5 43.5q6 31 29 43t47 12h279q27 0 45 -12t12 -43q-4 -25 -29.5 -42.5t-60.5 -27.5q-20 -6 -47 -16 q-20 -8 -27 -19l-393 -542q-16 -23 -21.5 -35t-5.5 -19l-82 -462q-2 -12 11.5 -17.5t27.5 -9.5q10 -4 21.5 -9t21.5 -14q10 -6 18.5 -17t4.5 -30q-6 -31 -28.5 -43t-49.5 -12h-319q-27 0 -43.5 13.5t-10.5 41.5q4 23 22.5 36t39.5 24l12 4l12 4q16 6 31.5 10t18.5 17l81 466 q2 10 1 23.5t-9 30.5l-221 540q-6 12 -27.5 21.5t-33.5 13.5q-31 12 -50.5 28.5t-15.5 41.5zM436 1393l314 266q35 29 55 40t47 11q35 0 54.5 -21.5t13.5 -56.5q-4 -27 -25 -47t-49 -37l-289 -155h-121z" />
<glyph unicode="&#xde;" horiz-adv-x="1146" d="M-47 -354q4 20 17.5 30.5t27.5 14.5q10 4 22.5 5t24.5 3q14 2 25.5 2t15.5 12l281 1587q4 12 -9.5 11.5t-25.5 1.5q-29 4 -45 8q-12 4 -22.5 15.5t-6.5 31.5q2 18 26.5 34.5t56.5 29t64.5 20.5t55.5 8h59q33 0 57.5 -13t18.5 -50l-76 -424h2q51 25 102.5 36t104.5 11 q96 0 169 -39t119 -104.5t61.5 -153.5t-1.5 -186q-18 -104 -66 -204t-125 -176.5t-179.5 -123.5t-227.5 -47q-35 0 -65.5 4t-65.5 14l-69 -387q-6 -37 -35 -50t-62 -13h-59q-23 0 -52.5 8t-57 20t-46 29t-14.5 35zM379 176q-4 -18 11.5 -27.5t37 -11.5t45 -1t35.5 1 q57 0 113.5 23.5t105.5 73t86 124t55 177.5q29 158 -22 242.5t-168 84.5q-16 0 -46 -1t-60.5 -6t-54 -16.5t-28.5 -31.5z" />
<glyph unicode="&#xdf;" horiz-adv-x="1347" d="M25 53q4 18 15 29.5t23 19.5q20 10 52 21q16 4 30.5 8t16.5 19l125 706q2 10 -13 10h-38q-35 0 -47.5 20.5t-8.5 53.5q6 31 25.5 51.5t54.5 20.5h55q35 184 151 266t314 82h37q31 0 86 -8.5t104.5 -34t81 -75.5t17.5 -132q-8 -45 -28.5 -81t-48.5 -63.5t-58.5 -47 t-55.5 -33.5q-14 -8 -27.5 -16.5t-23.5 -20.5q-14 -12 -25.5 -30.5t-15.5 -47.5q-8 -43 39 -89t172 -93q258 -96 221 -305q-27 -152 -139 -223.5t-293 -71.5q-76 0 -154.5 17.5t-170.5 57.5l-2 218q6 35 31.5 47t52.5 12q49 0 55 -47l14 -86q10 -35 48 -60.5t110 -25.5 q115 0 172 48t70 120q6 35 -40 78t-173 90q-125 47 -182.5 121.5t-39.5 179.5q16 88 72.5 145.5t147.5 97.5q16 8 29.5 15.5t27.5 19.5q12 10 23.5 27.5t15.5 46.5l4 18q0 104 -162 105q-8 -4 -16 -4q-6 0 -15 4q-90 -4 -142 -52t-75 -173l-151 -858q-2 -14 11 -18.5 t28 -8.5q10 -4 20 -9t21 -12q10 -8 18 -19t4 -30q-4 -29 -25.5 -41t-48.5 -12h-319q-25 0 -43 12t-14 41z" />
<glyph unicode="&#xe0;" horiz-adv-x="1021" d="M63 272q12 92 60.5 159t124.5 108t174 60t213 19h33q8 0 11 2.5t5 12.5l12 69q33 195 -137 195q-61 0 -118.5 -7t-116.5 -24q-27 2 -45.5 14.5t-14.5 41.5q4 25 24.5 41t43.5 26q90 39 248 39q197 0 274.5 -89t48.5 -255l-92 -526q-2 -20 29 -35q10 -4 18 -8t16 -11 q10 -6 16.5 -18t2.5 -29q-8 -33 -37 -45t-59 -12q-121 0 -174 61q-152 -61 -281 -61q-152 0 -224.5 73.5t-54.5 198.5zM266 235.5q4 -28.5 21.5 -50t50.5 -35t86 -13.5q76 0 154 19q25 6 26 22l55 311q2 10 0 11.5t-10 1.5q-100 -4 -169.5 -19.5t-113.5 -42t-67 -64.5 t-31 -83q-6 -29 -2 -57.5zM430 1305q6 35 32.5 56t63.5 21q25 0 42.5 -11t41.5 -40l219 -264h-120l-234 156q-23 14 -36 34.5t-9 47.5z" />
<glyph unicode="&#xe1;" horiz-adv-x="1021" d="M66 287q16 90 66 152.5t126 102.5t172 58t205 18h33q8 0 11 2.5t5 12.5l12 69q33 195 -141 195q-59 0 -115.5 -7t-115.5 -24q-27 2 -45.5 14.5t-14.5 41.5q4 25 24.5 41t43.5 26q90 39 248 39q197 0 274.5 -89t48.5 -255l-92 -526q-2 -20 29 -35q10 -4 18 -8t16 -11 q10 -6 16.5 -18t2.5 -29q-8 -33 -37 -45t-59 -12q-121 0 -174 61q-152 -61 -281 -61q-158 0 -228.5 79t-47.5 208zM266 235.5q4 -28.5 21.5 -50t50.5 -35t86 -13.5q76 0 154 19q25 6 26 22l55 311q2 10 0 11.5t-10 1.5q-100 -4 -169.5 -19.5t-113.5 -42t-67 -64.5t-31 -83 q-6 -29 -2 -57.5zM332 1067l315 264q35 29 55.5 40t45.5 11q37 0 56 -21.5t13 -55.5q-4 -27 -24.5 -47.5t-49.5 -34.5l-290 -156h-121z" />
<glyph unicode="&#xe2;" horiz-adv-x="1026" d="M66 287q16 90 66 152.5t126 102.5t172 58t205 18h33q8 0 11 2.5t5 12.5l12 69q33 195 -141 195q-59 0 -115.5 -7t-115.5 -24q-27 2 -46.5 14.5t-13.5 41.5q4 25 23.5 40t42.5 25q90 41 250 41q197 0 274.5 -89t48.5 -255l-92 -526q-2 -12 4 -19.5t25 -15.5q10 -4 18 -8 t16 -11q10 -6 16.5 -18t2.5 -29q-8 -33 -37 -45t-59 -12q-121 0 -174 61q-152 -61 -281 -61q-158 0 -228.5 79t-47.5 208zM266 235.5q4 -28.5 21.5 -51t50.5 -36t86 -13.5q41 0 78 5t76 16q25 6 26 22l55 311q2 10 0 11.5t-10 1.5q-100 -4 -169.5 -19.5t-113.5 -42 t-67 -64.5t-31 -83q-6 -29 -2 -57.5zM328 1067l245 291h111l143 -291h-96l-129 137l-178 -137h-96z" />
<glyph unicode="&#xe3;" horiz-adv-x="1030" d="M66 287q16 88 66 151.5t126 102.5t172 57t205 18h33q14 0 16 15l12 69q33 195 -141 195q-59 0 -115.5 -7t-115.5 -24q-27 4 -46.5 15.5t-13.5 40.5q4 25 23.5 41t42.5 26q92 39 248 39q199 0 276.5 -89t48.5 -255l-92 -524q-2 -14 4 -20.5t25 -14.5q10 -4 18 -8t16 -11 q10 -8 16.5 -19t2.5 -28q-8 -33 -37 -45t-59 -12q-121 0 -174 61q-152 -61 -281 -61q-158 0 -228.5 79t-47.5 208zM266 235.5q4 -28.5 21.5 -51t50.5 -36t86 -13.5q41 0 78 5t76 16q25 6 26 22l53 309q4 14 -8 13q-100 -4 -169.5 -19.5t-113.5 -41t-67 -63.5t-31 -83 q-6 -29 -2 -57.5zM324 1030l30 168q55 51 99.5 68.5t83.5 17.5q16 0 45.5 -9t62.5 -20q29 -10 54.5 -18t39.5 -8q12 0 25.5 3t35 15.5t52.5 36t76 64.5l-29 -162q-53 -51 -97 -69.5t-85 -18.5q-16 0 -47 9t-66 21q-16 4 -32 10l-27 9q-10 4 -18.5 6t-14.5 2q-10 0 -23.5 -3 t-35 -15.5t-53 -38t-76.5 -68.5z" />
<glyph unicode="&#xe4;" horiz-adv-x="1026" d="M66 287q16 88 66 151.5t125 102.5t172 57t206 18h33q8 0 11 2.5t5 12.5l12 69q33 193 -141 193q-59 0 -116.5 -6t-114.5 -23q-27 2 -46.5 13.5t-13.5 40.5q4 25 23.5 41t42.5 26q47 23 108.5 32t139.5 9q199 0 276.5 -89t48.5 -255l-92 -526q-2 -12 4 -18.5t25 -14.5 q10 -4 18 -8t16 -11q10 -8 16.5 -19t2.5 -28q-8 -33 -37 -45t-59 -12q-121 0 -174 61q-152 -61 -281 -61q-158 0 -228.5 79t-47.5 208zM266 235.5q4 -28.5 21.5 -51t50.5 -36t86 -13.5q80 0 154 21q25 6 26 22l53 309q4 10 2 11.5t-12 1.5q-100 -4 -168.5 -19.5t-112.5 -41 t-67 -63.5t-31 -83q-6 -29 -2 -57.5zM395 1180q8 43 39 64.5t74 21.5t66.5 -21.5t15.5 -64.5t-39 -64.5t-74 -21.5t-66.5 21.5t-15.5 64.5zM612 1180q8 43 39 64.5t74 21.5t66.5 -21.5t15.5 -64.5t-39 -64.5t-74 -21.5t-66.5 21.5t-15.5 64.5z" />
<glyph unicode="&#xe5;" horiz-adv-x="1024" d="M66 287q16 90 66 152.5t126 102.5t172 58t205 18h33q8 0 11 2.5t5 12.5l12 69q33 195 -141 195q-59 0 -115.5 -7t-115.5 -24q-27 2 -45.5 14.5t-14.5 41.5q4 25 24.5 41t43.5 26q90 39 248 39q197 0 274.5 -89t48.5 -255l-92 -526q-2 -20 29 -35q10 -4 18 -8t16 -11 q10 -6 16.5 -18t2.5 -29q-8 -33 -37 -45t-59 -12q-121 0 -174 61q-152 -61 -281 -61q-158 0 -228.5 79t-47.5 208zM266 235.5q4 -28.5 21.5 -50t50.5 -35t86 -13.5q76 0 154 19q25 6 26 22l55 311q2 10 0 11.5t-10 1.5q-100 -4 -169.5 -19.5t-113.5 -42t-67 -64.5t-31 -83 q-6 -29 -2 -57.5zM446 1221q6 31 22.5 59.5t42.5 52t59.5 36.5t70.5 13q66 0 110 -46t31 -115q-12 -68 -69.5 -115t-128.5 -47q-72 0 -111 46t-27 116zM559 1221q-4 -25 8.5 -39.5t34.5 -14.5q23 0 42.5 15.5t23.5 38.5q4 18 -9.5 34.5t-35.5 16.5q-23 0 -41.5 -15.5 t-22.5 -35.5z" />
<glyph unicode="&#xe6;" horiz-adv-x="1552" d="M66 285q14 88 64 150.5t126 101t173 56t206 17.5h33q8 0 10 2t4 13l12 67q33 193 -141 193q-59 0 -115.5 -6.5t-115.5 -22.5q-27 2 -45.5 13.5t-14.5 39.5q4 23 33 42.5t72 33.5t98 22.5t110 8.5q221 0 299 -123q78 61 164 94t166 33q195 0 266.5 -135t30.5 -369 q-10 -53 -67 -53h-557q-23 -152 33.5 -240t172.5 -88q41 0 94.5 11.5t125.5 35.5q27 0 47 -9t16 -40q-4 -27 -45 -51.5t-94 -43t-106.5 -29.5t-82.5 -11q-80 0 -151.5 27.5t-124.5 76.5q-106 -53 -212 -78.5t-192 -25.5q-164 0 -239.5 78t-52.5 209zM265 232.5 q3 -27.5 19.5 -49t48.5 -35t85 -13.5q74 0 164 25q14 4 17 7t5 9l47 273q0 8 1 14t1 12q2 8 2 17q-2 4 -8 4q-100 -2 -168.5 -17.5t-112.5 -42t-68 -64.5t-32 -83q-4 -29 -1 -56.5zM907 589q2 -1 13 -1h389q10 0 12 1t2 11q18 162 -19.5 223.5t-144.5 61.5q-92 0 -150.5 -71 t-101.5 -214q-2 -10 0 -11z" />
<glyph unicode="&#xe7;" horiz-adv-x="931" d="M100 479q18 104 67.5 200.5t125.5 169.5t173 117t212 44q51 0 112.5 -11.5t147.5 -33.5l-31 -174q-6 -29 -24.5 -47.5t-53.5 -18.5q-25 0 -42 21.5t-27 52.5q-4 10 -8 21t-9 22q-12 20 -20 24q-35 16 -82 17q-49 0 -100.5 -29t-96.5 -81t-79.5 -127t-51.5 -167 q-14 -84 -1.5 -150.5t46 -113.5t88 -72.5t125.5 -25.5q39 0 86.5 8t106.5 27q25 0 46 -10.5t15 -41.5q-4 -25 -38.5 -46t-83 -37.5t-100.5 -26.5t-89 -10l-22 -41q8 2 22 2q96 0 144.5 -45.5t31.5 -131.5q-16 -88 -91 -135t-185 -47q-61 0 -111.5 9.5t-95.5 31.5l26 152 q61 -41 98.5 -55.5t67.5 -14.5q59 0 81 15.5t26 43.5q6 35 -31 44.5t-86 9.5h-16q2 0 1 2t3 2l-39 24l63 144q-45 6 -88 24q-135 57 -188.5 178t-24.5 287z" />
<glyph unicode="&#xe8;" horiz-adv-x="978" d="M102.5 310.5q-16.5 95.5 3.5 205.5q18 109 68.5 203t122.5 163.5t162 109.5t192 40q98 0 165 -35.5t102.5 -101.5t42 -160t-14.5 -213q-10 -53 -67 -53h-557q-23 -154 33.5 -243t172.5 -89q41 0 95.5 11.5t126.5 37.5q25 0 46 -10t15 -41q-4 -27 -45 -51.5t-94.5 -44 t-106.5 -30.5t-82 -11q-106 0 -186 40t-129 108.5t-65.5 164zM354 608q-2 -14 11 -14h389q10 0 12 2t4 12q8 80 4 134.5t-22.5 88t-52 49t-83.5 17.5q-98 2 -158.5 -66.5t-103.5 -222.5zM430 1305q6 35 32.5 56t63.5 21q25 0 42.5 -11t41.5 -40l219 -264h-120l-234 156 q-23 14 -36 34.5t-9 47.5z" />
<glyph unicode="&#xe9;" horiz-adv-x="978" d="M102.5 310.5q-16.5 95.5 3.5 205.5q18 109 68.5 203t122.5 163.5t162 109.5t192 40q98 0 165 -35.5t102.5 -101.5t42 -160t-14.5 -213q-10 -53 -67 -53h-557q-23 -154 33.5 -243t172.5 -89q41 0 95.5 11.5t126.5 37.5q25 0 46 -10t15 -41q-4 -27 -45 -51.5t-94.5 -44 t-106.5 -30.5t-82 -11q-106 0 -186 40t-129 108.5t-65.5 164zM354 608q-2 -14 11 -14h389q10 0 12 2t4 12q18 162 -19.5 225.5t-144.5 63.5q-92 0 -151.5 -73t-100.5 -216zM373 1067l315 264q35 29 55.5 40t44.5 11q37 0 56.5 -21.5t13.5 -55.5q-4 -27 -24.5 -47.5 t-49.5 -34.5l-290 -156h-121z" />
<glyph unicode="&#xea;" horiz-adv-x="989" d="M102.5 310.5q-16.5 95.5 3.5 205.5q18 106 68.5 200.5t122.5 165t162 110.5t192 40q98 0 164 -35.5t102.5 -101.5t43 -160t-14.5 -213q-10 -55 -67 -55h-557q-23 -152 33.5 -242t172.5 -90q80 0 222 51q25 0 46 -10t15 -41q-4 -27 -45 -51.5t-94.5 -44t-106.5 -30.5 t-82 -11q-106 0 -186 39t-129 108.5t-65.5 165zM354 596q2 -2 11 -2h389q10 0 12 2t4 12q8 82 4 136.5t-24.5 88t-55.5 48t-88 14.5q-92 0 -151.5 -71.5t-100.5 -215.5q-2 -10 0 -12zM389 1067l246 291h110l144 -291h-96l-129 137l-179 -137h-96z" />
<glyph unicode="&#xeb;" horiz-adv-x="991" d="M102.5 309q-16.5 94 3.5 205q18 106 67.5 200.5t122.5 165t163 110.5t192 40q195 0 265.5 -137t29.5 -373q-10 -53 -67 -53h-557q-23 -154 33.5 -243t172.5 -89q41 0 94.5 11.5t125.5 37.5q27 0 48 -9t15 -40q-4 -27 -45 -51.5t-94.5 -44t-106.5 -30.5t-82 -11 q-106 0 -186 39t-129 108.5t-65.5 163.5zM354 606q-2 -14 11 -14h389q10 0 12 2t4 12q16 162 -21.5 224.5t-142.5 62.5q-92 0 -151.5 -72t-100.5 -215zM457 1180q8 43 38.5 64.5t73.5 21.5t66.5 -21.5t15.5 -64.5t-38.5 -64.5t-73.5 -21.5t-66.5 21.5t-15.5 64.5zM674 1180 q8 43 38.5 64.5t73.5 21.5t67 -21.5t15 -64.5q-8 -43 -38.5 -64.5t-73.5 -21.5t-66.5 21.5t-15.5 64.5z" />
<glyph unicode="&#xec;" horiz-adv-x="634" d="M45 55q6 29 31.5 47.5t58.5 32.5l21 8q10 4 18 11q12 8 12 14l121 686q2 12 -10 12t-25 2q-12 2 -23 3t-22 6q-12 4 -22 14t-6 31q2 18 25.5 34.5t54 28.5t64.5 20.5t58 8.5h78q29 0 45.5 -16.5t10.5 -47.5l-138 -780q-2 -14 11.5 -20.5t27.5 -16.5l21 -12q10 -6 20 -15 q23 -23 19 -51q-4 -29 -25.5 -42t-48.5 -13h-320q-25 0 -43 12t-14 43zM246 1305q6 35 32.5 56t63.5 21q25 0 42 -11t42 -40l219 -264h-121l-233 156q-23 14 -36 34.5t-9 47.5z" />
<glyph unicode="&#xed;" horiz-adv-x="618" d="M25 55q6 29 31.5 47.5t58.5 32.5l20 8q10 4 19 11q12 8 12 14l121 686q2 12 -10.5 12t-24.5 2t-23.5 3t-21.5 6q-12 4 -22.5 14t-6.5 31q2 18 25.5 34.5t54.5 28.5t64.5 20.5t58.5 8.5h78q29 0 45 -16.5t10 -47.5l-137 -780q-2 -14 11 -20.5t28 -16.5l20 -12 q10 -6 21 -15q23 -23 18 -51q-4 -29 -25.5 -42t-48.5 -13h-319q-25 0 -43 12t-14 43zM168 1067l315 264q35 29 55.5 40t45.5 11q37 0 56 -21.5t13 -55.5q-4 -27 -24.5 -47.5t-48.5 -34.5l-291 -156h-121z" />
<glyph unicode="&#xee;" horiz-adv-x="661" d="M37 55q6 29 31.5 47.5t58.5 32.5l20 8q10 4 19 11q12 8 12 14l121 686q2 12 -10.5 12t-24.5 2t-23.5 3t-21.5 6q-12 4 -22.5 14t-6.5 31q2 18 26 34.5t54.5 28.5t64.5 19.5t58 7.5h78q29 0 45 -15.5t10 -46.5l-137 -780q-2 -14 11.5 -20.5t27.5 -16.5l21 -12 q10 -6 20 -15q23 -23 18 -51q-4 -29 -25.5 -42t-47.5 -13h-320q-25 0 -43 12t-14 43zM182 1067l246 291h111l143 -291h-96l-129 137l-178 -137h-97z" />
<glyph unicode="&#xef;" horiz-adv-x="620" d="M25 53q4 29 30.5 47.5t59.5 32.5q10 4 19 9t20 12q12 8 12 14l121 684q2 12 -10.5 12t-26.5 2q-10 2 -22.5 3t-22.5 5t-20.5 13.5t-6.5 30.5q2 18 25.5 34.5t54.5 28.5t64.5 20.5t58.5 8.5h78q29 0 45 -15.5t10 -46.5l-137 -778q-4 -14 10 -21.5t29 -15.5l20 -12 q10 -6 21 -15q10 -10 16 -22t2 -31q-4 -29 -25.5 -41t-48.5 -12h-319q-25 0 -43 12t-14 41zM223 1180q8 43 39 64.5t74 21.5t66.5 -21.5t15.5 -64.5t-39 -64.5t-74 -21.5t-66.5 21.5t-15.5 64.5zM440 1180q8 43 39 64.5t74 21.5q45 0 68.5 -20.5t15.5 -65.5 q-8 -43 -39 -64.5t-76 -21.5q-43 0 -66.5 21.5t-15.5 64.5z" />
<glyph unicode="&#xf0;" horiz-adv-x="1114" d="M95 403.5q1 57.5 9 106.5q18 104 62.5 196.5t112 161t157.5 109.5t199 41q59 0 108.5 -15.5t83.5 -44.5v9q-2 41 -17 86t-50 84q-2 2 -3 4t-3 4l-107 -58h-123l138 115q-25 10 -52.5 15.5t-62.5 5.5q-39 0 -83 -9.5t-91 -9.5q-51 0 -51 53q4 29 37.5 49.5t78.5 33 t90 18.5t74 6q111 0 203 -41l37 29q33 29 52 41t48 10q82 -4 70 -78q-4 -27 -24.5 -46t-49.5 -36l-14 -8q41 -49 65 -105q49 -111 53.5 -255t-26.5 -318q-25 -145 -79 -249.5t-126 -173t-159 -101.5t-179 -33q-180 0 -293 113q-31 31 -50 78t-27.5 101t-7.5 111.5zM314 414 q-1 -39 4.5 -82t21.5 -79t47 -59.5t82 -23.5q129 0 210 85t116 271l8 49q6 37 8 74t-18 53q-39 86 -86.5 122t-98.5 36q-53 0 -98 -25.5t-82 -70.5t-63.5 -107.5t-38.5 -136.5q-2 -8 -6.5 -37.5t-5.5 -68.5z" />
<glyph unicode="&#xf1;" horiz-adv-x="1155" d="M25 53q6 31 34.5 45.5t53.5 24.5q16 6 31.5 10t17.5 17l125 702q2 12 -10.5 12t-24.5 2t-24.5 3t-22.5 5t-20.5 14.5t-6.5 31.5q2 18 25.5 34.5t54.5 28.5t64.5 20.5t58.5 8.5h78q29 0 45 -16.5t10 -47.5l-8 -45q86 57 164 89t153 32q76 0 128.5 -26.5t83 -72.5 t37.5 -109.5t-5 -137.5l-96 -526q-2 -14 12 -18.5t29 -10.5q10 -4 20 -9t21 -12q10 -6 18 -18t4 -31q-4 -29 -27.5 -41t-48.5 -12h-319q-25 0 -43.5 12.5t-13.5 40.5q6 31 34.5 45.5t55.5 24.5q16 6 31.5 10t17.5 17l94 530q6 33 2 65.5t-19.5 59t-41 42t-62.5 15.5 q-45 0 -106.5 -25.5t-147.5 -74.5l-108 -610q-2 -14 11 -18.5t28 -10.5q10 -4 21 -9t22 -12q10 -8 17 -19t3 -30q-4 -29 -25.5 -41t-48.5 -12h-319q-25 0 -43 12t-14 41zM446 1030l31 168q55 51 99.5 68.5t82.5 17.5q16 0 46 -9t63 -20q29 -10 54.5 -18t39.5 -8q12 0 25.5 3 t35 15.5t52.5 36t76 64.5l-29 -162q-53 -51 -97 -69.5t-85 -18.5q-16 0 -47 9t-66 21q-16 4 -32 10l-27 9q-10 4 -18.5 6t-14.5 2q-10 0 -23.5 -3t-35 -15.5t-53.5 -38t-77 -68.5z" />
<glyph unicode="&#xf2;" horiz-adv-x="1103" d="M99.5 290q-15.5 93 2.5 204q31 180 126.5 312t238.5 183q94 35 184 35q102 0 179 -38t125.5 -107.5t63.5 -168t-5 -216.5q-20 -113 -69.5 -206t-121 -161t-162 -104.5t-192.5 -36.5q-104 0 -182 37.5t-125 105.5t-62.5 161zM319 494q-29 -158 13.5 -255.5t163.5 -97.5 q117 0 194.5 91.5t106.5 254.5q35 197 -10.5 293.5t-159.5 96.5q-47 0 -103 -23q-78 -35 -129 -128t-76 -232zM512 1305q6 35 32.5 56t63.5 21q25 0 42.5 -11t41.5 -40l219 -264h-120l-234 156q-23 14 -36 34.5t-9 47.5z" />
<glyph unicode="&#xf3;" horiz-adv-x="1046" d="M98.5 288q-16.5 93 3.5 206q31 180 126.5 312t238.5 183q94 35 184 35q98 0 176 -37t126 -105.5t64.5 -167t-3.5 -220.5q-18 -111 -66.5 -204t-120 -161t-163 -105.5t-195.5 -37.5q-102 0 -180 36.5t-126 104.5t-64.5 161zM308 351.5q3 -64.5 24.5 -111.5t61.5 -73 t102 -26q113 0 192.5 91.5t108.5 254.5q33 182 -8 286t-162 104q-47 0 -103 -23q-78 -35 -129 -128t-76 -232q-14 -78 -11 -142.5zM414 1067l315 264q35 29 55.5 40t44.5 11q37 0 56.5 -21.5t13.5 -55.5q-4 -27 -24.5 -47.5t-49.5 -34.5l-290 -156h-121z" />
<glyph unicode="&#xf4;" horiz-adv-x="1114" d="M98.5 288q-16.5 93 3.5 206q31 180 126.5 311t236.5 184q98 35 186 35q98 0 176 -37t126 -106.5t64.5 -167t-3.5 -219.5q-18 -111 -66.5 -204t-120 -161t-163 -105.5t-195.5 -37.5q-102 0 -180 36.5t-126 104.5t-64.5 161zM308 351.5q3 -64.5 24.5 -111.5t61.5 -73 t102 -26q113 0 192.5 91.5t108.5 252.5q33 184 -8 288t-162 104q-47 0 -103 -23q-78 -35 -129 -128t-76 -232q-14 -78 -11 -142.5zM416 1067l246 291h110l143 -291h-96l-129 137l-178 -137h-96z" />
<glyph unicode="&#xf5;" horiz-adv-x="1110" d="M98.5 288q-16.5 93 3.5 206q31 178 126.5 310t236.5 183q98 35 186 35q98 0 176 -37t126 -105.5t64.5 -166t-3.5 -219.5q-18 -111 -66.5 -204t-120 -161t-163 -105.5t-195.5 -37.5q-102 0 -180 36.5t-126 104.5t-64.5 161zM308 350.5q3 -65.5 24.5 -111.5t61.5 -72 t102 -26q113 0 192.5 91.5t108.5 252.5q33 184 -8 286.5t-162 102.5q-55 0 -103 -22q-78 -35 -129 -128t-76 -230q-14 -78 -11 -143.5zM365 1030l30 168q55 51 99.5 68.5t83.5 17.5q16 0 45.5 -9t62.5 -20q29 -10 54.5 -18t39.5 -8q12 0 25.5 3t35 15.5t52.5 36t76 64.5 l-29 -162q-53 -51 -97 -69.5t-85 -18.5q-16 0 -47 9t-66 21q-37 10 -59 19q-10 4 -18.5 6t-14.5 2q-10 0 -23.5 -3t-35 -15.5t-53 -38t-76.5 -68.5z" />
<glyph unicode="&#xf6;" horiz-adv-x="1046" d="M98.5 288q-16.5 93 3.5 206q31 178 126.5 309t236.5 184q47 16 93 25.5t93 9.5q98 0 176 -37t126 -105.5t64.5 -167t-3.5 -218.5q-18 -111 -66.5 -204t-120 -161t-163 -105.5t-195.5 -37.5q-102 0 -180 36.5t-126 104.5t-64.5 161zM308 350.5q3 -65.5 24.5 -111.5 t61.5 -72t102 -26q113 0 192.5 91.5t108.5 252.5q33 182 -8 285.5t-162 103.5q-51 0 -103 -24q-78 -35 -129 -127t-76 -229q-14 -78 -11 -143.5zM477 1180q8 43 39 64.5t74 21.5t66.5 -21.5t15.5 -64.5t-39 -64.5t-74 -21.5t-66.5 21.5t-15.5 64.5zM694 1180q8 43 39 64.5 t74 21.5t66.5 -21.5t15.5 -64.5t-39 -64.5t-74 -21.5t-66.5 21.5t-15.5 64.5z" />
<glyph unicode="&#xf7;" horiz-adv-x="878" d="M111 545q8 31 31.5 48t58.5 17h655q76 0 64 -67q-6 -35 -33 -52.5t-56 -17.5h-657q-37 0 -54 18.5t-9 53.5zM336 311q10 53 48 79t97 26t88 -25.5t19 -79.5q-10 -53 -47 -79.5t-97 -26.5q-59 0 -88.5 26.5t-19.5 79.5zM356 311q8 43 41 64.5t80 21.5q51 0 74.5 -22.5 t15.5 -63.5q-8 -45 -40.5 -66.5t-80.5 -21.5q-47 0 -72.5 21.5t-17.5 66.5zM387 311q-4 -31 9.5 -45t56.5 -14q41 0 60 14.5t24 44.5q6 29 -8.5 43.5t-55.5 14.5q-43 0 -61.5 -14.5t-24.5 -43.5zM420 780q10 53 47 80t96 27t89 -26.5t20 -80.5q-10 -53 -48 -78.5t-98 -25.5 q-59 0 -87.5 25.5t-18.5 78.5zM440 780q8 45 41 66.5t80 21.5t72.5 -21.5t17.5 -66.5q-8 -43 -40.5 -64.5t-80.5 -21.5q-47 0 -72.5 21.5t-17.5 64.5zM471 780q-6 -29 8.5 -43t55.5 -14q43 0 61 14.5t25 42.5q4 31 -9.5 45.5t-56.5 14.5q-41 0 -60.5 -14.5t-23.5 -45.5z" />
<glyph unicode="&#xf8;" horiz-adv-x="1118" d="M98.5 283.5q-16.5 93.5 3.5 203.5q31 176 125.5 307.5t235.5 182.5q98 35 186 35q98 0 176 -37t126 -104.5t65.5 -165t-2.5 -218.5q-18 -109 -66.5 -200.5t-120 -158.5t-163 -104.5t-195.5 -37.5q-102 0 -180 36.5t-126 102t-64.5 159zM308 338q3 -78 44 -135l324 657 q-18 6 -49 6q-53 0 -105 -24q-78 -35 -129 -127t-74 -228q-14 -71 -11 -149zM440 145q20 -6 56 -6q113 0 192.5 90t108.5 250q16 90 14 162t-25 121q-4 10 -9 18t-9 17z" />
<glyph unicode="&#xf9;" horiz-adv-x="1142" d="M178 922q2 16 25.5 32.5t55.5 29.5t70 21.5t70 8.5h60q29 0 45 -16.5t10 -47.5l-104 -598q-14 -76 20.5 -134t112.5 -58q43 0 101 20.5t136 67.5l107 606q2 12 -10.5 11t-24.5 -1q-12 2 -24.5 3t-22.5 5q-12 6 -21.5 17.5t-5.5 32.5q4 31 73 61.5t208 30.5q31 0 45 -17.5 t8 -46.5l-141 -800q-2 -12 11 -12.5t26 -2.5q10 -2 22 -3t23 -5q10 -4 21 -13.5t7 -29.5q-4 -18 -28.5 -35.5t-57 -31t-65.5 -20.5t-51 -7l-70 2q-35 2 -51.5 19.5t-9.5 51.5l8 43q-164 -109 -301 -108q-78 0 -133.5 25.5t-87 72.5t-41 112.5t5.5 143.5l88 502 q2 12 -10.5 11t-24.5 -1q-12 2 -24.5 3t-22.5 5q-12 6 -21.5 18t-5.5 32zM532 1305q6 35 33 56t64 21q25 0 42 -11t42 -40l219 -264h-121l-233 156q-23 14 -36.5 34.5t-9.5 47.5z" />
<glyph unicode="&#xfa;" horiz-adv-x="1140" d="M178 922q2 16 25.5 32.5t55.5 29.5t70 21.5t70 8.5h60q29 0 45 -16.5t10 -47.5l-104 -598q-14 -76 20.5 -134t112.5 -58q43 0 101 20.5t136 67.5l107 606q2 12 -10.5 11t-24.5 -1q-12 2 -24.5 3t-22.5 5q-12 6 -21.5 17.5t-5.5 32.5q4 31 73 61.5t208 30.5q31 0 45 -17.5 t8 -46.5l-141 -800q-2 -12 11 -12.5t26 -2.5q10 -2 22 -3t23 -5q10 -4 21 -13.5t7 -29.5q-4 -18 -28.5 -35.5t-57 -31t-65.5 -20.5t-51 -7l-70 2q-35 2 -51.5 19.5t-9.5 51.5l8 43q-164 -109 -301 -108q-78 0 -133.5 25.5t-87 72.5t-41 112.5t5.5 143.5l88 502 q2 12 -10.5 11t-24.5 -1q-12 2 -24.5 3t-22.5 5q-12 6 -21.5 18t-5.5 32zM475 1067l316 264q35 29 55 40t45 11q37 0 56.5 -21.5t13.5 -55.5q-4 -27 -25 -47.5t-49 -34.5l-291 -156h-121z" />
<glyph unicode="&#xfb;" horiz-adv-x="1142" d="M178 920q2 18 25.5 34.5t55.5 28.5t70 20.5t70 8.5h60q29 0 45 -15.5t10 -46.5l-104 -598q-14 -76 20.5 -134t112.5 -58q43 0 101 20.5t136 67.5l107 606q2 12 -10.5 10t-24.5 0t-24.5 3t-22.5 5q-12 4 -21.5 16.5t-5.5 31.5q4 33 73 62.5t208 29.5q66 0 53 -62 l-141 -800q-2 -12 11 -12.5t26 -2.5q10 -2 22 -3t23 -5q10 -4 21 -13.5t7 -29.5q-4 -18 -28.5 -35.5t-57 -31t-65.5 -20.5t-51 -7l-70 2q-35 2 -51.5 19.5t-9.5 51.5l8 43q-164 -109 -301 -108q-78 0 -133.5 25.5t-87 72.5t-41 112.5t5.5 143.5l88 502q2 12 -10.5 10 t-24.5 0t-24.5 3t-22.5 5q-12 4 -21.5 17t-5.5 31zM467 1067l246 291h110l144 -291h-97l-129 137l-178 -137h-96z" />
<glyph unicode="&#xfc;" horiz-adv-x="1142" d="M178 918q2 18 25.5 34.5t55.5 28.5t70 20.5t70 8.5h60q29 0 45 -15.5t10 -46.5l-104 -598q-14 -74 20.5 -132t112.5 -58q43 0 101 20.5t136 67.5l107 604q2 12 -10.5 10t-24.5 0t-24.5 3t-22.5 5q-14 4 -22.5 16.5t-4.5 31.5q4 33 73 62.5t208 29.5q63 0 53 -62 l-141 -801q-2 -10 11 -10t26 -2q10 -2 22 -3t23 -5q10 -4 21 -13.5t7 -29.5q-4 -18 -28.5 -35.5t-57 -31t-65.5 -20.5t-51 -7l-70 2q-35 2 -51.5 19.5t-9.5 51.5l8 43q-164 -109 -301 -108q-78 0 -133.5 25.5t-87 72.5t-41 111.5t5.5 142.5l88 502q2 12 -10.5 10t-24.5 0 t-24.5 3t-22.5 5q-14 4 -22.5 17t-4.5 31zM518 1180q8 43 39 64.5t74 21.5t66.5 -21.5t15.5 -64.5t-39 -64.5t-74 -21.5t-66.5 21.5t-15.5 64.5zM735 1180q8 43 39 64.5t74 21.5t66.5 -21.5t15.5 -64.5t-39 -64.5t-74 -21.5t-66.5 21.5t-15.5 64.5z" />
<glyph unicode="&#xfd;" horiz-adv-x="1134" d="M14 -262q4 29 24.5 42t47.5 13q25 0 40 -8t34 -21q12 -8 28.5 -14t44.5 -6q29 0 57.5 17.5t53.5 64.5l107 199l-146 821q-2 14 -13 24.5t-25.5 17.5t-30 13t-27.5 12q-10 4 -19.5 15.5t-5.5 29.5q8 29 30 40.5t46 11.5h330q25 0 42 -12.5t13 -41.5q-4 -16 -16.5 -25 t-20.5 -13q-10 -4 -21.5 -9.5t-21.5 -9.5q-12 -4 -24.5 -6t-16.5 -8v-11l94 -532l283 539h-2q2 10 -10 13t-23 7q-23 6 -39 17q-27 14 -22 38q4 29 26.5 41.5t47.5 12.5l272 2q27 0 43 -13.5t12 -42.5q-2 -20 -39 -41q-29 -14 -67.5 -27.5t-52.5 -41.5l-572 -1065 q-53 -98 -118.5 -139t-137.5 -43q-29 0 -66.5 9t-70.5 26.5t-53.5 43t-14.5 60.5zM516 1063l315 268q35 29 55.5 40t45.5 11q37 0 56.5 -21.5t12.5 -55.5q-4 -27 -24.5 -47.5t-48.5 -36.5l-291 -158h-121z" />
<glyph unicode="&#xfe;" horiz-adv-x="1146" d="M-47 -354q4 20 17.5 30.5t27.5 14.5q10 4 22.5 5t24.5 3q14 2 25.5 2t15.5 12l281 1587q4 12 -9.5 11.5t-25.5 1.5q-29 4 -45 8q-12 4 -22.5 15.5t-6.5 31.5q2 18 26.5 34.5t56.5 29t64.5 20.5t55.5 8h59q33 0 57.5 -13t18.5 -50l-76 -424h2q51 25 102.5 36t104.5 11 q96 0 169 -39t119 -104.5t61.5 -153.5t-1.5 -186q-18 -104 -66 -204t-125 -176.5t-179.5 -123.5t-227.5 -47q-35 0 -65.5 4t-65.5 14l-69 -387q-6 -37 -35 -50t-62 -13h-59q-23 0 -52.5 8t-57 20t-46 29t-14.5 35zM379 176q-4 -18 11.5 -27.5t37 -11.5t45 -1t35.5 1 q57 0 113.5 23.5t105.5 73t86 124t55 177.5q29 158 -22 242.5t-168 84.5q-16 0 -46 -1t-60.5 -6t-54 -16.5t-28.5 -31.5z" />
<glyph unicode="&#xff;" horiz-adv-x="1134" d="M14 -264q4 29 24.5 43t47.5 14q25 0 40 -8t34 -21q12 -8 28.5 -14t44.5 -6q29 0 57.5 17.5t53.5 64.5l107 197l-146 821q-6 29 -40 41t-58 26q-8 4 -17.5 14.5t-5.5 30.5q8 29 30 40.5t46 11.5h330q25 0 42 -12.5t13 -41.5q-4 -16 -16.5 -26t-22.5 -15q-8 -4 -19.5 -8 t-23.5 -8t-23.5 -6t-15.5 -8v-11l94 -532l283 539l-2 -2q2 10 -10 13t-25 7q-16 8 -37 16q-29 18 -22 41q4 29 25.5 41.5t48.5 12.5l272 2q27 0 43 -13.5t12 -42.5q-8 -27 -39 -41q-29 -14 -67.5 -27.5t-55.5 -41.5l-569 -1063q-53 -98 -118.5 -139t-137.5 -43 q-29 0 -66.5 9t-70.5 26.5t-53.5 43t-14.5 58.5zM559 1180q8 43 39 64.5t74 21.5t66.5 -21.5t15.5 -64.5q-8 -45 -39 -65.5t-74 -20.5t-66.5 20.5t-15.5 65.5zM776 1180q8 43 39 64.5t74 21.5t66.5 -21.5t15.5 -64.5q-8 -45 -39 -65.5t-74 -20.5t-66.5 20.5t-15.5 65.5z" />
<glyph unicode="&#x152;" horiz-adv-x="1925" d="M135 680q59 336 230.5 512t453.5 176h27q96 0 174 -25q10 10 24.5 13.5t28.5 3.5h899q66 0 56 -64l-23 -135q-4 -25 -21.5 -43t-46.5 -18q-27 0 -40 21.5t-19 49.5q-4 16 -5 29.5t-11 13.5h-535q-14 0 -16 -12l-76 -426q-2 -8 1 -11t15 -3h232q12 0 18 14.5t15 28.5 q14 23 33.5 48.5t52.5 25.5q31 0 40 -20.5t5 -43.5l-43 -246q-4 -27 -20.5 -47t-49.5 -20q-31 0 -42 25.5t-15 47.5q-4 14 -6.5 28.5t-14.5 14.5h-231q-10 0 -13.5 -3t-7.5 -17l-78 -442q-2 -10 9 -11h532q14 0 21.5 13.5t17.5 29.5q12 20 31 43q8 10 21.5 19.5t31.5 9.5 q29 0 39 -18.5t6 -42.5l-25 -133q-10 -66 -79 -66h-893q-33 0 -50 16q-90 -25 -186 -24h-27q-281 0 -390 176t-50 512zM333 450.5q9 -98.5 46 -166t97.5 -104.5t139.5 -43q102 8 191 66q39 25 75 58.5t66 80.5l121 674q-31 94 -94 141q-70 57 -168 66q-164 -14 -289 -147.5 t-172 -395.5q-22 -131 -13 -229.5z" />
<glyph unicode="&#x153;" horiz-adv-x="1693" d="M98.5 283.5q-16.5 93.5 3.5 203.5q20 117 70.5 214.5t122.5 166t162 106.5t192 38t186.5 -42t131.5 -120q80 80 180 125t199 45q195 0 266 -135t30 -369q-10 -55 -67 -55h-559q-20 -150 36 -239t173 -89q41 0 94 11.5t125 37.5q27 0 47 -9t16 -40q-4 -27 -46 -51.5 t-95 -43t-106.5 -29.5t-79.5 -11q-98 0 -185.5 41t-140.5 115q-76 -86 -179.5 -127t-205.5 -41t-180 36.5t-126 102t-64.5 159zM319 487q-29 -154 12.5 -251t164.5 -97q109 0 189.5 87t109.5 241l10 59q29 170 -18.5 255t-159.5 85q-29 0 -53.5 -6t-51.5 -16 q-78 -35 -129 -127.5t-74 -229.5zM1049 600q-2 -14 12 -14h389q14 0 14 14q18 162 -19.5 223.5t-144.5 61.5q-92 0 -150 -71t-101 -214z" />
<glyph unicode="&#x178;" horiz-adv-x="1122" d="M51 1315q4 29 27.5 41t48.5 12h338q25 0 43 -12.5t14 -40.5q-4 -23 -22.5 -34t-38.5 -19l-12 -5q-6 -2 -17 -4l-26 -10q2 -2 2 -4l165 -422l306 420l-23 6q-31 8 -50.5 26.5t-14.5 45.5q4 29 27.5 41t47.5 12h279q25 0 43 -12.5t14 -40.5q-4 -27 -29.5 -43.5t-60.5 -28.5 q-12 -4 -24.5 -7t-24.5 -9q-16 -8 -27 -19l-391 -542q-16 -20 -21.5 -32.5t-5.5 -19.5l-81 -462q-4 -12 10 -17.5t28 -9.5q10 -4 21.5 -9t21.5 -14q10 -6 18.5 -18t4.5 -29q-6 -31 -28.5 -43t-49.5 -12h-319q-27 0 -43.5 13.5t-10.5 41.5q4 23 22.5 36t39.5 24l12 4l12 4 q16 6 31 10t19 17l82 464q4 20 -9 54l-221 540q-6 12 -28.5 21.5t-34.5 13.5q-29 12 -48.5 29.5t-15.5 42.5zM494 1556q8 43 38.5 64.5t73.5 21.5t66.5 -21.5t15.5 -64.5q-8 -45 -39 -65.5t-74 -20.5t-66 20.5t-15 65.5zM711 1556q8 43 38.5 64.5t73.5 21.5t66.5 -21.5 t15.5 -64.5q-8 -45 -38.5 -65.5t-73.5 -20.5t-66.5 20.5t-15.5 65.5z" />
<glyph unicode="&#x2c6;" horiz-adv-x="643" d="M188 1108l240 250h111l149 -250h-94l-133 119l-176 -119h-97z" />
<glyph unicode="&#x2dc;" horiz-adv-x="751" d="M207 1083l22 136q53 41 97.5 56t83.5 15q16 0 45.5 -7t64.5 -17q29 -10 54.5 -16.5t39.5 -6.5q12 0 25.5 3t35 13.5t52.5 29t74 50.5l-23 -131q-53 -43 -97 -58t-85 -15q-16 0 -46 7t-65 17q-29 10 -54 16.5t-40 6.5q-23 0 -60.5 -16.5t-123.5 -82.5z" />
<glyph unicode="&#x2000;" horiz-adv-x="858" />
<glyph unicode="&#x2001;" horiz-adv-x="1716" />
<glyph unicode="&#x2002;" horiz-adv-x="858" />
<glyph unicode="&#x2003;" horiz-adv-x="1716" />
<glyph unicode="&#x2004;" horiz-adv-x="571" />
<glyph unicode="&#x2005;" horiz-adv-x="428" />
<glyph unicode="&#x2006;" horiz-adv-x="284" />
<glyph unicode="&#x2007;" horiz-adv-x="284" />
<glyph unicode="&#x2008;" horiz-adv-x="212" />
<glyph unicode="&#x2009;" horiz-adv-x="342" />
<glyph unicode="&#x200a;" horiz-adv-x="94" />
<glyph unicode="&#x2010;" horiz-adv-x="866" d="M109 535q8 29 31.5 45t56.5 16h487q76 0 66 -64q-12 -63 -88 -63h-488q-31 0 -52 15.5t-13 50.5z" />
<glyph unicode="&#x2011;" horiz-adv-x="866" d="M109 535q8 29 31.5 45t56.5 16h487q76 0 66 -64q-12 -63 -88 -63h-488q-31 0 -52 15.5t-13 50.5z" />
<glyph unicode="&#x2012;" horiz-adv-x="866" d="M109 535q8 29 31.5 45t56.5 16h487q76 0 66 -64q-12 -63 -88 -63h-488q-31 0 -52 15.5t-13 50.5z" />
<glyph unicode="&#x2013;" horiz-adv-x="1179" d="M111 543q6 23 31.5 41t56.5 18h798q31 0 50.5 -18.5t15.5 -40.5q-4 -23 -34 -42.5t-54 -19.5h-801q-33 0 -51 19.5t-12 42.5z" />
<glyph unicode="&#x2014;" horiz-adv-x="1720" d="M111 543q6 23 31.5 41t56.5 18h1339q31 0 50.5 -18.5t15.5 -40.5q-4 -23 -34 -42.5t-54 -19.5h-1342q-33 0 -51 19.5t-12 42.5z" />
<glyph unicode="&#x2018;" horiz-adv-x="456" d="M240 1268l4 30q4 23 17 50.5t34.5 51t52.5 40t74 16.5q29 0 50.5 -10t16.5 -39q-6 -27 -45 -41l-26 -6l-4 -2q90 -12 73 -94q-8 -45 -46 -66.5t-93 -21.5t-85.5 24.5t-22.5 67.5z" />
<glyph unicode="&#x2019;" horiz-adv-x="346" d="M119 1227q6 33 43 39q8 6 16 6t12 2q-41 6 -60 28.5t-11 61.5q8 47 45 69.5t94 22.5q59 0 89 -22.5t22 -69.5l-7 -31q-4 -23 -16 -50.5t-33.5 -51t-53.5 -38.5t-75 -15q-27 0 -48 10t-17 39z" />
<glyph unicode="&#x201a;" horiz-adv-x="468" d="M29 -68q4 20 19 30.5t38 17.5h8l4 2q-39 6 -58.5 28.5t-10.5 61.5q8 47 45 69.5t94 22.5q59 0 89 -22.5t22 -69.5l-7 -31q-4 -25 -16 -52.5t-33.5 -51t-53.5 -39t-75 -15.5q-29 0 -50 10t-15 39z" />
<glyph unicode="&#x201c;" horiz-adv-x="677" d="M240 1268l4 30q4 23 17 50.5t34.5 51t52.5 40t74 16.5q29 0 50.5 -10t16.5 -39q-6 -27 -45 -41l-26 -6l-4 -2q90 -12 73 -94q-8 -45 -46 -66.5t-93 -21.5t-85.5 24.5t-22.5 67.5zM457 1268l4 30q4 25 17.5 52.5t35 51t53 39t74.5 15.5q27 0 45.5 -10t22.5 -37 q-6 -29 -45 -43l-27 -6l-4 -2q88 -12 76 -90q-10 -47 -47 -69.5t-97 -22.5q-55 0 -85.5 24.5t-22.5 67.5z" />
<glyph unicode="&#x201d;" horiz-adv-x="546" d="M119 1227q6 33 43 39q8 6 16 6t12 2q-41 6 -60 28.5t-11 61.5q8 47 45 69.5t94 22.5q59 0 89 -22.5t22 -69.5l-7 -31q-4 -23 -16 -50.5t-33.5 -51t-53.5 -38.5t-75 -15q-27 0 -48 10t-17 39zM334 1227q6 33 43 39q8 6 16 6t13 2q-41 6 -60.5 28.5t-11.5 61.5 q8 47 45 69.5t94 22.5q59 0 89 -22.5t22 -69.5l-6 -31q-4 -23 -16.5 -50.5t-34 -51t-53.5 -38.5t-75 -15q-27 0 -48 10t-17 39z" />
<glyph unicode="&#x201e;" horiz-adv-x="761" d="M27 68q10 47 47 69.5t94 22.5q59 0 89 -22.5t19 -69.5l-4 -31q-4 -23 -17 -50.5t-34.5 -51t-52.5 -39t-74 -15.5q-29 0 -50 10.5t-15 38.5q2 33 41 39q12 6 18 6q8 0 12 2q-41 6 -60 29t-13 62zM324 68q10 47 47 69.5t94 22.5q59 0 89 -22.5t19 -69.5l-4 -31 q-4 -23 -17 -50.5t-34.5 -51t-52.5 -39t-74 -15.5q-29 0 -50.5 10.5t-14.5 38.5q2 33 41 39q12 6 18 6q8 0 12 2q-41 6 -60 29t-13 62z" />
<glyph unicode="&#x2022;" horiz-adv-x="841" d="M141 719q10 61 46 114.5t86.5 93.5t114 63.5t128.5 23.5q66 0 120 -23.5t91 -63.5t52.5 -94.5t4.5 -113.5q-10 -59 -44.5 -113.5t-86 -95.5t-114 -64.5t-129.5 -23.5q-68 0 -122.5 23.5t-90 64.5t-51 94.5t-5.5 114.5z" />
<glyph unicode="&#x2026;" horiz-adv-x="1261" d="M29 80q8 41 46 60.5t95 19.5q53 0 86 -20.5t25 -59.5q-6 -41 -44 -60.5t-96 -19.5q-57 0 -87.5 19.5t-24.5 60.5zM428 80q6 43 47 61.5t94 18.5t86 -20.5t25 -59.5q-6 -41 -44 -60.5t-95 -19.5q-55 0 -86 19.5t-27 60.5zM829 80q8 41 46 60.5t96 19.5q53 0 86 -20.5 t24 -59.5q-6 -41 -44 -60.5t-95 -19.5t-88 19.5t-25 60.5z" />
<glyph unicode="&#x202f;" horiz-adv-x="342" />
<glyph unicode="&#x2039;" horiz-adv-x="688" d="M104 504l5 12l6 16l403 367q14 14 29.5 18.5t30.5 4.5h75q14 0 26.5 -8.5t8.5 -24.5q-2 -10 -7 -17.5t-9 -11.5l-336 -350l-2 -8v-4l211 -353q6 -16 4 -30q-2 -16 -15.5 -24.5t-27.5 -8.5h-76q-31 0 -59 22l-260 369q-11 15 -7 31z" />
<glyph unicode="&#x203a;" horiz-adv-x="649" d="M37 115q2 16 20 35l336 354h-2v4l-217 356l-4 17q4 25 20.5 33t28.5 8h76q18 -2 29.5 -7.5t21.5 -13.5l275 -371q0 -6 1 -9t1 -5v-12q-4 -18 -19 -31l-389 -369q-35 -23 -70 -22h-73q-14 0 -26.5 8.5t-8.5 24.5z" />
<glyph unicode="&#x205f;" horiz-adv-x="428" />
<glyph unicode="&#x20ac;" horiz-adv-x="1142" d="M-6 575q8 29 31.5 45.5t56.5 16.5h678q76 0 65 -64q-12 -63 -88 -63h-678q-33 0 -53 15t-12 50zM31 780q6 29 29.5 45.5t56.5 16.5h678q78 0 65 -64q-10 -63 -86 -63h-678q-33 0 -54 15t-11 50zM135 680q121 690 733 690q92 0 176 -20.5t168 -67.5l-32 -188 q-8 -43 -27.5 -62.5t-42.5 -19.5q-31 0 -44 23.5t-17 51.5l-11 54q-18 41 -61 62.5t-117 21.5q-86 0 -168 -34t-149.5 -101.5t-117.5 -170t-75 -239.5t-10.5 -239.5t59.5 -170t115 -101.5t156 -34q143 0 204 84l31 53q14 29 35 52.5t53 23.5q23 0 35 -19.5t4 -62.5l-33 -190 q-104 -45 -195 -65.5t-179 -20.5q-309 0 -429 173t-61 517z" />
<glyph unicode="&#x2122;" horiz-adv-x="1468" d="M100 1243l13 74q4 23 21.5 33t35.5 10h492q45 0 38 -43l-10 -72q-4 -16 -16 -31.5t-37 -15.5q-14 0 -21.5 7t-11.5 14q-4 6 -5 13t-3 13q-2 4 1 9.5t-1 5.5h-123l-98 -555q0 -2 14 -3q29 -10 37 -23t6 -26q-4 -23 -21.5 -31t-33.5 -8h-174q-16 0 -30.5 8.5t-10.5 30.5 q4 16 16 25.5t27 15.5q4 2 6 2t6 2q6 4 12.5 3t6.5 4l98 555h-133q-4 0 -4 -5.5t-4 -11.5q-12 -18 -27.5 -31.5t-32.5 -13.5q-23 0 -30 15.5t-3 29.5zM557 653q4 14 12.5 22.5t16.5 12.5q6 4 13 6t15 6q4 2 10.5 1t6.5 4l100 565q2 4 -5 3t-11 1q-6 4 -12.5 6t-12.5 6 t-12 12.5t-4 22.5q4 23 21.5 31t33.5 8h139q25 0 36 -15.5t16 -33.5l100 -447l276 449q10 18 27.5 32.5t40.5 14.5h111q18 0 30.5 -9.5t7.5 -29.5q-4 -23 -22 -34t-37 -15q-14 0 -14 -2l-101 -565q0 -4 6.5 -3.5t10.5 -1.5l24 -12q6 -4 13.5 -12t3.5 -23q-4 -23 -22.5 -31 t-35.5 -8h-170q-16 0 -31.5 8.5t-11.5 30.5q4 14 12.5 22.5t16.5 12.5q6 4 13.5 6t15.5 6q4 2 10 1t6 4l68 385l-234 -385q-10 -18 -27.5 -34t-39.5 -16q-25 0 -37 15.5t-17 34.5l-94 401l-71 -401q0 -4 6 -3.5t10 -1.5l24 -12q6 -4 13.5 -12t3.5 -23q-4 -23 -21.5 -31 t-33.5 -8h-152q-16 0 -30.5 8t-10.5 31z" />
<glyph unicode="&#xe000;" horiz-adv-x="1000" d="M0 1000h1000v-1000h-1000v1000z" />
<glyph unicode="&#xfb01;" horiz-adv-x="1085" d="M25 55q4 16 15 28.5t23 18.5q20 10 52 21q16 4 30.5 8t16.5 19l125 706q2 10 -13 10h-38q-35 0 -47.5 21.5t-8.5 52.5q6 31 25.5 51.5t54.5 20.5h55q35 184 151 266t314 82q100 0 159.5 -16.5t92.5 -39t43 -45t10 -36.5q4 -10 4.5 -21.5t-2.5 -21.5q-10 -51 -44.5 -76 t-88.5 -25q-53 0 -80.5 25.5t-17.5 77.5q4 12 7 23.5t9 21.5q-33 8 -77 8q-113 0 -179.5 -46t-89.5 -177h465q29 0 45.5 -15.5t10.5 -46.5l-138 -780q-2 -14 11.5 -20.5t27.5 -16.5l21 -12q10 -6 20 -15q23 -23 19 -51q-4 -29 -25.5 -42t-48.5 -13h-320q-25 0 -43 12.5 t-14 42.5q6 29 31.5 47.5t58.5 32.5l21 8q10 4 18 11q12 8 12 14l121 686q2 10 -7 11t-24 1h-288l-127 -716q-2 -14 11 -18.5t28 -8.5q10 -4 21 -9t22 -12q10 -6 17 -18t3 -29q-4 -29 -25.5 -42t-48.5 -13h-319q-25 0 -43 12t-14 43z" />
<glyph unicode="&#xfb02;" horiz-adv-x="1120" d="M25 57q4 23 23.5 36t41.5 24l12 4l13 4q16 6 30.5 10t18.5 19l125 706q0 10 -15 10h-38q-35 0 -47.5 21.5t-6.5 52.5q4 31 24.5 52.5t55.5 21.5h53q23 125 71 210t131 137t207 74.5t296 22.5h80q33 0 45 -17.5t8 -45.5l-219 -1247q-4 -12 10 -16.5t29 -10.5 q23 -10 46 -24.5t17 -43.5q-4 -29 -25.5 -42t-47.5 -13h-322q-25 0 -42 12.5t-13 40.5q6 29 33.5 44.5t54.5 25.5q16 6 30.5 11t18.5 18l203 1149q2 10 -5.5 19t-23.5 9q-12 0 -19.5 2t-15.5 -4h-16q-80 0 -134.5 -19.5t-91 -58.5t-58 -97t-36.5 -136h95q33 0 45 -21.5 t8 -52.5q-6 -29 -24.5 -51.5t-53.5 -22.5h-96l-125 -718q-4 -12 10 -16.5t29 -10.5q10 -4 20 -9t21 -12q10 -8 17 -19t3 -28q-4 -29 -25.5 -42t-48.5 -13h-319q-25 0 -43 12t-14 43z" />
<glyph unicode="&#xfb03;" horiz-adv-x="2125" d="M1617 101q26 19 59 34q23 8 39 19q12 8 12 14l121 684q2 12 -10.5 12t-26.5 2q-10 2 -22.5 3t-22.5 5t-20.5 14.5t-6.5 31.5q2 18 25.5 34.5t54.5 28.5t64.5 19.5t58.5 7.5h78q29 0 45 -15.5t10 -46.5l-137 -778q-4 -14 10 -21.5t29 -15.5l20 -12q10 -6 21 -15 q10 -10 16 -22t2 -31q-4 -29 -25.5 -41t-48.5 -12h-319q-25 0 -43 12q-15 10 -15 31q0 33 32 58zM1885 1178q8 53 43.5 77.5t89.5 24.5q53 0 81 -26q20 -19 20 -51q0 -12 -3 -25q-10 -51 -45 -76t-88 -25t-80 26q-20 20 -20 53q0 10 2 22zM805 55q4 16 15 28.5t23 18.5 q20 10 52 21q16 4 30.5 8t16.5 19l125 706q2 10 -13 10h-38q-35 0 -47.5 21.5t-8.5 52.5q6 31 25.5 51.5t54.5 20.5h55q35 184 151 266t314 82q57 0 57 -48q0 -7 -1 -16q-4 -31 -27 -47t-51 -16q-98 0 -153.5 -47t-78.5 -174h92q35 0 47.5 -20.5t6.5 -51.5 q-4 -31 -22.5 -52.5t-53.5 -21.5h-96l-127 -716q-2 -14 11 -18.5t28 -8.5q10 -4 21 -9t22 -12q10 -6 17 -18t3 -29q-4 -29 -25.5 -42t-48.5 -13h-319q-25 0 -43 12q-15 10 -15 33q0 4 1 10zM25 55q4 16 15 28.5t23 18.5q20 10 52 21q16 4 30.5 8t16.5 19l125 706 q2 10 -13 10h-38q-35 0 -47.5 21.5t-8.5 52.5q6 31 25.5 51.5t54.5 20.5h55q35 184 151 266t314 82q57 0 57 -48q0 -7 -1 -16q-4 -31 -27 -47t-51 -16q-98 0 -153.5 -47t-78.5 -174h92q35 0 47.5 -20.5t6.5 -51.5q-4 -31 -22.5 -52.5t-53.5 -21.5h-96l-127 -716 q-2 -14 11 -18.5t28 -8.5q10 -4 21 -9t22 -12q10 -6 17 -18t3 -29q-4 -29 -25.5 -42t-48.5 -13h-319q-25 0 -43 12q-15 10 -15 33q0 4 1 10z" />
<glyph unicode="&#xfb04;" horiz-adv-x="2121" d="M1586 55q4 16 15 28.5t23 18.5q20 10 52 21q16 6 30.5 9t16.5 18l205 1150q2 12 -11.5 11.5t-25.5 1.5t-23.5 4t-21.5 6q-12 4 -22.5 14.5t-6.5 30.5q2 18 26.5 34.5t56.5 29t64.5 20.5t55.5 8h80q57 0 56 -47q0 -7 -1 -16l-221 -1247q-2 -14 11 -18.5t28 -8.5 q10 -4 21 -9t22 -12q10 -6 17 -18t3 -29q-4 -29 -25.5 -42t-48.5 -13h-319q-25 0 -43 12q-15 10 -15 33q0 4 1 10zM805 55q4 16 15 28.5t23 18.5q20 10 52 21q16 4 30.5 8t16.5 19l125 706q2 10 -13 10h-38q-35 0 -47.5 21.5t-8.5 52.5q6 31 25.5 51.5t54.5 20.5h55 q35 184 151 266t314 82q57 0 57 -48q0 -7 -1 -16q-4 -31 -27 -47t-51 -16q-98 0 -153.5 -47t-78.5 -174h92q35 0 47.5 -20.5t6.5 -51.5q-4 -31 -22.5 -52.5t-53.5 -21.5h-96l-127 -716q-2 -14 11 -18.5t28 -8.5q10 -4 21 -9t22 -12q10 -6 17 -18t3 -29q-4 -29 -25.5 -42 t-48.5 -13h-319q-25 0 -43 12q-15 10 -15 33q0 4 1 10zM25 55q4 16 15 28.5t23 18.5q20 10 52 21q16 4 30.5 8t16.5 19l125 706q2 10 -13 10h-38q-35 0 -47.5 21.5t-8.5 52.5q6 31 25.5 51.5t54.5 20.5h55q35 184 151 266t314 82q57 0 57 -48q0 -7 -1 -16q-4 -31 -27 -47 t-51 -16q-98 0 -153.5 -47t-78.5 -174h92q35 0 47.5 -20.5t6.5 -51.5q-4 -31 -22.5 -52.5t-53.5 -21.5h-96l-127 -716q-2 -14 11 -18.5t28 -8.5q10 -4 21 -9t22 -12q10 -6 17 -18t3 -29q-4 -29 -25.5 -42t-48.5 -13h-319q-25 0 -43 12q-15 10 -15 33q0 4 1 10z" />
</font>
</defs>
</svg>
