<?xml version="1.0" standalone="no"?>
<!DOCTYPE svg PUBLIC "-//W3C//DTD SVG 1.1//EN" "http://www.w3.org/Graphics/SVG/1.1/DTD/svg11.dtd" >
<svg xmlns="http://www.w3.org/2000/svg">
<metadata>
This is a custom SVG webfont generated by Font Squirrel.
Copyright   : Copyright c 20092010 Ed Merritt ededmerrittcomThis Font Software is licensed under the SIL Open Font License Version 11This license is available with a FAQ at httpscriptssilorgOFL
Designer    : Ed Merritt 
Foundry     : Ten by Twenty
Foundry URL : httpwwwtenbytwentycom
</metadata>
<defs>
<font id="JuraBold" horiz-adv-x="1417" >
<font-face units-per-em="2048" ascent="1602" descent="-446" />
<missing-glyph horiz-adv-x="573" />
<glyph unicode=" "  horiz-adv-x="573" />
<glyph unicode="&#x09;" horiz-adv-x="573" />
<glyph unicode="&#xa0;" horiz-adv-x="573" />
<glyph unicode="!" horiz-adv-x="438" d="M16 102q0 51 31 76t84 25t85 -26.5t32 -74.5q0 -51 -32 -76.5t-85 -25.5t-84 25.5t-31 76.5zM16 1257q-4 51 28 77t87 26q53 0 86 -24.5t29 -78.5l-41 -962q0 -33 -20.5 -48.5t-53.5 -15.5q-31 0 -52.5 15.5t-21.5 48.5z" />
<glyph unicode="&#x22;" horiz-adv-x="669" d="M16 1378q0 102 113 103q37 0 60.5 -10.5t37 -25.5t17.5 -32.5t2 -34.5q-4 -47 -13.5 -93t-23.5 -85t-33.5 -62.5t-40.5 -23.5q-18 0 -37.5 23.5t-35 62.5t-28 85t-18.5 93zM231 1378q0 102 113 103q37 0 60.5 -10.5t37 -25.5t17.5 -32.5t2 -34.5q-4 -47 -13.5 -93 t-23.5 -85t-33.5 -62.5t-40.5 -23.5q-18 0 -37.5 23.5t-35 62.5t-28 85t-18.5 93z" />
<glyph unicode="#" horiz-adv-x="1298" d="M16 475q0 14 2 21l11 55q16 59 75 59h222l22 142h-235q-23 0 -40.5 11t-17.5 38q0 14 2 20l11 58q18 57 75 57h236l61 367q4 29 24.5 43t49.5 14h41q20 0 38.5 -10.5t18.5 -36.5q0 -12 -4 -21l-55 -356h186l62 367q4 29 24.5 43t48.5 14h41q20 0 39 -10.5t19 -36.5 q0 -12 -4 -21l-58 -356h232q23 0 41 -11.5t18 -39.5q0 -4 -1 -6t-1 -7q-2 -4 -3 -14t-3 -20q-2 -12 -6 -29q-16 -59 -76 -59h-229l-23 -142h244q20 0 38.5 -10t18.5 -37q0 -12 -4 -20l-8 -60q-18 -57 -76 -57h-244l-61 -365q-10 -59 -74 -59h-41q-23 0 -40 11.5t-17 39.5 q0 14 2 19l57 354h-186l-61 -365q-10 -59 -74 -59h-41q-23 0 -39 11.5t-16 37.5q0 16 2 21l55 354h-221q-23 0 -40.5 11t-17.5 40zM500 610h186l23 140h-187z" />
<glyph unicode="$" horiz-adv-x="1003" d="M16 285v8q-2 23 10.5 40t41.5 17q59 0 79 -55l25 -72q35 -33 95.5 -60.5t150.5 -27.5q123 0 180 60.5t57 177.5q0 53 -59 114.5t-215 126.5q-158 66 -253 162t-95 232q0 86 31.5 153.5t88 113.5t131 70.5t160.5 24.5q76 0 158 -20.5t180 -67.5l19 -205q0 -29 -11.5 -48 t-50.5 -19q-29 0 -45 17t-24 40l-25 72q-35 31 -82 55.5t-112 24.5q-109 0 -158 -52.5t-49 -138.5q0 -66 66.5 -132.5t221.5 -129.5q160 -66 246 -155t86 -220q0 -104 -33.5 -181t-92 -126t-138.5 -73.5t-170 -24.5q-82 0 -178 20.5t-219 71.5zM307 -12v1407q0 76 64 75 q63 0 63 -75v-1407q0 -31 -15.5 -55.5t-49.5 -20.5q-29 2 -45.5 22.5t-16.5 53.5zM471 -12v1407q0 76 64 75q63 0 63 -75v-1407q0 -31 -15.5 -55.5t-50.5 -20.5q-29 2 -45 22.5t-16 53.5z" />
<glyph unicode="%" horiz-adv-x="1464" d="M16 1008q0 117 48.5 207t144.5 128q63 23 125 23q70 0 129 -25.5t102 -72.5t66.5 -112.5t23.5 -147.5q0 -152 -83 -247t-238 -95q-72 0 -130.5 25.5t-99.5 70.5t-64.5 108.5t-23.5 137.5zM78 -2l1016 1360h168l-1010 -1360h-174zM197 1008q0 -100 34.5 -153.5 t102.5 -53.5q63 0 102 49t39 154q0 119 -36 174t-103 55q-10 0 -25.5 -2t-31.5 -10q-82 -37 -82 -213zM692 336q0 117 48 207t145 129q63 23 125 22q70 0 129 -25.5t102 -71.5t66.5 -112.5t23.5 -148.5q0 -74 -21.5 -137.5t-62.5 -108.5t-100.5 -70.5t-136.5 -25.5 q-72 0 -130.5 25.5t-99.5 70.5t-64.5 108.5t-23.5 137.5zM872 336q0 -98 35 -151.5t103 -53.5q63 0 102 48t39 153q0 231 -139 231q-27 0 -58 -14q-82 -35 -82 -213z" />
<glyph unicode="&#x26;" horiz-adv-x="1359" d="M16 434q0 72 22.5 137.5t62.5 122t92.5 99.5t111.5 71q-53 88 -53 185q0 147 80 229t221 82q59 0 103 -21.5t74 -55.5t44 -77t14 -84q0 -78 -50 -142.5t-165 -125.5l252 -348l31 112h135l-78 -231l150 -201q14 -14 31 -22l47 -25q31 -16 51 -33.5t20 -42.5q0 -27 -15 -45 t-46 -18h-152q-47 0 -71 33l-99 129q-96 -162 -356 -162q-104 0 -188 33t-143.5 91t-92.5 137t-33 173zM246 481q0 -61 22.5 -119.5t60.5 -104.5t88 -73.5t103 -27.5q94 0 148.5 30.5t74.5 75.5l-358 496q-49 -23 -94 -94.5t-45 -182.5zM446 1120q0 -43 12.5 -83t37.5 -85 q119 53 118 150q0 80 -27.5 108.5t-51.5 28.5q-47 0 -68 -26.5t-21 -92.5z" />
<glyph unicode="'" horiz-adv-x="454" d="M16 1378q0 102 113 103q37 0 60.5 -10.5t37 -25.5t17.5 -32.5t2 -34.5q-4 -47 -13.5 -93t-23.5 -85t-33.5 -62.5t-40.5 -23.5q-18 0 -37.5 23.5t-35 62.5t-28 85t-18.5 93z" />
<glyph unicode="(" horiz-adv-x="489" d="M16 739q0 406 193 809q10 23 28.5 37t45.5 14q29 0 42 -19t13 -46q-57 -203 -84 -399.5t-27 -395.5t27 -395.5t84 -396.5q0 -27 -12.5 -47.5t-42.5 -20.5q-29 0 -46.5 15.5t-27.5 37.5q-193 399 -193 807z" />
<glyph unicode=")" horiz-adv-x="505" d="M16 -53q111 399 111 792q0 391 -111 795q0 29 13.5 47t42.5 18q27 0 45 -14t28 -37q195 -406 195 -805q0 -416 -197 -811q-10 -23 -27.5 -38t-43.5 -15q-31 0 -43.5 20.5t-12.5 47.5z" />
<glyph unicode="*" horiz-adv-x="692" d="M16 1151q0 33 19.5 45t46.5 18q18 4 41.5 9.5t56.5 15.5q-49 16 -71 21q-18 4 -28.5 7t-27.5 13q-35 20 -35 51q0 29 22.5 51.5t49.5 22.5q25 0 38 -6t30 -25q12 -16 45 -51q-6 16 -9.5 26.5t-7.5 16.5t-5 10t-3 8q-2 8 -2 27q0 70 74 70q76 0 76 -68q0 -16 -4.5 -28.5 t-10.5 -28.5q-6 -12 -12 -37l4 4q12 14 20.5 24.5t16.5 18.5q16 18 31.5 28.5t44.5 10.5q35 0 54 -26.5t19 -49.5q0 -33 -19 -45t-48 -20q-16 -4 -40 -9.5t-54 -15.5q35 -12 51 -16l24 -6q10 -2 21 -3q10 -2 31 -14q14 -12 23 -25.5t9 -29.5q0 -25 -22.5 -48.5t-50.5 -23.5 q-29 0 -43.5 10.5t-28.5 26.5q-6 8 -14.5 18.5t-20.5 24.5l-6 6q8 -25 12 -36t6 -15l7 -10l-2 2q4 -4 6 -11.5t2 -19.5q0 -70 -76 -70t-76 68q0 23 2 27q0 4 2 7t4 7q4 4 7.5 16.5t11.5 34.5q-18 -18 -26.5 -28.5t-12.5 -14.5q-4 -8 -10 -14t-23 -15q-25 -14 -45 -14 q-31 0 -52.5 24.5t-21.5 53.5z" />
<glyph unicode="+" horiz-adv-x="919" d="M16 524q0 31 21 51q23 16 53 17l266 -2l-4 256q-4 35 21 53q23 18 55.5 16t52.5 -18q18 -20 19 -51l6 -262l268 -2q16 0 30.5 -3.5t26.5 -13.5q18 -18 20.5 -51t-17.5 -55q-29 -18 -58 -19l-266 6l4 -243q4 -31 -18 -53q-23 -20 -56.5 -17.5t-52.5 19.5q-20 20 -20 53 l-7 241l-272 5q-14 2 -27.5 5t-23.5 13q-12 10 -16.5 24.5t-4.5 30.5z" />
<glyph unicode="," horiz-adv-x="464" d="M16 70q0 47 33 69.5t90 22.5q59 0 93 -22.5t34 -69.5v-31q0 -25 -8 -52.5t-25.5 -51t-46 -39t-71.5 -15.5q-29 0 -51.5 10.5t-22.5 38.5q0 20 13.5 30.5t35.5 16.5h8q2 2 4 3q-41 6 -63.5 28.5t-22.5 61.5z" />
<glyph unicode="-" horiz-adv-x="729" d="M16 535q2 29 22.5 45t53.5 16h488q76 0 75 -64q0 -63 -75 -63h-488q-33 0 -56.5 15.5t-19.5 50.5z" />
<glyph unicode="." horiz-adv-x="493" d="M16 80q0 41 34 60.5t91 19.5q53 0 90 -20.5t37 -59.5q0 -41 -34.5 -60.5t-92.5 -19.5q-57 0 -91 19.5t-34 60.5z" />
<glyph unicode="/" horiz-adv-x="796" d="M6 0l457 1481h172l-455 -1481h-174z" />
<glyph unicode="0" horiz-adv-x="1150" d="M188 561q0 274 116 416.5t351 142.5h23q238 0 353.5 -142t115.5 -417q0 -276 -116 -418.5t-353 -142.5h-23q-236 0 -351.5 142.5t-115.5 418.5zM406 561q0 -217 67.5 -319.5t192.5 -112.5q127 10 195.5 113.5t68.5 318.5t-68.5 318.5t-195.5 113.5 q-125 -10 -192.5 -113.5t-67.5 -318.5z" />
<glyph unicode="1" horiz-adv-x="561" d="M111 987q0 31 24.5 48.5t54.5 25.5l224 57q70 0 69 -63v-887q0 -16 14.5 -22.5t30.5 -12.5q29 -14 51.5 -32.5t22.5 -47.5t-18.5 -41t-46.5 -12h-322q-27 0 -45 12.5t-18 40.5q0 29 22.5 47.5t50.5 32.5q16 6 30.5 12.5t14.5 22.5v764q0 8 -9 6t-25 -2h-41 q-45 0 -64.5 15.5t-19.5 35.5z" />
<glyph unicode="2" horiz-adv-x="919" d="M84 63v68q0 27 17.5 51.5t43.5 46.5l369 312q104 86 104 209q0 106 -45 147t-163 41q-53 0 -110.5 -7t-121.5 -24q-4 -2 -22 -2q-45 0 -72 49q0 72 57 86q170 82 320 82q94 0 167.5 -24.5t124 -68.5t76 -104.5t23.5 -131.5q-4 -115 -77 -211.5t-197 -202.5l-144 -121 l-84 -65h340q10 0 19.5 10t13.5 16q4 4 7 9t7 12q20 27 42 47t50 20q29 0 48.5 -15.5t19.5 -47.5l-31 -168q-6 -33 -24.5 -54.5t-53.5 -21.5h-638q-66 0 -66 63z" />
<glyph unicode="3" horiz-adv-x="923" d="M78 -92q14 59 78 59q182 -45 282 -45q123 0 182.5 61.5t59.5 190.5q0 98 -50 147.5t-145 49.5h-102q-35 0 -50.5 20.5t-15.5 48.5v33q0 63 66 64h102q80 0 123 43t43 122q0 104 -58 176t-175 72q-49 0 -105.5 -11t-122.5 -38q-63 0 -81 62q0 37 39.5 65.5t94 49t111 31.5 t88.5 11q102 0 180 -33.5t131.5 -90t81 -132.5t27.5 -159q0 -86 -24.5 -148.5t-81.5 -105.5q76 -43 109.5 -117t33.5 -176q0 -86 -28.5 -161t-84 -130t-138.5 -87t-191 -32q-35 0 -98.5 10.5t-126 31t-108.5 50t-46 68.5z" />
<glyph unicode="4" horiz-adv-x="1114" d="M160 160v49q0 43 26 80l539 768l20 26q16 23 38 30t44 7h80q29 0 47.5 -15t18.5 -46v-772q0 -10 3 -12.5t11 -2.5h121q29 0 47.5 -16t18.5 -47v-49q0 -31 -18.5 -46.5t-47.5 -15.5h-121q-14 0 -14 -14v-262q0 -31 -18.5 -46.5t-47.5 -15.5h-80q-29 0 -48 15.5t-19 46.5 v262q0 14 -12 14h-521q-29 0 -48 15.5t-19 46.5zM377 272h371q8 0 10 2t2 13v598q4 0 12 2t8 -15l13 13z" />
<glyph unicode="5" horiz-adv-x="925" d="M78 -100q0 63 69 63q68 -16 125.5 -22.5t108.5 -6.5q160 0 247 76t87 217q0 53 -16.5 100.5t-63.5 82t-130 55t-218 20.5q-25 0 -51.5 -1t-55.5 -1q-33 0 -46 19.5t-11 46.5l35 508q4 29 20.5 46t44.5 17h563q63 0 64 -61v-60q0 -35 -19.5 -49t-44.5 -14h-462 q-14 0 -17 -6l-16 -273h20q172 0 292 -30.5t193.5 -87t107.5 -135t34 -175.5q0 -104 -37 -190t-103.5 -148.5t-159.5 -97.5t-206 -35q-33 0 -92 8.5t-117.5 26t-101.5 44t-43 63.5z" />
<glyph unicode="6" horiz-adv-x="1095" d="M215 555q0 158 27.5 303.5t92 258t172 179t267.5 66.5q102 0 207 -33q55 -16 55 -74q-6 -23 -19 -38t-40 -15q-8 0 -13.5 1t-9.5 1q-84 18 -151 19q-109 0 -175.5 -46.5t-103.5 -105.5t-50 -119.5t-15 -87.5q98 33 215 33q84 0 164 -27.5t142 -82t100 -136.5t38 -192 q0 -111 -37 -196t-99 -143.5t-144 -89t-174 -30.5t-174 33t-143.5 101.5t-96.5 173t-35 247.5zM432 520q0 -186 68.5 -270t201.5 -80q88 2 143.5 73.5t55.5 223.5q0 55 -13.5 105.5t-41 87t-70.5 59t-100 22.5q-92 0 -215 -45q-18 -12 -23.5 -50t-5.5 -77v-49z" />
<glyph unicode="7" horiz-adv-x="1003" d="M61 864v193q0 63 66 63h760q33 0 49 -17.5t16 -45.5v-78q0 -39 -18 -84l-442 -1102q-23 -33 -56 -33h-160q-14 0 -28.5 8.5t-14.5 30.5q0 14 11 35l520 1079l2 5h-520q-16 0 -22.5 -14.5t-14.5 -31.5q-6 -12 -12.5 -23t-16.5 -22q-8 -10 -21.5 -18t-31.5 -8q-66 0 -66 63 z" />
<glyph unicode="8" horiz-adv-x="1153" d="M211 410q0 201 170 317q-61 61 -90 127t-29 141q0 76 27.5 142.5t80 116t127 78t169.5 28.5q94 0 169.5 -27.5t129 -77t82 -116t28.5 -142.5q0 -154 -129 -270q178 -115 178 -326q0 -88 -34.5 -162.5t-96 -130t-144.5 -87t-181 -31.5q-102 0 -186.5 32.5t-143.5 89 t-93 133.5t-34 165zM444 406q0 -111 61.5 -175.5t162.5 -64.5q102 0 162.5 60.5t60.5 170.5q0 104 -61.5 168t-167.5 64q-98 0 -158 -59.5t-60 -163.5zM467 989q0 -92 48 -144t147 -52q106 0 153 56t47 148q0 197 -194 197q-104 0 -152.5 -53.5t-48.5 -151.5z" />
<glyph unicode="9" horiz-adv-x="1118" d="M215 662q0 111 37 195.5t99.5 143t147.5 89t183 30.5q90 0 169 -32.5t138.5 -101t94 -173t34.5 -246.5q0 -174 -30.5 -322.5t-96 -256t-172 -169t-256.5 -61.5q-53 0 -105 8.5t-102 24.5q-57 20 -57 74q4 23 18.5 38t40.5 15q47 0 90.5 -9t79.5 -9q109 0 176.5 45 t105.5 104.5t51 119.5t18 89q-117 -35 -215 -35q-88 0 -169 28t-143.5 82t-99.5 136t-37 193zM432 653q0 -55 14.5 -104t43 -87t70.5 -60.5t99 -22.5q100 0 220 47q16 6 19 45t3 74v51q0 193 -65.5 273.5t-200.5 80.5q-88 0 -145.5 -69.5t-57.5 -227.5z" />
<glyph unicode=":" horiz-adv-x="460" d="M16 102q0 53 33 79t92 26t93 -25.5t34 -79.5q0 -53 -33.5 -77.5t-93.5 -24.5q-59 0 -92 24.5t-33 77.5zM16 457q0 53 33 77.5t92 24.5t93 -24.5t34 -77.5t-33.5 -79t-93.5 -26q-59 0 -92 26t-33 79z" />
<glyph unicode=";" horiz-adv-x="460" d="M16 96q0 53 32 79t91 26t93 -25.5t34 -79.5v-35q0 -27 -7 -58.5t-25.5 -58t-47 -45t-71.5 -18.5q-29 0 -51.5 13.5t-22.5 42.5q0 23 13.5 34t33.5 17q8 4 16 4q-88 16 -88 104zM16 453q0 53 32 79.5t91 26.5t93 -26.5t34 -79.5t-33.5 -78t-93.5 -25q-57 0 -90 26t-33 77z " />
<glyph unicode="&#x3c;" horiz-adv-x="825" d="M16 563q0 18 11 35l446 494q23 29 68 28h100q14 0 29.5 -8t15.5 -31q0 -8 -3 -15t-7 -15l-369 -482q-2 -4 -2 -10v-6l365 -479q14 -23 14 -37q0 -23 -15.5 -30t-27.5 -7h-100q-39 0 -78 27l-432 497q-15 16 -15 39z" />
<glyph unicode="=" horiz-adv-x="876" d="M16 412q2 29 22.5 45t53.5 16h678q35 0 56.5 -16.5t21.5 -46.5q0 -31 -21.5 -47.5t-56.5 -16.5h-678q-33 0 -56.5 15.5t-19.5 50.5zM16 678q2 29 22.5 45t53.5 16h678q35 0 56.5 -16t21.5 -47t-21.5 -47.5t-56.5 -16.5h-678q-33 0 -56.5 15.5t-19.5 50.5z" />
<glyph unicode="&#x3e;" horiz-adv-x="727" d="M16 1079q0 20 13.5 30.5t31.5 10.5l101 -2q20 0 38.5 -5t30.5 -21l447 -494q4 -8 8 -17.5t4 -17.5q0 -18 -16 -39l-432 -497q-39 -27 -80 -27h-101q-12 0 -27.5 7t-15.5 30q0 18 15 37l362 479q4 4 4 8l-4 8l-368 480q-11 12 -11 30z" />
<glyph unicode="?" horiz-adv-x="954" d="M16 1327q0 33 45 61.5t105.5 49t122 32t92.5 11.5q111 0 190.5 -34t131 -89t76 -128t24.5 -153q0 -127 -61.5 -225t-166.5 -164q-57 -35 -81.5 -76t-26.5 -86l-2 -293h-168l-2 295q-2 164 149 281q131 96 131 256q0 123 -62 187.5t-185 64.5q-88 0 -230 -39q-4 -2 -9 -3 t-15 -1q-25 0 -39.5 15t-18.5 38zM266 102q0 51 31 77t84 26t85 -27.5t32 -75.5q0 -51 -32 -76.5t-85 -25.5t-84 25.5t-31 76.5z" />
<glyph unicode="@" horiz-adv-x="1708" d="M16 528q0 199 65.5 354.5t176.5 263t254 165t301 57.5q129 0 245 -35t209 -95t160.5 -139t100.5 -165q61 -172 61 -334q0 -231 -86 -360t-239 -129q-98 0 -167 19.5t-104 66.5q-147 -72 -252 -72q-78 0 -134 32.5t-94 89t-56.5 132.5t-18.5 162q0 94 23.5 177t67.5 144.5 t110 97t149 35.5q76 0 162 -34q10 29 37 39t62 10q41 0 75.5 -16.5t34.5 -59.5v-606q0 -18 18.5 -32.5t82.5 -14.5q25 0 45 15t35.5 52t23.5 96.5t8 145.5q0 117 -30.5 225.5t-97 192.5t-172 134t-253.5 50q-109 0 -212 -42t-184 -125t-130 -205t-49 -281q0 -109 41 -216.5 t124 -192.5t208.5 -138t295.5 -53q98 0 206 14t237 49l-2 -2q6 4 28 4q53 0 70 -65q-10 -29 -29.5 -49.5t-50.5 -30.5q-143 -43 -271 -63.5t-243 -20.5q-199 0 -354.5 63.5t-264 169t-166 240.5t-57.5 280zM635 582q0 -53 8 -102.5t26.5 -89.5t49.5 -63.5t78 -23.5 q53 0 151 33v467q-90 25 -147 24q-49 0 -82 -18t-51.5 -50t-25.5 -77t-7 -100z" />
<glyph unicode="A" d="M-27 55q0 23 16.5 36t37.5 22q10 4 22 8q18 8 35.5 15t24.5 24l393 1161q20 57 80 57h77q57 0 76 -53l398 -1167q4 -10 14 -19.5t39 -13.5q41 -14 60.5 -33.5t19.5 -36.5q0 -29 -19.5 -42t-46.5 -13h-317q-27 0 -47.5 12.5t-20.5 42.5q0 18 19.5 36t48.5 28q10 4 18 8 l17 8q2 2 4 0t2 0l-74 232q-6 18 -25 18h-446q-20 0 -26.5 -5t-8.5 -11l-63 -230v-2l-2 -2q4 -4 9 -4t9 -2q6 -4 18 -8q29 -10 50.5 -26.5t21.5 -39.5q0 -31 -21.5 -43t-46.5 -12h-280q-27 0 -46.5 13t-19.5 42zM401 526l2 4h390v7l-191 563l-199 -565q-2 -5 -2 -9z" />
<glyph unicode="B" horiz-adv-x="1183" d="M16 55q0 16 9.5 28.5t19.5 18.5t22.5 11.5t22.5 9.5q16 4 29.5 8t15.5 19l2 1048q0 16 -15.5 22.5t-31.5 14.5q-23 10 -48.5 25.5t-25.5 44.5t18.5 42t45.5 13h371q250 0 382 -91t132 -282q0 -172 -117 -266q199 -86 199 -330q0 -199 -126 -295t-368 -96h-473 q-27 0 -45.5 13t-18.5 42zM344 160q0 -12 14 -13h195q147 0 215 59.5t68 176.5t-68 176t-215 59h-201q-8 0 -8 -10v-448zM344 780q0 -10 2 -12t10 -2h129q129 0 188.5 56.5t59.5 164.5q0 109 -67.5 164t-214.5 59l-97 2q-10 0 -10 -8v-424z" />
<glyph unicode="C" horiz-adv-x="1105" d="M16 680q0 690 611 690q92 0 180 -20.5t180 -67.5v-188q0 -43 -16.5 -62.5t-38.5 -19.5q-33 0 -49.5 23.5t-26.5 51.5l-18 54q-27 41 -73 62.5t-120 21.5q-86 0 -161.5 -34t-132 -101.5t-88.5 -170t-32 -239.5t32 -239.5t88.5 -170t132 -101.5t161.5 -34q74 0 120 21.5 t73 62.5l18 53q10 29 26.5 52.5t49.5 23.5q23 0 39 -19.5t16 -62.5v-190q-96 -45 -184 -65.5t-176 -20.5q-309 0 -460 173t-151 517z" />
<glyph unicode="D" horiz-adv-x="1308" d="M16 55q0 16 9.5 28.5t19.5 18.5t22.5 11.5t22.5 9.5q16 4 30.5 8t14.5 19v1058q0 14 -14.5 18.5t-30.5 10.5l-22.5 9t-22.5 11t-19.5 18.5t-9.5 29.5q0 31 20.5 43t45.5 12h457q297 0 442 -172t145 -508t-145 -508t-440 -172h-461q-27 0 -45.5 13t-18.5 42zM346 162 q0 -10 2 -13.5t17 -3.5h176q170 0 267 130.5t97 404.5t-98 404t-268 130h-179q-14 0 -14 -12v-1040z" />
<glyph unicode="E" horiz-adv-x="1165" d="M16 55q0 16 9.5 28.5t19.5 18.5t22.5 11.5t22.5 9.5q16 4 29.5 8t15.5 19l2 1058q0 14 -14 17.5t-29 7.5q-12 4 -25.5 8t-23.5 12q-29 18 -29 52q0 29 18.5 42t45.5 13h899q31 0 49.5 -17.5t18.5 -46.5v-135q0 -25 -14.5 -43t-43.5 -18q-25 0 -42 21.5t-29 49.5 q-6 14 -9.5 28.5t-15.5 14.5h-535q-12 0 -12 -12v-426q0 -8 2 -11t14 -3h232q12 0 16 14.5t11 28.5q10 23 25.5 48.5t45.5 25.5q31 0 44.5 -20.5t13.5 -43.5v-246q0 -27 -12.5 -47t-45.5 -20q-31 0 -46 25.5t-25 47.5q-6 14 -10.5 28.5t-16.5 14.5h-232q-10 0 -13 -3t-3 -17 v-442q0 -10 8 -11h533q16 0 21 14.5t12 28.5q4 10 9 21.5t13 21.5q6 10 18.5 19.5t30.5 9.5q29 0 42.5 -18.5t13.5 -42.5v-133q0 -66 -70 -66h-893q-27 0 -47.5 12t-20.5 43z" />
<glyph unicode="F" horiz-adv-x="1138" d="M16 55q0 29 27 42.5t49 23.5q14 6 29.5 10t15.5 16v1067q0 2 -8 7q-16 8 -37 16q-31 10 -53.5 27.5t-22.5 40.5q0 29 18.5 42t45.5 13h909q29 0 43.5 -18.5t14.5 -43.5v-137q0 -25 -13.5 -43t-42.5 -18q-25 0 -39 15t-24 34q-2 6 -4 11t-4 11q-6 14 -11.5 28.5 t-19.5 14.5h-522q-20 0 -21 -14v-426q0 -12 19 -12h231q12 0 15 13t10 30q12 29 29.5 51.5t41.5 22.5q29 0 43.5 -18.5t14.5 -45.5v-254q0 -25 -14.5 -42t-43.5 -17q-31 0 -46 25.5t-25 47.5q-6 14 -10.5 28.5t-16.5 14.5h-232q-12 0 -14 -3t-2 -13v-455q0 -12 13.5 -16 t29.5 -8q12 -4 24.5 -9t22.5 -12q10 -8 20.5 -19t10.5 -28q0 -31 -21.5 -43t-46.5 -12h-315q-27 0 -47.5 12t-20.5 43z" />
<glyph unicode="G" horiz-adv-x="1191" d="M16 680q0 340 145.5 514t442.5 174q70 0 126 -6t104.5 -18.5t93.5 -30t92 -39.5v-205q0 -25 -13.5 -45t-43.5 -20q-47 0 -74 73l-19 56q-12 18 -28.5 34.5t-43 28.5t-67.5 19.5t-98 7.5q-90 0 -167 -32t-132 -98.5t-86 -169t-31 -243.5q0 -139 31 -241.5t86 -169 t131 -99.5t166 -33q106 0 145 25.5t39 54.5v264q0 10 -14.5 13.5t-30.5 9.5q-29 12 -51.5 28.5t-22.5 40.5q0 29 20.5 41.5t45.5 12.5h313q27 0 45.5 -12.5t18.5 -41.5q0 -18 -10.5 -29.5t-20.5 -19.5q-10 -6 -22.5 -11l-22.5 -9q-16 -4 -29.5 -9.5t-13.5 -17.5v-393 q-59 -23 -108.5 -40t-96.5 -28.5t-98 -17.5t-113 -6q-297 0 -442.5 174t-145.5 514z" />
<glyph unicode="H" horiz-adv-x="1447" d="M16 55q0 16 9.5 28.5t19.5 18.5q10 8 23 13l24 8q16 4 30.5 8t14.5 16v1065q0 12 -14 15.5t-31 9.5q-12 4 -24.5 9t-22.5 11t-19.5 18.5t-9.5 29.5q0 31 20.5 43t45.5 12h321q27 0 45.5 -13.5t18.5 -41.5q0 -16 -10.5 -28.5t-22.5 -19.5q-10 -6 -21.5 -11t-23.5 -9 q-16 -4 -29.5 -8t-13.5 -19v-432q0 -16 14 -16h568q8 0 8 10v445q0 4 -8 4q-16 8 -37 16q-31 10 -53.5 27.5t-22.5 40.5q0 33 21.5 44t48.5 11h315q27 0 46.5 -13.5t19.5 -41.5q0 -23 -17.5 -36.5t-36.5 -23.5l-12 -4q-6 -2 -10 -4q-16 -6 -29.5 -10t-13.5 -17v-1063 q0 -4 5 -11t36 -11q29 -8 54.5 -24.5t25.5 -45.5q0 -33 -22.5 -44t-49.5 -11h-313q-27 0 -47.5 12.5t-20.5 42.5q0 23 16.5 36t36.5 22q4 4 10.5 5t12.5 5q16 4 30.5 7t14.5 15v463q0 10 -8 10h-568q-14 0 -14 -16v-455q0 -12 13.5 -16t29.5 -8l25 -8q12 -4 22 -13 q10 -6 20.5 -18t10.5 -29q0 -29 -18.5 -42t-45.5 -13h-319q-27 0 -47.5 12t-20.5 43z" />
<glyph unicode="I" horiz-adv-x="649" d="M16 55q0 31 23.5 45.5t54.5 24.5q8 4 17.5 6t17.5 6q8 6 8 10v1070q0 4 -8 4q-16 8 -37 16q-31 10 -53.5 27.5t-22.5 40.5q0 31 20.5 43t47.5 12h315q25 0 46.5 -12.5t21.5 -42.5q0 -29 -25.5 -45.5t-54.5 -24.5q-29 -4 -35 -12.5t-6 -12.5v-1060q0 -14 13.5 -17.5 t29.5 -7.5l25 -8q12 -4 22 -11q12 -8 21.5 -21t9.5 -32q-2 -29 -21.5 -41t-46.5 -12h-317q-25 0 -45.5 12t-20.5 43z" />
<glyph unicode="J" horiz-adv-x="745" d="M16 111q0 23 9.5 44t42.5 21q20 0 38.5 -3t34.5 -7q14 -4 27.5 -6t28.5 -2q63 0 90.5 24.5t27.5 73.5v952q0 8 -6 15.5t-33 11.5q-31 8 -55 24.5t-24 45.5q0 31 20.5 43t44.5 12h320q27 0 46 -13.5t19 -41.5q0 -16 -10 -28.5t-23 -19.5q-10 -6 -21 -11t-24 -9 q-16 -4 -29.5 -8t-13.5 -19v-915q0 -86 -16 -144.5t-49 -93t-83 -49t-116 -14.5q-37 0 -80 6t-79.5 19.5t-61.5 36t-25 55.5z" />
<glyph unicode="K" horiz-adv-x="1298" d="M16 55q0 16 9.5 28.5t19.5 18.5q10 8 23 13l24 8q16 4 30.5 8t14.5 16v1067q0 2 -8 7q-16 8 -37 16q-31 10 -53.5 27.5t-22.5 40.5q0 29 18.5 42t45.5 13h321q27 0 46.5 -13.5t19.5 -41.5q0 -23 -17.5 -36.5t-37.5 -23.5q-4 -2 -11 -4l-12 -4q-16 -6 -29.5 -9t-13.5 -16 v-372l373 399l-12 6q-23 10 -37.5 24.5t-14.5 35.5q0 31 20.5 43t47.5 12h258q25 0 46.5 -12.5t21.5 -42.5q0 -23 -25 -40.5t-59 -29.5q-20 -6 -47 -16q-23 -10 -25 -15l-416 -442q-4 -4 -4 -6v-4q0 -4 1 -9.5t11 -15.5l525 -563q16 -16 38.5 -25.5t45.5 -17.5 q33 -10 53 -25.5t20 -40.5q0 -31 -21.5 -43t-45.5 -12h-160q-49 0 -94 35l-500 530v-420q0 -12 14.5 -15t28.5 -7q33 -10 55.5 -27.5t22.5 -42.5q-2 -29 -21.5 -41t-44.5 -12h-319q-25 0 -45.5 12t-20.5 43z" />
<glyph unicode="L" horiz-adv-x="1083" d="M16 55q0 16 9.5 28.5t19.5 18.5q10 8 23 13l24 8q16 4 30.5 8t14.5 16v1063q0 14 -14 18.5t-31 10.5q-12 4 -24.5 9t-22.5 12q-10 6 -19.5 18t-9.5 29q0 31 21.5 42t46.5 11h319q25 0 44.5 -12.5t19.5 -40.5q0 -23 -23.5 -40.5t-54.5 -27.5q-16 -6 -29.5 -9t-13.5 -16 v-1052q0 -8 2 -11.5t12 -3.5h494q12 0 15 14.5t10 28.5q12 29 29.5 51.5t41.5 22.5q29 0 43.5 -17.5t14.5 -39.5v-150q0 -29 -19.5 -43t-48.5 -14h-858q-25 0 -45.5 12t-20.5 43z" />
<glyph unicode="M" horiz-adv-x="1689" d="M16 55q0 16 9.5 28.5t19.5 18.5q10 8 23 13l24 8q16 4 30.5 8t14.5 16v1065q0 12 -14 15.5t-31 9.5q-12 4 -24.5 9t-22.5 11t-19.5 18.5t-9.5 29.5q0 31 20.5 43t47.5 12h252q33 0 53.5 -21.5t34.5 -56.5l346 -885l379 887q16 35 37.5 55.5t56.5 20.5h201q27 0 45 -13.5 t18 -41.5q0 -29 -25.5 -45.5t-56.5 -24.5q-27 -4 -33 -12.5t-6 -14.5v-1056q0 -14 13.5 -19.5t30.5 -9.5q12 -4 23 -8t22 -13q12 -6 22 -18t10 -29q0 -31 -21.5 -43t-47.5 -12h-314q-27 0 -47 12.5t-20 42.5q0 16 9 28.5t19 18.5t22.5 11.5t22.5 9.5q16 4 31 8t15 19v827 l-345 -821q-14 -33 -36.5 -55.5t-53.5 -22.5q-35 0 -56 22.5t-36 57.5l-342 856v-862q0 -14 13.5 -19.5t29.5 -9.5q12 -4 23.5 -8t21.5 -13q12 -6 22.5 -18t10.5 -29q0 -31 -21.5 -43t-46.5 -12h-278q-25 0 -45.5 12t-20.5 43z" />
<glyph unicode="N" horiz-adv-x="1288" d="M16 55q0 16 9.5 28.5t21.5 18.5q10 6 21.5 11.5t23.5 9.5q16 4 30.5 8t14.5 19v1048q0 16 -15.5 22.5t-31.5 14.5q-23 10 -48.5 25.5t-25.5 44.5q0 31 20.5 43t45.5 12h201q55 0 84 -51l528 -934v835q0 6 -6 13.5t-35 11.5q-31 8 -55.5 24.5t-24.5 45.5q0 31 20.5 43 t47.5 12h274q27 0 48.5 -12.5t21.5 -42.5q0 -23 -17.5 -36.5t-35.5 -23.5l-13 -4q-6 -2 -10 -4q-16 -6 -29.5 -9t-13.5 -16v-1149q0 -29 -19.5 -46t-50.5 -17h-94q-59 0 -86 51l-510 922v-823q0 -14 13.5 -18.5t29.5 -8.5q12 -4 23.5 -9t21.5 -12q12 -6 22.5 -18t10.5 -29 q0 -29 -19.5 -42t-46.5 -13h-280q-25 0 -45.5 12t-20.5 43z" />
<glyph unicode="O" horiz-adv-x="1226" d="M16 680q0 336 139.5 512t422.5 176h26q281 0 422 -176t141 -512t-141 -512t-422 -176h-26q-283 0 -422.5 176t-139.5 512zM227 680q0 -131 27 -229.5t75 -166t115.5 -104.5t147.5 -43q80 6 146.5 43t114.5 104.5t75.5 166t27.5 229.5t-27.5 229.5t-75.5 166t-114.5 104.5 t-146.5 43q-162 -14 -263.5 -148.5t-101.5 -394.5z" />
<glyph unicode="P" horiz-adv-x="1067" d="M16 55q0 29 22.5 44.5t55.5 25.5q14 4 28.5 7t14.5 18v1062q0 12 -14 15.5t-31 9.5q-12 4 -24.5 9t-22.5 11t-19.5 18.5t-9.5 29.5q0 31 20.5 43t45.5 12h395q240 0 365 -92t125 -285t-127 -291t-369 -98h-111q-14 0 -14 -10v-434q0 -4 5 -11.5t34 -11.5 q33 -6 57.5 -22.5t24.5 -49.5q0 -29 -19.5 -42t-46.5 -13h-319q-25 0 -45.5 12t-20.5 43zM346 752q0 -8 1 -10.5t11 -2.5l115 2q147 4 215 59.5t68 176.5q0 117 -67.5 172t-215.5 61l-106 4q-20 0 -21 -12v-450z" />
<glyph unicode="Q" horiz-adv-x="1349" d="M16 678q0 336 139.5 513t422.5 177h26q281 0 422 -177t141 -513q0 -133 -28.5 -243.5t-75.5 -193.5t-111.5 -136.5t-134.5 -71.5q0 2 -1 4t3 4h2l-4 4q127 -78 268 -78q61 0 62 -63q0 -27 -15.5 -45.5t-46.5 -18.5q-127 0 -243.5 32t-225.5 101q-16 10 -23 12.5t-13 2.5 q-285 0 -424.5 176t-139.5 514zM227 678q0 -262 101.5 -396.5t263.5 -148.5q80 6 146.5 43t114.5 104.5t75.5 167t27.5 230.5t-27.5 229.5t-75.5 166t-114.5 104t-146.5 43.5q-162 -12 -263.5 -147.5t-101.5 -395.5z" />
<glyph unicode="R" horiz-adv-x="1181" d="M16 55q0 16 9.5 28.5t21.5 18.5q10 6 21.5 11.5t23.5 9.5q16 4 30.5 8t14.5 19v1062q0 12 -14 15.5t-31 9.5q-12 4 -24.5 9t-22.5 11t-19.5 18.5t-9.5 29.5q0 31 20.5 43t45.5 12h418q104 0 190 -23.5t147.5 -70.5t95.5 -118t34 -165q0 -78 -32 -144.5t-81 -115.5 t-107.5 -78t-109.5 -29q0 2 -2 2l4 -4l285 -460q8 -14 25.5 -21.5l31.5 -13.5q29 -10 47.5 -25.5t18.5 -38.5q0 -31 -21.5 -43t-48.5 -12h-121q-53 0 -86 49l-319 524q-12 20 -31 21h-60q-14 0 -14 -10v-434q0 -4 6 -12.5t35 -12.5q29 -8 54.5 -24.5t25.5 -45.5t-19.5 -42 t-46.5 -13h-319q-25 0 -45.5 12t-20.5 43zM346 752q0 -8 1 -10.5t11 -2.5l115 2q147 4 215 59.5t68 176.5q0 117 -67.5 172t-215.5 61l-106 4q-20 0 -21 -12v-450z" />
<glyph unicode="S" horiz-adv-x="997" d="M16 285v8q-2 23 10.5 40t41.5 17q59 0 79 -55l25 -72q35 -33 95.5 -60.5t150.5 -27.5q123 0 180 60.5t57 177.5q0 53 -59 114.5t-215 126.5q-158 66 -253 162t-95 232q0 86 31.5 153.5t88 113.5t131 70.5t160.5 24.5q76 0 158 -20.5t180 -67.5l19 -205q0 -29 -11.5 -48 t-50.5 -19q-29 0 -45 17t-24 40l-25 72q-35 31 -82 55.5t-112 24.5q-109 0 -158 -52.5t-49 -138.5q0 -66 66.5 -132.5t221.5 -129.5q160 -66 246 -155t86 -220q0 -104 -33.5 -181t-92 -126t-138.5 -73.5t-170 -24.5q-82 0 -178 20.5t-219 71.5z" />
<glyph unicode="T" horiz-adv-x="1122" d="M-27 1161v137q0 31 19.5 46.5t50.5 15.5h897q63 0 64 -62l2 -137q2 -27 -12.5 -44t-43.5 -17q-25 0 -39 15t-22 36q-4 4 -5 10t-5 10q-6 14 -10.5 28.5t-18.5 14.5h-229q-12 0 -13 -16v-1046q0 -8 6.5 -15.5t34.5 -11.5q41 -14 60.5 -33.5t19.5 -36.5q0 -31 -21.5 -43 t-45.5 -12h-320q-27 0 -45 13.5t-18 41.5q0 29 26.5 42.5t48.5 23.5q16 6 30.5 10t14.5 19v1048q0 10 -3 13t-15 3h-250q-14 0 -18 -14t-11 -29q-4 -10 -9 -21t-13 -22q-6 -10 -18.5 -19t-30.5 -9q-29 0 -43.5 18t-14.5 43z" />
<glyph unicode="U" horiz-adv-x="1282" d="M16 1305q0 31 20.5 43t45.5 12h319q27 0 46.5 -13.5t19.5 -41.5q0 -16 -10.5 -28.5t-22.5 -19.5q-10 -6 -21.5 -11t-23.5 -9q-16 -4 -29.5 -8t-13.5 -19v-761q0 -150 70 -220q66 -66 199 -65h16q143 4 204.5 75.5t61.5 206.5v764q0 12 -14.5 16.5t-30.5 10.5l-22.5 9 t-22.5 11t-20.5 16.5t-12.5 29.5q0 31 19.5 44t46.5 13l280 -2q27 0 46.5 -12.5t19.5 -40.5q0 -18 -10.5 -29.5t-20.5 -18.5q-10 -6 -22.5 -11l-22.5 -9q-16 -6 -29.5 -10t-13.5 -17v-743q0 -117 -36 -204t-100.5 -145.5t-154.5 -88t-196 -29.5q-211 0 -327 123t-116 364 v723q0 14 -14 18.5t-31 8.5q-12 4 -23.5 9t-21.5 11q-12 6 -21.5 19t-9.5 29z" />
<glyph unicode="V" horiz-adv-x="1396" d="M-27 1305q0 31 21.5 43t46.5 12h344q27 0 46.5 -13.5t19.5 -41.5q0 -25 -22.5 -40.5t-51.5 -25.5q-10 -4 -18.5 -7t-16.5 -7h-4l299 -832l297 834h-2h-2q-8 4 -15.5 7t-15.5 7q-27 10 -45 25.5t-18 38.5q0 31 20.5 43t44.5 12h240q27 0 51.5 -11.5t24.5 -43.5 q0 -25 -21.5 -41.5t-50.5 -26.5q-10 -4 -19.5 -8t-19.5 -8q-14 -10 -16 -19l-392 -1143q-20 -59 -77 -59q-51 0 -82 53l-433 1149q-4 10 -15 15.5l-19 9.5q-10 4 -23 8q-31 12 -53.5 28.5t-22.5 41.5z" />
<glyph unicode="W" horiz-adv-x="1955" d="M-27 1305q0 31 21.5 43t46.5 12h342q27 0 46.5 -13.5t19.5 -41.5q0 -23 -21.5 -39.5t-50.5 -26.5q-10 -4 -18.5 -7t-16.5 -7h-4l227 -822l254 809q10 29 32.5 49.5t66.5 20.5q39 0 64.5 -17.5t31.5 -43.5l225 -828l252 836q0 2 -2 1t-2 1q-6 4 -14.5 6t-16.5 6 q-27 10 -45 24.5t-18 37.5q0 31 20.5 43t44.5 12h240q29 0 53.5 -10.5t24.5 -44.5q0 -23 -21.5 -39.5t-52.5 -28.5q-10 -4 -19.5 -8t-19.5 -10q-14 -8 -16 -17l-349 -1143q-18 -59 -81 -59t-80 61l-244 865l-277 -867q-20 -59 -77 -59q-59 0 -84 57l-349 1147q-4 10 -24 19 l-31 12q-33 12 -55.5 29.5t-22.5 40.5z" />
<glyph unicode="X" horiz-adv-x="1368" d="M16 55q0 23 21.5 40.5t54.5 27.5q12 4 23.5 8t21.5 8q18 8 25 17l319 469l8 16q4 8 5 14q0 8 -5 13l-317 534q-2 4 -11 9.5t-20.5 10.5t-21.5 8t-15 5q-33 14 -55 31.5t-22 38.5q0 31 20.5 43t44.5 12h350q27 0 46.5 -13.5t19.5 -41.5q0 -29 -25.5 -44.5t-54.5 -21.5 l-25 -6l230 -395l274 389l-22 8q-41 14 -60.5 29.5t-17.5 42.5q0 29 19.5 41t45.5 12h289q25 0 46.5 -12.5t21.5 -42.5q0 -23 -22.5 -39.5t-55.5 -28.5l-36 -14q-26 -10 -34 -21l-336 -477q-10 -16 -10 -27q0 -6 4 -14l330 -526q4 -6 23 -17q25 -10 45 -16 q35 -12 57.5 -29.5t22.5 -40.5q0 -31 -21.5 -43t-46.5 -12h-348q-27 0 -45.5 13.5t-18.5 41.5q0 16 17.5 36t58.5 34l23 8l-234 375l-256 -375l23 -8q80 -27 80 -70q0 -31 -21.5 -43t-46.5 -12h-299q-25 0 -45.5 12t-20.5 43z" />
<glyph unicode="Y" horiz-adv-x="1245" d="M-27 1305q0 31 21.5 43t46.5 12h338q25 0 46 -12.5t21 -42.5q0 -23 -17 -33t-36 -19q-16 -4 -26 -8l-25 -8q0 -4 2 -6l240 -420l231 418l-22 6q-35 8 -56.5 26.5t-21.5 43.5q0 31 20.5 43t44.5 12h279q25 0 46 -12.5t21 -42.5q0 -25 -22.5 -41.5t-56.5 -26.5 q-10 -4 -22.5 -8t-23.5 -8q-16 -8 -22 -19l-297 -540q-12 -20 -15 -33t-1 -19v-458q0 -14 13 -18.5t30 -10.5q12 -4 24 -9t23 -12q10 -6 20 -18t10 -29q0 -31 -21.5 -43t-45.5 -12h-320q-27 0 -45 13.5t-18 41.5q0 23 16.5 36t34.5 22q6 4 11 6t12 4q16 6 30.5 10t14.5 17 v460q0 10 -4.5 23.5t-14.5 30.5l-317 536q-8 12 -30.5 21.5t-37.5 13.5q-33 12 -55.5 29.5t-22.5 40.5z" />
<glyph unicode="Z" horiz-adv-x="1124" d="M16 63v39q0 23 10.5 43.5t22.5 40.5l664 1022h-469q-18 0 -29.5 -10t-21.5 -33q-4 -10 -9.5 -21t-11.5 -22q-6 -10 -18.5 -19t-30.5 -9q-23 0 -39 19.5t-16 62.5v122q0 31 18 46.5t47 15.5h768q29 0 48.5 -15.5t19.5 -46.5v-41q0 -25 -15 -49q-4 -10 -10 -18t-10 -19 l-664 -1021h549q18 0 28.5 10t20.5 33q6 10 11.5 21t11.5 22q8 10 20.5 19t30.5 9q16 0 34.5 -19.5t18.5 -62.5l2 -116q2 -31 -16 -48.5t-49 -17.5h-850q-66 0 -66 63z" />
<glyph unicode="[" horiz-adv-x="497" d="M16 0v1481h293v-166h-121v-1149h121v-166h-293z" />
<glyph unicode="\" horiz-adv-x="772" d="M6 1481h174l455 -1481h-172z" />
<glyph unicode="]" horiz-adv-x="505" d="M16 0v166h121v1149h-121v166h293v-1481h-293z" />
<glyph unicode="^" horiz-adv-x="606" d="M-6 1108l194 250h111l195 -250h-97l-153 119l-154 -119h-96z" />
<glyph unicode="_" horiz-adv-x="1296" d="M16 0v123h1051v-123h-1051z" />
<glyph unicode="`" horiz-adv-x="575" d="M16 1315q0 29 22.5 48t59.5 19q25 0 44.5 -9t47.5 -36l269 -231h-123l-262 137q-25 12 -41.5 30.5t-16.5 41.5z" />
<glyph unicode="a" horiz-adv-x="1034" d="M16 285q0 88 39 150.5t107.5 101t162 56t201.5 17.5h33q8 0 11 2t3 13v67q0 193 -176 193q-59 0 -115.5 -6.5t-111.5 -22.5q-27 2 -47.5 13.5t-20.5 39.5q0 25 16.5 41.5t37.5 26.5q84 39 241 39q197 0 292 -88t95 -252v-520q0 -20 33 -35q25 -6 39 -19q27 -14 27 -45 q-4 -33 -30 -45t-56 -12q-119 0 -187 61q-135 -61 -268 -61q-158 0 -242 78t-84 207zM217 289q0 -29 8 -56.5t29.5 -49t56.5 -35t88 -13.5q78 0 152 19q23 6 22 22v307q0 10 -2 11.5t-12 1.5q-100 -4 -165.5 -19.5t-104.5 -41t-55.5 -63.5t-16.5 -83z" />
<glyph unicode="b" horiz-adv-x="1079" d="M16 1368q0 18 20.5 34.5t50.5 29t60.5 20.5t53.5 8h59q33 0 60.5 -13t27.5 -48v-424v2q47 25 96.5 35t102.5 10q96 0 176 -38t137.5 -103.5t89 -152.5t31.5 -185q0 -102 -30.5 -200.5t-92 -174.5t-156 -122t-219.5 -46q-72 0 -156.5 20.5t-193.5 65.5l4 1214 q0 12 -13 11.5t-26 1.5l-24 4q-12 2 -23 6q-12 4 -23.5 14.5t-11.5 30.5zM346 186q0 -18 16.5 -27t38.5 -12q15 -1 30 -1h15q23 1 35 1q57 0 110.5 24t93.5 73t64.5 122.5t24.5 174.5q0 156 -66.5 240.5t-183.5 84.5q-16 0 -45.5 -1t-59.5 -5t-51.5 -15t-21.5 -32v-627z" />
<glyph unicode="c" horiz-adv-x="917" d="M16 485q0 104 33 198.5t94.5 167.5t151.5 116t205 43q51 0 114.5 -11.5t153.5 -33.5v-170q0 -29 -16.5 -47.5t-49.5 -18.5q-27 0 -47 20.5t-37 51.5q-6 10 -11 21.5t-13 21.5q-12 18 -25 24q-20 10 -40.5 13.5t-43.5 3.5q-49 0 -95 -28t-82 -80t-57.5 -125.5 t-21.5 -166.5q0 -82 23.5 -147.5t66.5 -111.5t101.5 -71.5t130.5 -25.5q39 0 85 8t101 27q25 0 48.5 -10.5t23.5 -38.5q0 -25 -32 -46.5t-77 -38t-95 -26.5t-87 -10q-117 0 -210 37t-157.5 101.5t-99.5 154t-35 198.5z" />
<glyph unicode="d" horiz-adv-x="1116" d="M16 449q0 90 25 192t80 188t142 143.5t214 57.5q37 0 77 -6t87 -16h4v6v286q0 10 -12 10.5t-23 2.5q-10 2 -22.5 4t-22.5 6q-12 4 -22.5 14.5t-14.5 30.5q2 18 24.5 35.5t51.5 30t59.5 19.5t51.5 7h82q33 0 49 -17.5t16 -45.5v-1237q0 -16 7.5 -23.5t23.5 -15.5l18 -6 q20 -8 33.5 -20.5t18.5 -35.5q0 -35 -29 -47t-57 -12q-123 0 -187 70q-74 -35 -141.5 -55.5t-132.5 -20.5q-111 0 -186.5 48t-123 117.5t-69 149t-21.5 140.5zM246 477q0 -170 65.5 -252t161.5 -82q14 0 45 1t61.5 6.5t53 16.5t22.5 32v641q0 12 -18 20q-68 31 -129 31 q-51 0 -98.5 -27.5t-84 -81t-58 -130.5t-21.5 -175z" />
<glyph unicode="e" horiz-adv-x="987" d="M16 510q0 106 33 199.5t92.5 162t142.5 108.5t185 40q197 0 292 -135t95 -369q0 -27 -16.5 -40t-42.5 -13h-557q4 -152 75.5 -240t188.5 -88q41 0 93 11.5t120 35.5q25 0 48 -9t23 -40q0 -27 -36.5 -51.5t-87 -43t-101.5 -29.5t-80 -11q-106 0 -192 39t-147.5 107.5 t-94.5 161.5t-33 204zM248 600q0 -10 2 -11t10 -1h389q10 0 12.5 1t2.5 11q-6 80 -20.5 135.5t-40 88t-63.5 47t-91 14.5q-92 0 -138.5 -71t-62.5 -214z" />
<glyph unicode="f" horiz-adv-x="688" d="M16 55q0 16 9.5 28.5t21.5 18.5q10 6 21.5 11.5t23.5 9.5q16 4 30.5 8t14.5 19v706q0 10 -16 10h-39q-35 0 -50.5 21.5t-15.5 52.5t15.5 51.5t50.5 20.5h55q0 184 102.5 266t301.5 82q31 0 49 -17.5t18 -46.5q0 -31 -19.5 -47t-47.5 -16q-98 0 -145.5 -47t-47.5 -174h92 q35 0 51.5 -20.5t16.5 -51.5t-15.5 -52.5t-50.5 -21.5h-94v-716q0 -14 13.5 -18.5t29.5 -8.5l22.5 -9t22.5 -12q10 -6 20.5 -18t10.5 -29q0 -29 -19.5 -42t-46.5 -13h-319q-25 0 -45.5 12t-20.5 43z" />
<glyph unicode="g" horiz-adv-x="1095" d="M16 -182q0 66 32 111.5t91 80.5q42 23 68 23h4q27 0 48.5 -16.5t21.5 -39.5q0 -16 -21 -36l-29 -29q-14 -16 -23 -32.5t-9 -37.5q0 -31 29.5 -54.5t90.5 -23.5h291q90 0 124 25t34 66q0 59 -49 95t-150 36h-159q-147 0 -226.5 54t-79.5 177q0 96 60 148 q-72 47 -105.5 121.5t-33.5 166.5q0 174 112.5 268.5t325.5 94.5q78 0 158 -25l28 -10l199 33q35 0 51 -17.5t16 -46.5q0 -59 -61 -63l-45 -15q35 -47 50 -104t15 -111q0 -166 -104 -265t-317 -99q-61 0 -131 14l-13 -10q-6 -4 -14 -11t-12 -14q-4 -8 -4 -18 q0 -29 28.5 -46.5t102.5 -17.5h159q180 0 274.5 -81.5t94.5 -245.5q0 -133 -85 -197.5t-243 -64.5h-329q-41 0 -87.5 8t-86 32.5t-65.5 66.5t-26 110zM238 653q0 -43 7 -84t29.5 -72.5t64.5 -51t110 -19.5q66 0 106.5 19.5t64 52t33 74.5t9.5 90q0 45 -10.5 83.5t-35 67.5 t-65.5 46.5t-105 17.5q-45 0 -94 -19q-39 -16 -61.5 -34.5t-34.5 -43t-15 -56.5t-3 -71z" />
<glyph unicode="h" horiz-adv-x="1198" d="M16 55q0 16 9.5 28.5t21.5 18.5q10 6 21.5 11.5t23.5 9.5q16 6 30.5 9t14.5 18v1150q0 12 -13 11.5t-26 1.5l-24 4q-12 2 -23 6q-12 4 -23.5 14.5t-11.5 30.5q0 18 20.5 34.5t50.5 29t60.5 20.5t53.5 8h80q31 0 49 -17.5t18 -45.5v-445q123 74 252 74q174 0 261 -93 t85 -257l-2 -524q0 -14 14.5 -18.5t30.5 -10.5l25 -8q12 -4 22 -13q10 -6 20.5 -18t10.5 -29q0 -31 -21.5 -43t-46.5 -12h-319q-25 0 -45.5 12.5t-20.5 42.5q0 29 27 43.5t49 24.5q16 6 31.5 10t15.5 17v526q0 74 -53 131t-147 57q-78 0 -189 -49v-665q0 -14 13.5 -18.5 t29.5 -8.5l22.5 -9t22.5 -12q10 -6 20.5 -18t10.5 -29q0 -29 -19.5 -42t-46.5 -13h-319q-25 0 -45.5 12t-20.5 43z" />
<glyph unicode="i" horiz-adv-x="563" d="M16 53q0 29 22.5 48.5t51.5 33.5q10 4 19.5 8t17.5 11q10 8 10 14v684q0 12 -13 12t-26 2q-12 2 -24.5 3t-22.5 5q-12 4 -23.5 14.5t-11.5 31.5q0 18 19.5 34.5t49.5 28.5t61.5 19.5t56.5 7.5h78q29 0 48 -15.5t19 -46.5v-778q0 -14 14 -22l31 -15q27 -12 45 -27 q10 -10 19.5 -22t9.5 -31q0 -29 -19.5 -41t-46.5 -12h-319q-25 0 -45.5 12t-20.5 41zM117 1184q0 48 29 71q32 25 85 25t85 -25.5t32 -76.5t-31.5 -76t-85.5 -25q-53 0 -83.5 26t-30.5 81z" />
<glyph unicode="j" horiz-adv-x="557" d="M-170 -297q0 31 19.5 46t52.5 15q51 -12 112 -12q68 0 97.5 26.5t29.5 80.5v989q0 10 -12 10t-25 2q-10 2 -22 3t-23 5q-12 4 -23 14.5t-13 30.5q0 20 21.5 38t51 30t60 19.5t51.5 7.5h80q66 0 65 -64v-1048q0 -137 -61.5 -219.5t-190.5 -82.5q-59 0 -108 11.5t-85 28 t-56.5 35t-20.5 34.5zM123 1178q0 102 115 102q53 0 83.5 -25.5t30.5 -76.5t-30.5 -77t-83.5 -26t-84 26t-31 77z" />
<glyph unicode="k" horiz-adv-x="1118" d="M16 55q0 16 9.5 28.5t21.5 18.5q10 6 21.5 11.5t23.5 9.5q16 6 30.5 9t14.5 18v1150q0 12 -13 11.5t-26 1.5l-24 4q-12 2 -23 6q-12 4 -23.5 14.5t-11.5 30.5q0 18 20.5 34.5t50.5 29t60.5 20.5t53.5 8h80q31 0 49 -17.5t18 -45.5v-729l195 204q8 8 8 11q0 2 -2 0t-2 0 q-6 4 -15 8l-16 8q-25 12 -42 29.5t-17 34.5q0 29 18.5 41t44.5 12h281q25 0 46 -12.5t21 -40.5q0 -25 -21.5 -42.5t-55.5 -31.5q-23 -10 -48.5 -21.5t-42.5 -27.5l-245 -256q-10 -10 -11.5 -14.5t-1.5 -6.5t4 -6l396 -393l24 -14q10 -4 22.5 -9.5t22.5 -9.5 q33 -14 54.5 -32.5t21.5 -35.5q0 -29 -16.5 -46t-48.5 -17h-121q-51 0 -88 37l-365 352v-239q0 -14 13.5 -18.5t29.5 -8.5l22.5 -9t22.5 -12q10 -6 20.5 -18t10.5 -29q0 -29 -19.5 -42t-46.5 -13h-319q-25 0 -45.5 12t-20.5 43z" />
<glyph unicode="l" horiz-adv-x="552" d="M16 55q0 16 9.5 28.5t21.5 18.5q10 6 21.5 11.5t23.5 9.5q16 6 30.5 9t14.5 18v1150q0 12 -13 11.5t-26 1.5l-24 4q-12 2 -23 6q-12 4 -23.5 14.5t-11.5 30.5q0 18 20.5 34.5t50.5 29t60.5 20.5t53.5 8h80q31 0 49 -17.5t18 -45.5v-1247q0 -14 13.5 -18.5t29.5 -8.5 l22.5 -9t22.5 -12q10 -6 20.5 -18t10.5 -29q0 -29 -19.5 -42t-46.5 -13h-319q-25 0 -45.5 12t-20.5 43z" />
<glyph unicode="m" horiz-adv-x="1792" d="M16 53q0 31 26 44.5t50 23.5q16 6 30.5 10t14.5 16v697q0 12 -13 12t-26 2q-12 2 -24.5 3t-22.5 5q-12 4 -23.5 13.5t-11.5 29.5q0 18 19.5 35t49.5 29t61.5 20t56.5 8h78q29 0 48 -16t19 -45v-20q63 47 128 72.5t132 25.5q74 0 136.5 -30t101.5 -77q82 53 158.5 82 t150.5 29q164 0 248 -97.5t82 -252.5l-2 -525q0 -14 14 -17t31 -9q12 -4 23.5 -8t21.5 -13q12 -6 22.5 -17t10.5 -30q0 -29 -21.5 -41t-46.5 -12h-319q-27 0 -45.5 12.5t-18.5 40.5q0 18 9.5 29.5t21.5 17.5q10 8 21.5 12.5t23.5 8.5q16 6 30.5 9t14.5 17v525 q0 35 -12.5 69.5t-36 61t-56 43t-73.5 16.5t-89 -17.5t-104 -56.5q8 -29 10.5 -57.5t2.5 -58.5v-522q0 -14 13 -18.5t30 -10.5q27 -8 45 -21q10 -6 20 -17t10 -30q0 -29 -19.5 -41t-45.5 -12h-322q-27 0 -45 12.5t-18 40.5q0 31 25.5 44.5t50.5 23.5q16 6 30.5 10t14.5 16 v525q0 33 -11.5 66.5t-33 60t-50 43t-65.5 16.5q-41 0 -89 -21.5t-110 -60.5v-626q0 -14 13.5 -18.5t29.5 -10.5q27 -8 45 -21q10 -6 20.5 -17t10.5 -30q0 -29 -19.5 -41t-46.5 -12h-319q-25 0 -45.5 12t-20.5 41z" />
<glyph unicode="n" horiz-adv-x="1253" d="M16 53q0 31 26 44.5t50 23.5q16 6 30.5 10t14.5 16v697q0 12 -13 12t-26 2q-12 2 -24.5 3t-22.5 5q-12 4 -23.5 13.5t-11.5 29.5q0 18 19.5 35t49.5 29t61.5 19t56.5 7h78q29 0 48 -15t19 -46v-43q74 55 146.5 87t148.5 32t132 -25.5t95 -72t57.5 -109t18.5 -135.5 l-2 -522q0 -14 14.5 -18.5t30.5 -10.5q29 -6 47 -21q10 -6 20.5 -17t10.5 -30q0 -29 -21.5 -41t-46.5 -12h-319q-25 0 -45.5 12.5t-20.5 40.5q0 31 27 44.5t49 23.5q16 6 31.5 10t15.5 16v525q0 33 -10 65.5t-30.5 58t-48 41t-64.5 15.5q-47 0 -103.5 -25.5t-132.5 -72.5 v-604q0 -14 13.5 -18.5t29.5 -10.5q27 -8 45 -21q10 -6 20.5 -17t10.5 -30q0 -29 -19.5 -41t-46.5 -12h-319q-25 0 -45.5 12t-20.5 41z" />
<glyph unicode="o" horiz-adv-x="1024" d="M16 487q0 176 71 307.5t204 182.5q92 35 180 35q98 0 182 -37t145.5 -104.5t95.5 -165t34 -218.5q0 -109 -32 -200.5t-91.5 -158.5t-144.5 -104.5t-189 -37.5q-102 0 -186 36.5t-143.5 102t-92.5 158.5t-33 204zM233 487q0 -154 57.5 -251t180.5 -97q113 0 177.5 90 t64.5 250q0 182 -59.5 284.5t-180.5 102.5q-53 0 -98 -24q-72 -35 -107 -127.5t-35 -227.5z" />
<glyph unicode="p" horiz-adv-x="1114" d="M16 -346q0 23 16.5 36t37.5 23q4 2 10 4l12 4q16 6 30.5 10.5t14.5 18.5v1090q0 10 -13 10t-26 2q-12 2 -24.5 3t-22.5 5q-14 6 -24.5 17.5t-10.5 29.5t20.5 34.5t49.5 29t60.5 20.5t54.5 8h80q27 0 44 -12t21 -37q63 31 120.5 48.5t117.5 17.5q94 0 168.5 -42 t126 -110.5t78 -160t26.5 -189.5q0 -109 -30.5 -205t-86 -168.5t-134.5 -115.5t-173 -43q-51 0 -102 16t-109 53v-301q0 -14 13.5 -18t29.5 -11l22.5 -9t22.5 -11t20.5 -18.5t10.5 -28.5q0 -29 -19.5 -42t-46.5 -13h-319q-25 0 -45.5 12t-20.5 43zM348 205 q59 -41 105.5 -57.5t81.5 -16.5q55 0 101 29.5t79 82t51 125t18 158.5q0 72 -17 134.5t-48 108.5t-74 72.5t-92 26.5q-41 0 -92 -14t-113 -39v-610z" />
<glyph unicode="q" horiz-adv-x="1069" d="M16 463q0 98 35 197.5t101.5 179.5t161 130t214.5 50q72 0 154 -25.5t182 -81.5v-1163q0 -12 14.5 -16t28.5 -10q31 -12 54.5 -30t23.5 -40q0 -29 -19.5 -42t-45.5 -13h-302q-27 0 -45 13t-18 42q0 23 15.5 36t33.5 23q4 2 10 4l13 4q14 6 27.5 10.5t13.5 18.5v293 q-100 -53 -215 -53q-96 0 -177 39t-138.5 104.5t-89.5 151.5t-32 178zM225 457q0 -76 21.5 -136.5t59.5 -102.5t87 -64.5t105 -22.5q18 0 46.5 2t56.5 9.5t47.5 19.5t19.5 31v632q0 18 -19.5 29.5t-44 15.5t-49.5 5.5t-37 1.5q-51 0 -103.5 -30t-94 -85t-68.5 -133t-27 -172 z" />
<glyph unicode="r" horiz-adv-x="886" d="M16 53q0 31 26 44.5t50 23.5q16 6 30.5 10t14.5 16v697q0 12 -13 11t-26 3q-27 0 -47 6q-12 4 -23.5 14.5t-11.5 30.5q0 18 19.5 35t49.5 29t61.5 19t56.5 7h78q29 0 48 -15t19 -46v-31q102 102 230 103q29 0 63.5 -8.5t83.5 -26.5l23 -209v-2q0 -2 1 -3t1 -3 q0 -31 -19.5 -41t-36.5 -10q-20 -2 -31.5 7t-15.5 19q-4 4 -6 9.5t-6 9.5q-2 8 -12 20l-41 53q-31 25 -66 25q-68 0 -168 -92v-608q0 -14 13.5 -18.5t29.5 -10.5q27 -8 45 -21q10 -6 20.5 -17t10.5 -30q0 -29 -19.5 -41t-46.5 -12h-319q-25 0 -45.5 12t-20.5 41z" />
<glyph unicode="s" horiz-adv-x="929" d="M16 287q0 35 22.5 46t51.5 11q47 0 64 -45l30 -84q16 -35 57.5 -60.5t114.5 -25.5q115 0 164 47t49 119q0 35 -54 77t-189 89t-205 120.5t-70 178.5q0 127 96.5 192.5t262.5 65.5q66 0 134 -13.5t146 -48.5l43 -215q0 -29 -19.5 -42t-45.5 -13q-27 0 -46.5 11.5 t-27.5 33.5l-29 82q-29 41 -58.5 62.5t-80.5 21.5q-92 0 -130 -36t-38 -89q0 -41 54.5 -87t187.5 -93q276 -96 276 -303q0 -147 -100.5 -219t-280.5 -72q-76 0 -157.5 17.5t-180.5 58.5z" />
<glyph unicode="t" horiz-adv-x="788" d="M16 940q0 29 15.5 52.5t52.5 21.5l39 -2q10 0 12 2t2 12v156q0 20 4 50t17.5 58.5t38 49t63.5 20.5h21q29 0 48 -15.5t19 -46.5v-286l154 2q35 2 50 -20.5t15 -53.5q0 -29 -15 -50.5t-50 -21.5h-156v-536q0 -61 9.5 -99t26.5 -59.5t44 -29t61 -7.5q27 0 52.5 7.5 t48.5 17.5l12 4q2 0 5 1t7 1q29 0 42.5 -18.5t13.5 -40.5q0 -27 -29 -47.5t-68 -36t-79.5 -23.5t-65.5 -8q-141 0 -216 82t-75 256v536l-53 -2q-35 -2 -50.5 20.5t-15.5 53.5z" />
<glyph unicode="u" horiz-adv-x="1185" d="M16 909q0 16 19.5 32.5t50.5 29t66.5 20.5t68.5 8h60q29 0 48 -15t19 -46v-590q0 -74 44 -132t122 -58q43 0 98.5 20.5t124.5 67.5v596q0 12 -13 11t-26 1q-29 0 -47 8q-14 4 -24.5 15.5t-10.5 31.5q0 31 62.5 60.5t202.5 29.5q66 0 65 -61v-791q0 -12 12.5 -12t24.5 -2 t23.5 -3t23.5 -5q10 -4 23.5 -13.5t13.5 -29.5q0 -18 -21.5 -35.5t-52 -30t-62.5 -19.5t-50 -7l-70 2q-74 4 -74 71v41q-147 -106 -282 -106q-158 0 -238 97.5t-80 252.5v494q0 12 -13 11t-26 1q-29 0 -47 8q-14 4 -24.5 15.5t-10.5 31.5z" />
<glyph unicode="v" horiz-adv-x="1122" d="M-27 948q4 29 23.5 40t44.5 11h319q27 0 46.5 -11t19.5 -40q0 -23 -21.5 -38t-50.5 -27q-8 -4 -16 -7.5t-16 -7.5q0 -2 -5 -2q0 -2 1 -4t1 -6l201 -528l185 534q0 2 -7 2q-8 6 -16 9.5t-18 7.5q-29 12 -48.5 29.5t-19.5 43.5q12 20 26.5 32.5t36.5 12.5l263 2 q27 0 46 -12t19 -41q0 -31 -26.5 -45t-49.5 -24l-39 -20q-18 -9 -26 -30l-307 -829h-97l-327 827q-6 18 -23.5 29.5t-42.5 22.5q-25 10 -50.5 24t-25.5 45z" />
<glyph unicode="w" horiz-adv-x="1605" d="M-27 948q4 29 23.5 40t44.5 11h319q27 0 46.5 -11t19.5 -40q0 -23 -20.5 -38t-49.5 -27q-8 -4 -16 -7.5t-16 -7.5l-5 -4h-2l166 -499l201 575q10 27 28.5 43t49.5 16q29 0 47 -17t29 -44l198 -571l146 495q0 -2 -6 4q-8 4 -16.5 7.5t-16.5 7.5q-29 12 -48.5 28.5 t-19.5 38.5q0 29 18.5 40t45.5 11h262q27 0 46 -11t19 -40q0 -31 -27.5 -45t-49.5 -24q-18 -10 -38 -19.5t-26 -30.5l-270 -829h-97l-219 641l-241 -641h-95l-288 829q-6 20 -25.5 29.5t-38.5 20.5q-27 10 -52.5 24t-25.5 45z" />
<glyph unicode="x" horiz-adv-x="1183" d="M16 51q0 25 20.5 41.5t53.5 28.5q16 4 40 13t34 24l242 336l-211 344q-14 14 -39 22l-43 14q-35 12 -55.5 30t-20.5 44q0 29 18.5 40t44.5 11h342q27 0 46.5 -11t19.5 -40q0 -20 -21.5 -37.5t-50.5 -27.5q-8 -4 -16 -7.5t-17 -7.5l129 -206l144 206q-6 4 -14.5 6.5 t-18.5 6.5q-29 10 -48.5 26.5t-19.5 38.5q0 31 19.5 43t46.5 12h281q25 0 44 -12t23 -41q-4 -25 -26.5 -41t-53.5 -28q-14 -6 -37.5 -16.5t-33.5 -20.5l-222 -316l254 -366q14 -14 38 -22.5t42 -14.5q35 -12 56.5 -28.5t21.5 -41.5q0 -29 -19.5 -41t-45.5 -12h-363 q-29 0 -46 12.5t-22 40.5q4 29 28 44.5t52 25.5l33 12l-147 232q-12 -18 -33 -46t-44.5 -60t-48 -65.5t-46.5 -64.5q14 -4 32.5 -10t34 -15.5t25.5 -21.5t10 -31q0 -29 -21.5 -41t-46.5 -12h-278q-25 0 -45.5 11t-20.5 40z" />
<glyph unicode="y" horiz-adv-x="1132" d="M-27 948q4 29 23.5 40t44.5 11h330q27 0 46 -12t19 -41q0 -16 -12 -25.5t-18 -13.5q-23 -10 -41 -16q-10 -4 -21.5 -6t-15.5 -11q0 -2 1 -4t1 -6l186 -536l189 542q0 10 -13.5 13.5t-25.5 7.5l-21 8l-20 8q-29 14 -29 39q0 29 19.5 41t43.5 12l273 2q27 0 46 -13t19 -42 q0 -23 -32 -41q-27 -14 -63 -27.5t-46 -41.5l-383 -1057q-35 -98 -94.5 -138t-130.5 -42q-29 0 -68 9t-74.5 26.5t-60.5 43t-25 58.5q0 29 17.5 43t44.5 14q25 0 41 -9t37 -20q16 -10 32.5 -16t45.5 -6t54 18.5t42 65.5l72 194l-291 816q-6 14 -18.5 24t-28 18.5t-33 14.5 t-29.5 12q-10 4 -21.5 14.5t-11.5 28.5z" />
<glyph unicode="z" horiz-adv-x="952" d="M16 63q0 23 6.5 40.5t16.5 35.5l498 746v2l2 2v5q0 1 -11 -7h9h2q4 -4 2 -7t-2 -6h-9h-327q-16 0 -23.5 -13t-17.5 -30q-6 -10 -11.5 -21t-15.5 -22q-10 -10 -22.5 -18t-30.5 -8q-29 0 -47.5 15.5t-18.5 47.5l45 174h660q33 0 49 -17t16 -46q0 -41 -26 -76l-490 -717h330 q8 0 14 10l11 15q8 12 12 20q16 29 35.5 49.5t48.5 20.5q66 0 65 -65l-45 -193h-659q-66 0 -66 63z" />
<glyph unicode="{" horiz-adv-x="647" d="M16 739q0 16 11.5 26.5t21.5 16.5q70 35 109 136.5t39 285.5q0 193 85 294t261 101q27 0 46 -12t19 -41t-19.5 -40t-43.5 -13q-70 -6 -107 -61.5t-37 -176.5q0 -51 7.5 -111.5t7.5 -107.5q0 -229 -146 -297q74 -33 110 -108.5t36 -188.5q0 -47 -7.5 -107.5t-7.5 -111.5 q0 -121 37 -175t107 -60q25 -2 44 -13.5t19 -40.5t-19.5 -42t-45.5 -13q-176 0 -261 101.5t-85 293.5q0 184 -39 287t-109 137q-20 10 -26.5 20.5t-6.5 20.5z" />
<glyph unicode="|" horiz-adv-x="385" d="M16 0v1481h172v-1481h-172z" />
<glyph unicode="}" horiz-adv-x="661" d="M16 -66q0 29 19.5 40.5t44.5 13.5q68 6 105.5 60t37.5 175q0 49 -6 108.5t-6 106.5q0 115 35 192t108 109q-74 35 -108.5 111t-34.5 190q0 47 6 106.5t6 108.5q0 121 -38 176.5t-105 61.5q-25 2 -44.5 13.5t-19.5 39.5q0 29 20.5 41t45.5 12q174 0 260 -101t86 -294 q0 -184 38 -285.5t107 -136.5q10 -6 22.5 -16t12.5 -27q0 -10 -7 -20t-28 -21q-70 -33 -107.5 -135t-37.5 -289q0 -193 -86 -294t-260 -101q-25 0 -45.5 12t-20.5 43z" />
<glyph unicode="~" horiz-adv-x="1067" d="M16 518v203q74 72 137.5 97.5t125.5 25.5q27 0 78 -14.5t108 -30.5q55 -16 101 -29.5t67 -13.5q20 0 43.5 5t55.5 21.5t72 48t93 84.5v-200q-72 -72 -136.5 -97.5t-127.5 -25.5q-25 0 -77 13t-110 30q-29 10 -55 17t-49 14q-47 12 -63 12q-20 0 -44 -4t-53.5 -20.5 t-70 -48.5t-95.5 -87z" />
<glyph unicode="&#xa1;" horiz-adv-x="436" d="M16 1262q0 51 31 76.5t84 25.5t85 -25.5t32 -76.5q0 -47 -32 -74t-85 -27t-84 25t-31 76zM18 96v10l39 963q0 33 21.5 48.5t52.5 15.5t52.5 -15.5t21.5 -48.5l41 -963q4 -53 -29 -77.5t-86 -24.5q-51 0 -83 21.5t-30 70.5z" />
<glyph unicode="&#xa2;" horiz-adv-x="948" d="M16 487q0 78 18.5 152t54.5 136.5t87 113.5t117 82q51 25 117 37v59q0 29 15 46t48 17q31 0 49.5 -17t18.5 -46v-53q43 -4 97 -13.5t130 -31.5v-172q0 -29 -16.5 -47.5t-49.5 -18.5q-27 0 -47 21.5t-37 52.5q-10 20 -24 43q-12 16 -23 24q-20 8 -30 11v-758h10 q76 0 186 37q25 0 48.5 -10.5t23.5 -40.5q0 -25 -32 -46.5t-77 -38t-95 -26.5t-87 -10h-4l27 24v-57q0 -31 -19.5 -46t-48.5 -15q-33 0 -48 17t-15 46v41q-27 4 -52.5 9t-48.5 16q-143 57 -218 176.5t-75 285.5zM229 487q0 -123 47.5 -207.5t133.5 -123.5v716q-4 -4 -9.5 -5 t-9.5 -5q-68 -41 -115 -139.5t-47 -235.5z" />
<glyph unicode="&#xa3;" horiz-adv-x="991" d="M16 63v78q2 27 15.5 51.5t29.5 47.5t30.5 48t25.5 56q6 23 11 62.5t5 95.5h-51q-31 0 -48.5 18.5t-17.5 46.5q0 31 18.5 46.5t47.5 15.5h55v73h-55q-66 0 -66 64q0 31 18.5 47t47.5 16h55v7q0 268 116 395t308 127q25 0 64 -5t75.5 -17.5t63.5 -32t27 -46.5 q0 -63 -70 -63q-35 6 -65.5 8t-59.5 2q-78 0 -126 -21.5t-73.5 -63.5t-34 -103.5t-8.5 -143.5l-2 -36v-7h289q29 0 48.5 -16t19.5 -47q0 -29 -18.5 -46.5t-49.5 -17.5h-293v-73h293q29 0 48.5 -15.5t19.5 -46.5q0 -29 -18.5 -47t-49.5 -18h-295q-2 -53 -7 -85t-11 -65 q-16 -86 -43 -141q-16 -35 -17 -47q0 -4 4 -1t11 3h399q4 0 8 12q8 12 12 21q2 8 11 28q14 37 34.5 64.5t55.5 27.5q33 0 49 -17t16 -46v-193q0 -29 -16 -46t-49 -17h-721q-66 0 -66 63z" />
<glyph unicode="&#xa4;" horiz-adv-x="966" d="M4 432l123 113q-53 78 -53 172q0 49 15 93t38 79l-123 115l117 108l121 -115q37 23 88 37.5t96 14.5q96 0 182 -52l121 115l117 -108l-121 -115q29 -41 42 -85t13 -87q0 -88 -55 -172l121 -113l-117 -110l-121 114q-39 -23 -86 -37t-96 -14q-47 0 -95 13.5t-89 37.5 l-121 -114zM229 717q0 -35 15.5 -71t42.5 -60q27 -25 61.5 -39.5t77.5 -14.5q41 0 77 14.5t63.5 40t43 59.5t15.5 71t-15.5 70.5t-43 59t-63.5 40t-77 14.5q-82 0 -139.5 -53t-57.5 -131z" />
<glyph unicode="&#xa5;" horiz-adv-x="1306" d="M-27 1305q0 31 21.5 43t46.5 12h338q25 0 46 -12.5t21 -42.5q0 -23 -17 -33t-36 -19q-16 -4 -26 -8l-25 -8q0 -4 2 -6l240 -420l231 418l-22 6q-35 8 -56.5 26.5t-21.5 43.5q0 31 20.5 43t44.5 12h279q25 0 46 -12.5t21 -42.5q0 -25 -22.5 -41.5t-56.5 -26.5 q-10 -4 -22.5 -8t-23.5 -8q-16 -8 -22 -19l-221 -401h127q35 0 56.5 -16.5t21.5 -47.5t-21.5 -47t-56.5 -16h-197l-6 -12q-10 -16 -13 -27.5t-5 -18.5h221q35 0 56.5 -16t21.5 -47t-21.5 -47.5t-56.5 -16.5h-219v-337q0 -14 13 -18.5t30 -10.5q12 -4 24 -9t23 -12 q10 -6 20 -18t10 -29q0 -31 -21.5 -43t-45.5 -12h-320q-27 0 -45 13.5t-18 41.5q0 23 16.5 36t34.5 22q6 4 11 6t12 4q16 6 30.5 10t14.5 17v339h-219q-33 0 -56.5 15.5t-19.5 50.5q2 29 22.5 45t53.5 16h217q0 23 -17 48l-6 10h-194q-33 0 -56.5 15.5t-19.5 49.5 q2 29 22.5 45.5t53.5 16.5h120l-237 399q-8 12 -30.5 21.5t-37.5 13.5q-33 12 -55.5 29.5t-22.5 40.5z" />
<glyph unicode="&#xa6;" horiz-adv-x="382" d="M16 0v659h172v-659h-172zM16 821v660h172v-660h-172z" />
<glyph unicode="&#xa7;" horiz-adv-x="897" d="M16 1114q0 74 25 135.5t69 107.5t108.5 71.5t143.5 25.5h5q31 0 80 -8t95 -19.5t78.5 -26t32.5 -26.5v-215h-100q-4 43 -24.5 77t-50 56.5t-64.5 33.5t-68 11h-14q-72 0 -109 -36.5t-37 -96.5q0 -51 62.5 -112.5t208.5 -126.5q82 -37 135 -75t85 -80t44 -89t12 -100 q0 -109 -41 -196t-133 -142q98 -57 140 -126t42 -171q0 -98 -32.5 -173t-89 -126.5t-129 -77t-152.5 -25.5h-16q-35 0 -83.5 7.5t-93.5 19.5t-76.5 26.5t-31.5 26.5v215h100q4 -80 63.5 -127t137.5 -51q111 6 171 62.5t60 140.5q0 45 -69.5 107.5t-233.5 140.5 q-127 59 -184 137t-57 190q0 117 55 200t153 118q-111 53 -164 128.5t-53 188.5zM195 569q0 -47 51 -101t172 -114q66 23 103.5 71t37.5 114v6l-4 24q-10 20 -28.5 44t-46 43.5t-62.5 32.5t-78 13q-70 0 -107.5 -37t-37.5 -96z" />
<glyph unicode="&#xa8;" horiz-adv-x="620" d="M16 1202q0 33 27 48.5t70 15.5t70.5 -15.5t27.5 -48.5t-27.5 -48t-70.5 -15t-70 15t-27 48zM233 1202q0 33 27 48.5t70 15.5t70.5 -15.5t27.5 -48.5t-27.5 -48t-70.5 -15t-70 15t-27 48z" />
<glyph unicode="&#xa9;" horiz-adv-x="1724" d="M16 719q0 145 58.5 279.5t162 237.5t244 164.5t305.5 61.5q150 0 288 -55t244.5 -154.5t171 -235.5t64.5 -298q0 -147 -60 -281.5t-164.5 -238t-246 -164t-303.5 -60.5q-158 0 -296 59.5t-242.5 162t-165 236.5t-60.5 286zM139 719q0 -133 53.5 -247t141.5 -198 t203.5 -132t242.5 -48q133 0 252 50.5t207 135.5t139.5 198.5t51.5 240.5q0 139 -55.5 253.5t-145.5 197.5t-206 128t-237 45q-131 0 -241.5 -41.5t-218.5 -142.5q-82 -74 -134.5 -189.5t-52.5 -250.5zM340 717q0 256 114.5 384t340.5 128q68 0 133 -16.5t137 -51.5v-141 q0 -37 -14.5 -51.5t-32.5 -14.5q-23 0 -37 16.5t-25 41.5l-12 39q-23 29 -57.5 46t-93.5 13q-123 -6 -201 -103.5t-78 -289.5q0 -98 21.5 -172t60.5 -123t91 -73.5t112 -24.5q59 0 93 14t52 43l12 39q8 23 21.5 42t40.5 19q18 0 32.5 -15t14.5 -54v-142q-72 -35 -138.5 -50 t-131.5 -15q-223 0 -339 128t-116 384z" />
<glyph unicode="&#xaa;" horiz-adv-x="790" d="M16 1235q0 63 29 105t78 69t113.5 38t136.5 11h12v37q0 53 -24.5 76.5t-73.5 23.5q-41 0 -77 -4t-73 -14q-23 2 -43 12t-20 41q0 25 15 37t30 21q59 27 168 26q139 0 207.5 -60.5t68.5 -170.5v-326q0 -2 8 -6l13 -4q45 -14 45 -55q-6 -29 -27.5 -40.5t-48.5 -11.5 q-82 0 -127 37q-92 -37 -176 -37q-115 0 -174.5 54.5t-59.5 140.5zM188 1239q0 -29 18.5 -53.5t82.5 -24.5q23 0 45 3t51 7v181q-61 -4 -100 -13.5t-60.5 -24t-29 -33.5t-7.5 -42z" />
<glyph unicode="&#xab;" horiz-adv-x="1259" d="M16 563q0 10 6.5 20.5t10.5 14.5l442 494q12 16 29.5 21t40.5 5l102 2q16 0 30.5 -8t14.5 -31q0 -8 -3 -15t-7 -15l-371 -484q-2 -2 -2 -8t2 -6l365 -479q14 -23 14 -37q0 -23 -15.5 -30t-27.5 -7h-102q-35 0 -78 25l-432 499q-19 19 -19 39zM446 563q0 20 15 35l444 494 q12 16 29.5 21t38.5 5l102 2q16 0 30.5 -8t14.5 -31q0 -8 -3 -15t-7 -15l-371 -480v-4v-4q0 -8 2 -12l363 -477q14 -23 14 -37q0 -23 -15.5 -30t-27.5 -7h-102q-41 0 -80 27l-432 499q-15 27 -15 37z" />
<glyph unicode="&#xac;" horiz-adv-x="1032" d="M16 631v137h891v-494h-149v357h-742z" />
<glyph unicode="&#xad;" horiz-adv-x="626" />
<glyph unicode="&#xae;" horiz-adv-x="1724" d="M16 719q0 145 58.5 279.5t162 237.5t244 164.5t305.5 61.5q150 0 288 -55t244.5 -154.5t171 -235.5t64.5 -298q0 -147 -60 -281.5t-164.5 -238t-246 -164t-303.5 -60.5q-158 0 -296 59.5t-242.5 162t-165 236.5t-60.5 286zM139 719q0 -133 53.5 -247t141.5 -198 t203.5 -132t242.5 -48q133 0 252 50.5t207 135.5t139.5 198.5t51.5 240.5q0 139 -55.5 253.5t-145.5 197.5t-206 128t-237 45q-131 0 -241.5 -41.5t-218.5 -142.5q-82 -74 -134.5 -189.5t-52.5 -250.5zM408 252q0 16 7 26.5t17 14.5q8 6 16.5 9t18.5 7t19.5 4t9.5 11v786 q0 8 -10.5 8t-20.5 4q-23 10 -40 25.5t-17 32.5q0 25 16 36t37 11h309q160 0 257 -71t97 -216q0 -57 -23.5 -106.5t-59 -87t-77.5 -59t-81 -23.5l209 -336q4 -10 16 -14.5t22 -8.5q23 -10 38.5 -22.5t15.5 -30.5q0 -27 -18.5 -37t-41.5 -10h-90q-43 0 -67 41l-238 387 q-6 12 -18 12h-43q-4 0 -4 -2v-319q0 -10 24 -13q23 -8 44.5 -21.5t21.5 -37.5q0 -25 -17.5 -36t-38.5 -11h-237q-20 0 -36.5 11t-16.5 36zM664 768h2h86q106 0 154 42t48 126q0 82 -48 123t-154 45l-78 2h-6h-4v-338z" />
<glyph unicode="&#xaf;" horiz-adv-x="776" d="M16 1194v127h568v-127h-568z" />
<glyph unicode="&#xb0;" horiz-adv-x="724" d="M16 1186q0 49 19.5 94t56.5 80t88 55.5t113 20.5q61 0 112.5 -22.5t87 -57.5t56 -80t20.5 -90q0 -43 -19.5 -88t-55 -81t-88 -58.5t-115.5 -22.5t-114.5 21.5t-86.5 56.5t-54.5 80t-19.5 92zM172 1186q0 -49 37 -79t84 -30q41 0 80 30t39 79q0 27 -12.5 47t-30 33.5 t-38 20.5t-38.5 7q-43 0 -82 -27.5t-39 -80.5z" />
<glyph unicode="&#xb1;" horiz-adv-x="991" d="M16 682q0 33 21 51q20 18 53 19l266 -4l-4 241q-4 35 21 53q23 18 55.5 16.5t52.5 -18.5q10 -12 14.5 -25.5t4.5 -25.5l6 -246l268 -4q16 0 30.5 -2t26.5 -14q18 -18 20.5 -51t-17.5 -56q-29 -18 -58 -18l-266 6l4 -266q4 -31 -18 -53q-23 -20 -56.5 -18.5t-52.5 20.5 q-20 20 -20 53l-7 264l-272 4q-14 2 -27.5 5t-23.5 14q-12 12 -16.5 25.5t-4.5 29.5zM41 176q2 33 22.5 50.5t53.5 17.5h655q35 0 56.5 -17.5t21.5 -50.5q0 -37 -24.5 -54.5t-53.5 -17.5h-657q-35 0 -56.5 18.5t-17.5 53.5z" />
<glyph unicode="&#xb2;" horiz-adv-x="729" d="M16 1096v41q2 20 14.5 37.5t30.5 31.5l220 174q57 47 57 117q-2 43 -23.5 59.5t-85.5 16.5q-29 0 -59.5 -3t-69.5 -14q-4 0 -9 -1t-13 -1q-43 0 -62 43q0 57 47 70q106 47 201 47q127 0 190.5 -57.5t61.5 -145.5q0 -72 -48 -131t-124 -118l-92 -72h149l-2 2q4 4 6.5 8 t6.5 8q10 16 28.5 30.5t42.5 14.5q27 0 44.5 -13t17.5 -42l-21 -96q-4 -20 -18 -40t-47 -20h-383q-27 0 -44.5 13.5t-15.5 40.5z" />
<glyph unicode="&#xb3;" horiz-adv-x="727" d="M16 995q14 49 72 49q51 -16 89 -20t73 -4q63 0 95 29.5t32 97.5q0 47 -25.5 67.5t-72.5 20.5h-60q-29 0 -44 16.5t-15 44.5v19q0 29 16.5 42t42.5 13h60q45 0 63 19.5t18 60.5q0 49 -29.5 84t-92.5 35q-25 0 -56.5 -6.5t-75.5 -22.5q-59 0 -71 51q0 25 26.5 45.5t63.5 36 t74 23.5t57 8q66 0 116 -21.5t85 -56.5t53 -83t18 -99q0 -88 -51 -139q74 -55 74 -170q0 -111 -75 -182.5t-216 -71.5q-23 0 -63.5 8t-80.5 23.5t-70 36.5t-30 46z" />
<glyph unicode="&#xb4;" horiz-adv-x="620" d="M-20 1106l268 231q29 27 48 36t44 9q37 0 60.5 -19.5t23.5 -47.5q0 -23 -17.5 -41.5t-41.5 -30.5l-263 -137h-122z" />
<glyph unicode="&#xb5;" horiz-adv-x="1392" d="M16 -319q0 31 18.5 47t47.5 16q98 0 146 49t48 176v871q0 12 -13 11t-25 1t-24.5 3t-23.5 5q-14 4 -24 15.5t-10 31.5q0 18 19.5 34.5t50 29t66.5 20.5t68 8h60q29 0 48 -15t19 -46v-600q0 -37 11.5 -72t33 -61.5t52 -43t69.5 -16.5q88 0 224 91v604q0 12 -13.5 11 t-25.5 1t-24.5 3t-22.5 5q-14 4 -24.5 15.5t-10.5 31.5q0 33 62.5 62.5t201.5 29.5q66 0 65 -61v-803q0 -12 12.5 -12t24.5 -2t23.5 -3t23.5 -5q10 -4 23.5 -13.5t13.5 -29.5q0 -18 -21.5 -36t-52 -30t-62.5 -19.5t-50 -7.5h-70q-74 4 -73 74v41q-72 -53 -142.5 -80.5 t-140.5 -27.5q-29 0 -56.5 4t-50.5 10v-29q0 -186 -102 -269t-303 -83q-66 1 -66 64z" />
<glyph unicode="&#xb6;" horiz-adv-x="989" d="M16 1073q0 82 31 149.5t86 114.5t132 73t169 26h469v-117h-127v-1319h-133v1319h-115v-1319h-135v713q-184 16 -280.5 113t-96.5 247z" />
<glyph unicode="&#xb7;" horiz-adv-x="378" d="M16 700q0 41 34 60.5t91 19.5q53 0 90 -20.5t37 -59.5q0 -41 -34.5 -60t-92.5 -19q-57 0 -91 19t-34 60z" />
<glyph unicode="&#xb8;" horiz-adv-x="442" d="M16 -240q68 -41 107 -53t70 -12q61 0 79.5 15.5t18.5 39.5q0 20 -27.5 34.5t-97.5 14.5h-19v2q0 2 3 2l-44 23l52 174h121l-35 -88h22q96 0 152.5 -42t56.5 -120q0 -80 -67.5 -124t-178.5 -44q-61 0 -113.5 8.5t-99.5 30.5v139z" />
<glyph unicode="&#xb9;" horiz-adv-x="509" d="M16 1620q0 23 17.5 37t46.5 22l133 33q29 0 48.5 -12t19.5 -41v-498q2 -2 18 -10q16 -10 34.5 -23.5t18.5 -35.5q0 -29 -22.5 -39.5t-38.5 -10.5h-191q-16 0 -37.5 10.5t-21.5 39.5q0 33 39 53q4 2 7 3t7 3l10 6q2 2 4.5 2t4.5 2v414q-2 -2 -2 -4h-23q-23 0 -47.5 9 t-24.5 40z" />
<glyph unicode="&#xba;" horiz-adv-x="856" d="M16 1368q0 115 48.5 201t144.5 123q63 23 125 22q70 0 129 -24.5t102 -69.5t66.5 -108.5t23.5 -143.5q0 -145 -83 -237.5t-238 -92.5q-72 0 -130.5 24.5t-99.5 69t-64.5 104.5t-23.5 132zM197 1368q0 -96 34.5 -147.5t102.5 -51.5q63 0 102 48.5t39 146.5q0 117 -36 170 t-103 53q-27 0 -57 -14q-82 -35 -82 -205z" />
<glyph unicode="&#xbb;" horiz-adv-x="1157" d="M16 1081q0 23 14.5 31t30.5 8l103 -2q20 0 37.5 -5t29.5 -21l445 -494q16 -16 16 -35q0 -8 -16 -37l-434 -501q-43 -25 -78 -25h-103q-12 0 -27.5 7t-15.5 30q0 16 15 37l362 477q4 8 4 10l-4 8l-366 480q-13 14 -13 32zM446 37q0 16 15 37l364 479q4 4 4 8l-4 8 l-370 482q-8 20 -9 30q0 23 13.5 31t29.5 8l103 -2q18 0 36.5 -5t33.5 -21l442 -494q16 -12 16 -35q0 -8 -16 -37l-432 -499q-39 -27 -80 -27h-103q-12 0 -27.5 7t-15.5 30z" />
<glyph unicode="&#xbc;" horiz-adv-x="1349" d="M-8 -6l1016 1364h168l-1010 -1364h-174zM53 1274q0 31 22.5 45t41.5 18l133 35q31 0 49 -15.5t18 -43.5v-525q2 -2 19 -10q8 -4 16 -9t17 -13q8 -6 14 -16.5t6 -26.5q0 -29 -22.5 -39t-38.5 -10h-191q-16 0 -37.5 10t-21.5 39q0 23 11 35t28 22q4 4 7 5t7 3l10 6q2 2 4 2 t5 2v439q-2 -2 -3 -4h-22q-23 0 -47.5 9t-24.5 42zM553 113v30q-2 33 18 60l324 456l12 17q23 29 66 29h47q27 0 44 -14.5t17 -43.5v-448h60q27 0 44 -13.5t17 -42.5v-30q0 -29 -18.5 -41.5t-42.5 -12.5l-60 -2v-143q0 -29 -17 -43t-44 -14h-47q-27 0 -43.5 14t-16.5 43v143 h-301q-55 1 -59 56zM666 178q2 2 6 10q6 10 24 11h217v252l-202 -291l6 12q-8 -6 -15 -8q-12 -4 -12 6q-2 -10 -14 -2q-6 4 -10 10z" />
<glyph unicode="&#xbd;" horiz-adv-x="1394" d="M-8 -2l1016 1360h168l-1010 -1360h-174zM53 1276q0 25 17.5 40t46.5 21l133 35q31 0 49 -15.5t18 -41.5v-527q4 -2 8.5 -3t8.5 -5q16 -6 35.5 -21.5t19.5 -41.5q0 -29 -22.5 -39t-38.5 -10h-191q-16 0 -37.5 10t-21.5 39q0 25 17.5 39t35.5 24l10 6q2 2 4 2t5 3v436 l-3 -2h-22q-25 0 -48.5 10t-23.5 41zM737 57v41q2 23 14.5 40.5t30.5 33.5l219 182q57 51 58 125q-2 43 -23.5 61.5t-85.5 18.5q-29 0 -59.5 -4t-69.5 -12q-12 -4 -22 -4q-23 0 -37 13t-25 34q0 57 45 71q104 49 203 50q127 0 190.5 -59.5t61.5 -155.5q0 -74 -48 -136.5 t-124 -124.5l-92 -77h149l-2 4q4 4 13 16q10 16 28.5 32.5t42.5 16.5q29 0 45.5 -16.5t16.5 -44.5l-21 -101q-4 -23 -18.5 -42t-46.5 -19h-383q-29 0 -45.5 15t-14.5 42z" />
<glyph unicode="&#xbe;" horiz-adv-x="1544" d="M16 631q12 53 72 53q53 -16 90 -21.5t72 -5.5q127 0 127 134q0 47 -25.5 69.5t-72.5 22.5h-60q-29 0 -44 16t-15 45v21q0 29 16.5 43t42.5 14h60q45 0 63 19.5t18 64.5q0 51 -30.5 87t-91.5 36q-25 0 -56.5 -6t-75.5 -23q-59 0 -71 53q0 25 26.5 45.5t63.5 36t74 24.5 t57 9q66 0 116 -22.5t85 -59.5t53 -85t18 -101q0 -94 -51 -146q74 -59 74 -178q0 -113 -75 -187.5t-216 -74.5q-23 0 -63.5 9t-80.5 24.5t-70 37t-30 46.5zM160 -6l1016 1364h167l-1009 -1364h-174zM713 113v30q0 35 18 60l324 456l12 15q23 31 66 31h47q27 0 44 -14.5 t17 -43.5v-448h59q27 0 44.5 -13.5t17.5 -42.5v-30q0 -29 -18.5 -41.5t-43.5 -12.5l-59 -2v-143q0 -29 -17.5 -43t-43.5 -14h-47q-27 0 -43.5 14t-16.5 43v143h-301q-27 0 -43 13.5t-16 42.5zM825 178q2 2 3 4t3 4q6 12 25 13h217v254l-203 -293l7 12q-8 -6 -15 -8 q-12 -4 -12 6q-2 -10 -14 -2q-7 4 -11 10z" />
<glyph unicode="&#xbf;" horiz-adv-x="911" d="M16 160q4 23 18.5 38t39.5 15q16 0 24 -4q68 -23 125.5 -31t104.5 -8q123 0 185 64.5t62 187.5q0 160 -131 256q-152 117 -149 280l2 295h168l2 -292q2 -45 26.5 -86t81.5 -76q104 -68 166 -165t62 -224q0 -84 -24.5 -157t-76 -128t-131 -87t-190.5 -32q-31 0 -92.5 11.5 t-122 32t-105.5 49t-45 61.5zM266 1384q0 51 31 77t84 26t85 -25.5t32 -77.5q0 -47 -32 -74.5t-85 -27.5t-84 25.5t-31 76.5z" />
<glyph unicode="&#xc0;" d="M-27 55q0 23 16.5 36t37.5 22q6 4 11 5t11 5q18 6 35.5 14t24.5 25l393 1169q20 57 80 58h77q57 0 76 -54l398 -1177q4 -10 14 -18.5t39 -12.5q41 -16 60.5 -34.5t19.5 -37.5q0 -29 -19.5 -42t-46.5 -13h-317q-27 0 -47.5 12.5t-20.5 42.5q0 18 19.5 36t48.5 30 q16 6 35 16h6v-2l-74 234q-6 18 -25 18h-446q-20 0 -26.5 -4t-8.5 -12l-63 -230v-4l-2 -2l18 -6q4 -2 9 -4t9 -4q29 -10 50.5 -26.5t21.5 -39.5q0 -31 -21.5 -43t-46.5 -12h-280q-27 0 -46.5 13t-19.5 42zM401 530l2 5h390v4l-191 569l-199 -569q-2 -5 -2 -9zM406 1632 q0 35 22.5 56.5t58.5 21.5q25 0 44.5 -11t48.5 -40l268 -266h-123l-262 155q-25 16 -41 36.5t-16 47.5z" />
<glyph unicode="&#xc1;" d="M-27 55q0 23 16.5 36t37.5 22q6 4 11 5t11 5q18 6 35.5 14t24.5 25l393 1169q20 57 80 58h77q57 0 76 -54l398 -1177q4 -10 14 -18.5t39 -12.5q41 -16 60.5 -34.5t19.5 -37.5q0 -29 -19.5 -42t-46.5 -13h-317q-27 0 -47.5 12.5t-20.5 42.5q0 18 19.5 36t48.5 30 q16 6 35 16h6v-2l-74 234q-6 18 -25 18h-446q-20 0 -26.5 -4t-8.5 -12l-63 -230v-4l-2 -2l18 -6q4 -2 9 -4t9 -4q29 -10 50.5 -26.5t21.5 -39.5q0 -31 -21.5 -43t-46.5 -12h-280q-27 0 -46.5 13t-19.5 42zM348 1393l268 266q29 29 48.5 40t44.5 11q37 0 60.5 -21.5 t23.5 -56.5q0 -27 -17.5 -47t-42.5 -37l-262 -155h-123zM401 530l2 5h390v4l-191 569l-199 -569q-2 -5 -2 -9z" />
<glyph unicode="&#xc2;" d="M-27 55q0 23 16.5 36t37.5 22q6 4 11 5t11 5q18 6 35.5 14t24.5 25l393 1169q20 57 80 58h77q55 0 76 -54l398 -1177q4 -10 14 -18.5t39 -12.5q41 -16 60.5 -34.5t19.5 -37.5q0 -29 -19.5 -42t-46.5 -13h-317q-27 0 -47.5 12.5t-20.5 42.5q0 18 19.5 36t48.5 30 q16 6 35 16h6v-2l-74 234q-6 18 -25 18h-446q-20 0 -26.5 -4t-8.5 -12l-63 -230v-4l-2 -2l18 -6q4 -2 9 -4t9 -4q29 -10 50.5 -26.5t21.5 -39.5q0 -31 -21.5 -43t-46.5 -12h-280q-27 0 -46.5 13t-19.5 42zM365 1413l194 293h111l194 -293h-96l-154 139l-153 -139h-96z M401 530l2 5h390v4l-191 569l-199 -569q-2 -5 -2 -9z" />
<glyph unicode="&#xc3;" d="M-27 55q0 23 16.5 36t37.5 22q6 4 11 5t11 5q18 6 35.5 14t24.5 25l393 1167q20 57 80 57h77q57 0 76 -53l398 -1175q4 -10 14 -18.5t39 -12.5q41 -16 60.5 -34.5t19.5 -37.5q0 -29 -19.5 -42t-46.5 -13h-317q-27 0 -47.5 12.5t-20.5 42.5q0 18 19.5 36t48.5 30 q10 4 18 7t17 9q2 -2 4 -2h2l-74 234q-6 18 -25 18h-446q-20 0 -26.5 -5t-8.5 -11l-63 -230v-4l-2 -2l18 -6q4 -2 9 -4t9 -4q29 -10 50.5 -26.5t21.5 -39.5q0 -31 -21.5 -43t-46.5 -12h-280q-27 0 -46.5 13t-19.5 42zM387 1352v166q47 51 87 68.5t79 17.5q16 0 48 -9.5 t67 -19.5q31 -10 57.5 -19.5t40.5 -9.5q12 0 25.5 4t33 16.5t46 36t65.5 64.5v-162q-47 -53 -88 -71.5t-82 -18.5q-16 0 -48 9.5t-67 21.5q-31 10 -57.5 18.5t-40.5 8.5q-12 0 -25.5 -4.5t-32 -16.5t-45 -35.5t-63.5 -64.5zM401 530q0 2 1 2t1 3h390v4l-191 567l-199 -569 q-2 -3 -2 -7z" />
<glyph unicode="&#xc4;" d="M-27 55q0 23 16.5 36t37.5 22q6 4 11 5t11 5q18 6 35.5 14t24.5 25l393 1167q20 57 80 57h77q57 0 76 -53l398 -1175q4 -10 14 -18.5t39 -12.5q41 -16 60.5 -34.5t19.5 -37.5q0 -29 -19.5 -42t-46.5 -13h-317q-27 0 -47.5 12.5t-20.5 42.5q0 18 19.5 36t48.5 30 q16 6 35 16q2 -2 4 -2h2l-74 234q-6 18 -25 18h-446q-20 0 -26.5 -5t-8.5 -11l-63 -230v-4l-2 -2l18 -6q4 -2 9 -4t9 -4q29 -10 50.5 -26.5t21.5 -39.5q0 -31 -21.5 -43t-46.5 -12h-280q-27 0 -46.5 13t-19.5 42zM401 530q0 2 1 2t1 3h390v4l-191 567l-199 -569q-2 -3 -2 -7 zM416 1556q0 43 26.5 64.5t69.5 21.5t70.5 -21.5t27.5 -64.5q0 -45 -27.5 -65.5t-70.5 -20.5t-69.5 20.5t-26.5 65.5zM633 1556q0 43 26.5 64.5t69.5 21.5t70.5 -21.5t27.5 -64.5q0 -45 -27.5 -65.5t-70.5 -20.5t-69.5 20.5t-26.5 65.5z" />
<glyph unicode="&#xc5;" d="M-27 55q0 23 16.5 36t37.5 22q6 4 11 5t11 5q18 6 35.5 14t24.5 25l393 1169q20 57 80 58h77q57 0 76 -54l398 -1177q4 -10 14 -18.5t39 -12.5q41 -16 60.5 -34.5t19.5 -37.5q0 -29 -19.5 -42t-46.5 -13h-317q-27 0 -47.5 12.5t-20.5 42.5q0 18 19.5 36t48.5 30 q16 6 35 16h6v-2l-74 234q-6 18 -25 18h-446q-20 0 -26.5 -4t-8.5 -12l-63 -230v-4l-2 -2l18 -6q4 -2 9 -4t9 -4q29 -10 50.5 -26.5t21.5 -39.5q0 -31 -21.5 -43t-46.5 -12h-280q-27 0 -46.5 13t-19.5 42zM401 530l2 5h390v4l-191 569l-199 -569q-2 -5 -2 -9zM451 1554 q0 68 47 115t118 47q78 0 124 -50t46 -112q0 -70 -49 -116.5t-121 -46.5q-76 0 -120.5 50t-44.5 113zM563 1554q0 -53 53 -53q23 0 39.5 15.5t16.5 37.5q0 18 -16.5 36t-39.5 18t-38 -15.5t-15 -38.5z" />
<glyph unicode="&#xc6;" horiz-adv-x="1988" d="M-27 43q0 29 25 46t61 30q23 6 48.5 16t39.5 31l781 1141q33 53 88 53h782q31 0 49.5 -17.5t18.5 -46.5v-135q0 -25 -13.5 -43t-42.5 -18q-27 0 -44 21.5t-29 49.5q-4 10 -8.5 18.5t-10.5 16.5q-4 8 -6 8h-534q-10 0 -11 -12v-426q0 -8 2 -11t15 -3h229q12 0 16.5 14.5 t10.5 28.5q12 29 30.5 51.5t42.5 22.5q31 0 43.5 -20.5t12.5 -43.5v-246q0 -25 -12.5 -46t-43.5 -21q-25 0 -43 21.5t-30 51.5q-6 14 -10.5 28.5t-16.5 14.5h-231q-8 0 -12.5 -3t-4.5 -15l4 -450l2 -3q0 -2 3 -2h534q14 0 19.5 14.5t11.5 28.5q4 10 9 21.5t13 21.5 q6 10 18.5 19.5t30.5 9.5q29 0 41.5 -18.5t12.5 -42.5l2 -136q2 -31 -17.5 -47t-52.5 -16h-922q-16 0 -37.5 8t-21.5 37q0 33 29.5 48.5t54.5 25.5q18 6 35.5 10t19.5 18l4 230q0 8 -12 8h-446q-37 0 -49 -23l-138 -225q-2 -2 -2 -3t-2 -3q2 0 3 -1t5 -1l15 -6 q23 -10 40 -24.5t17 -37.5v-10q-10 -29 -31.5 -40t-46.5 -11h-280q-16 0 -37 7t-21 36zM565 530h391q2 0 2 11l-4 596q4 0 10.5 2t6.5 -6q-2 0 0 -3.5t-2 -7.5z" />
<glyph unicode="&#xc7;" horiz-adv-x="1105" d="M16 674q0 696 611 696q92 0 180 -21.5t180 -68.5v-188q0 -43 -16.5 -62.5t-38.5 -19.5q-33 0 -49.5 23.5t-26.5 49.5l-18 56q-27 41 -73 62.5t-120 21.5q-86 0 -161.5 -34t-132 -102.5t-88.5 -172t-32 -240.5q0 -139 32 -241.5t88.5 -171t132 -102.5t161.5 -34 q74 0 120 21.5t73 62.5l18 55q10 29 26.5 51.5t49.5 22.5q23 0 39 -19.5t16 -62.5v-190q-188 -88 -360 -89h-11l-14 -34h25q96 0 152.5 -45t56.5 -131q0 -88 -68 -136.5t-178 -48.5q-61 0 -113.5 9.5t-99.5 31.5v152q68 -41 106.5 -55.5t69.5 -14.5q61 0 79.5 16.5 t18.5 45.5q0 35 -39 44t-88 9h-16v2q0 2 2 2l-43 24l37 138q-209 29 -334 168q-80 92 -117 221t-37 299z" />
<glyph unicode="&#xc8;" horiz-adv-x="1167" d="M16 55q0 16 9.5 28.5t19.5 18.5q10 8 22.5 12.5t22.5 8.5q16 6 29.5 10t15.5 17l2 1069q0 14 -14 17t-29 7q-12 4 -25.5 8t-23.5 13q-29 18 -29 51q0 29 18.5 42t45.5 13h899q31 0 49.5 -17.5t18.5 -47.5v-136q0 -25 -14.5 -43t-43.5 -18q-25 0 -42 21.5t-29 52.5 q-6 14 -9.5 27.5t-15.5 13.5h-535q-12 0 -12 -11v-430q0 -8 2 -11t14 -3h232q12 0 16 13.5t11 29.5q10 23 25.5 48.5t45.5 25.5q31 0 44.5 -20.5t13.5 -43.5v-248q0 -27 -12.5 -47t-45.5 -20q-31 0 -46 25.5t-25 48.5q-6 14 -10.5 28.5t-16.5 14.5h-232q-10 0 -13 -3.5 t-3 -15.5v-448q0 -8 8 -9h533q16 0 21 13.5t12 29.5q4 10 9 21.5t13 21.5q6 10 18.5 19.5t30.5 9.5q29 0 42.5 -18.5t13.5 -42.5v-133q0 -68 -70 -68h-893q-27 0 -47.5 12t-20.5 43zM406 1632q0 35 22.5 56.5t58.5 21.5q25 0 44.5 -11t48.5 -40l268 -266h-123l-262 155 q-25 16 -41 36.5t-16 47.5z" />
<glyph unicode="&#xc9;" horiz-adv-x="1167" d="M16 55q0 16 9.5 28.5t19.5 18.5q10 8 22.5 12.5t22.5 8.5q16 6 29.5 10t15.5 17l2 1069q0 14 -14 17t-29 7q-12 4 -25.5 8t-23.5 13q-29 18 -29 51q0 29 18.5 42t45.5 13h899q31 0 49.5 -17.5t18.5 -47.5v-136q0 -25 -14.5 -43t-43.5 -18q-25 0 -42 21.5t-29 52.5 q-6 14 -9.5 27.5t-15.5 13.5h-535q-12 0 -12 -11v-430q0 -8 2 -11t14 -3h232q12 0 16 13.5t11 29.5q10 23 25.5 48.5t45.5 25.5q31 0 44.5 -20.5t13.5 -43.5v-248q0 -27 -12.5 -47t-45.5 -20q-31 0 -46 25.5t-25 48.5q-6 14 -10.5 28.5t-16.5 14.5h-232q-10 0 -13 -3.5 t-3 -15.5v-448q0 -8 8 -9h533q16 0 21 13.5t12 29.5q4 10 9 21.5t13 21.5q6 10 18.5 19.5t30.5 9.5q29 0 42.5 -18.5t13.5 -42.5v-133q0 -68 -70 -68h-893q-27 0 -47.5 12t-20.5 43zM287 1393l268 266q29 29 48.5 40t43.5 11q37 0 60.5 -21.5t23.5 -56.5q0 -27 -17.5 -47 t-41.5 -37l-262 -155h-123z" />
<glyph unicode="&#xca;" horiz-adv-x="1167" d="M16 55q0 16 9.5 28.5t19.5 18.5q10 8 22.5 12.5t22.5 8.5q16 6 29.5 10t15.5 17l2 1069q0 14 -14 17t-29 7q-12 4 -25.5 8t-23.5 11q-29 20 -29 53q0 29 18.5 42t45.5 13h899q31 0 49.5 -17.5t18.5 -47.5v-136q0 -25 -14.5 -43t-43.5 -18q-25 0 -42 21.5t-29 52.5 q-6 14 -9.5 27.5t-15.5 13.5h-535q-12 0 -12 -11v-430q0 -8 2 -11t14 -3h232q12 0 16 13.5t11 29.5q10 23 25.5 48.5t45.5 25.5q31 0 44.5 -20.5t13.5 -45.5v-246q0 -27 -12.5 -47t-45.5 -20q-31 0 -46 25.5t-25 48.5q-6 14 -10.5 28.5t-16.5 14.5h-232q-10 0 -13 -3.5 t-3 -15.5v-448q0 -8 8 -9h533q16 0 21 13.5t12 29.5q4 10 9 21.5t13 21.5q6 10 18.5 19.5t30.5 9.5q29 0 42.5 -18.5t13.5 -42.5v-133q0 -68 -70 -68h-893q-27 0 -47.5 12t-20.5 43zM303 1413l195 293h110l195 -293h-96l-154 139l-154 -139h-96z" />
<glyph unicode="&#xcb;" horiz-adv-x="1181" d="M16 55q0 16 9.5 28.5t19.5 18.5q10 8 22.5 12.5t22.5 8.5q16 6 29.5 10t15.5 17l2 1067q0 14 -14 17t-29 7q-12 4 -25.5 8t-23.5 13q-29 18 -29 53q0 29 18.5 41t45.5 12h899q31 0 49.5 -17.5t18.5 -45.5v-136q0 -27 -14.5 -45t-43.5 -18q-25 0 -42 22.5t-29 51.5 q-6 14 -9.5 27.5t-15.5 13.5h-535q-12 0 -12 -11v-428q0 -10 2 -13t14 -3h232q12 0 16 14.5t11 28.5q10 23 25.5 49.5t45.5 26.5q31 0 44.5 -20.5t13.5 -45.5v-246q0 -27 -12.5 -48t-45.5 -21q-31 0 -46 25.5t-25 48.5q-6 16 -10.5 30.5t-16.5 14.5h-232q-10 0 -13 -3.5 t-3 -17.5v-446q0 -8 8 -9h533q16 0 21 13.5t12 27.5q4 12 9 23.5t13 21.5q6 10 18.5 19.5t30.5 9.5q29 0 42.5 -19.5t13.5 -43.5v-133q0 -66 -70 -66h-893q-27 0 -47.5 12t-20.5 43zM354 1556q0 43 27 64.5t70 21.5t70.5 -21.5t27.5 -64.5q0 -45 -27.5 -65.5t-70.5 -20.5 t-70 20.5t-27 65.5zM571 1556q0 43 27 64.5t70 21.5t70.5 -21.5t27.5 -64.5q0 -45 -27.5 -65.5t-70.5 -20.5t-70 20.5t-27 65.5z" />
<glyph unicode="&#xcc;" horiz-adv-x="653" d="M16 55q0 29 22.5 44.5t55.5 25.5q14 4 28.5 7t14.5 15v1080l-8 4q-8 4 -17.5 7t-19.5 7q-31 12 -53.5 28.5t-22.5 41.5q0 31 20.5 43t47.5 12h315q25 0 46.5 -12t21.5 -43q0 -29 -25.5 -45.5t-54.5 -26.5q-29 -4 -34 -11t-5 -11v-1071q0 -14 13.5 -16.5t27.5 -6.5 q33 -10 56.5 -25.5t23.5 -46.5t-21.5 -43t-48.5 -12h-317q-25 0 -45.5 12t-20.5 43zM16 1632q0 74 82 78q29 2 46.5 -10t45.5 -41l271 -266h-123l-264 155q-25 16 -41.5 36.5t-16.5 47.5z" />
<glyph unicode="&#xcd;" horiz-adv-x="632" d="M16 55q0 31 23.5 46.5t54.5 25.5q20 4 35 12q8 6 8 8v1080l-8 4q-8 4 -17.5 7t-19.5 7q-31 12 -53.5 28.5t-22.5 41.5q0 31 20.5 43t47.5 12h315q25 0 46.5 -12t21.5 -43q0 -29 -25.5 -45.5t-54.5 -26.5q-29 -4 -35 -11t-6 -11v-1071q0 -14 13.5 -17.5t29.5 -7.5 q27 -6 47 -19q12 -8 21.5 -20t9.5 -33q-2 -29 -21.5 -41t-46.5 -12h-317q-25 0 -45.5 12t-20.5 43zM41 1393l268 266q29 29 48.5 40t43.5 11q37 0 60.5 -21.5t23.5 -56.5q0 -27 -17 -47t-42 -37l-262 -155h-123z" />
<glyph unicode="&#xce;" horiz-adv-x="661" d="M-6 1413l194 293h113l195 -293h-99l-153 139l-152 -139h-98zM25 55q0 29 22.5 44.5t54.5 25.5q14 4 28.5 6t14.5 16v1080l-8 4q-8 4 -17 7t-20 7q-31 12 -53 28.5t-22 41.5q0 31 20.5 43t46.5 12h318q25 0 46 -12t21 -43q0 -29 -25.5 -45.5t-56.5 -26.5q-29 -4 -34 -11 t-5 -11v-1071q0 -14 13.5 -16.5t27.5 -6.5q33 -10 56.5 -25.5t23.5 -46.5t-21.5 -43t-47.5 -12h-318q-25 0 -45 12t-20 43z" />
<glyph unicode="&#xcf;" horiz-adv-x="651" d="M16 55q0 31 23.5 46.5t54.5 23.5q8 4 17.5 7t17.5 7q8 2 8 8v1078l-8 4q-16 8 -37 16q-31 10 -53.5 27.5t-22.5 42.5q0 29 20.5 41t47.5 12h315q25 0 46.5 -12.5t21.5 -40.5q0 -31 -25.5 -47.5t-54.5 -26.5q-29 -4 -35 -11t-6 -11v-1069q0 -14 13.5 -17.5t29.5 -7.5 q27 -6 47 -19q12 -8 21.5 -21t9.5 -32q-2 -29 -21.5 -41t-46.5 -12h-317q-25 0 -45.5 12t-20.5 43zM43 1556q0 43 26.5 64.5t69.5 21.5t71 -21.5t28 -64.5q0 -45 -28 -65.5t-71 -20.5t-69.5 20.5t-26.5 65.5zM260 1556q0 43 26.5 64.5t69.5 21.5t71 -21.5t28 -64.5 q0 -45 -28 -65.5t-71 -20.5t-69.5 20.5t-26.5 65.5z" />
<glyph unicode="&#xd0;" horiz-adv-x="1308" d="M-4 678q2 29 22.5 45t53.5 16h493q35 0 56.5 -16t21.5 -47t-21.5 -47.5t-56.5 -16.5h-493q-33 0 -56.5 15.5t-19.5 50.5zM16 55q0 16 9.5 28.5t19.5 18.5t22.5 11.5t22.5 9.5q16 4 30.5 8t14.5 19v1058q0 14 -14.5 18.5t-30.5 10.5l-22.5 9t-22.5 11t-19.5 18.5 t-9.5 29.5q0 31 20.5 43t45.5 12h457q297 0 442 -172t145 -508t-145 -508t-440 -172h-461q-27 0 -45.5 13t-18.5 42zM346 162q0 -10 2 -13.5t17 -3.5h176q170 0 267 130.5t97 404.5t-98 404t-268 130h-179q-14 0 -14 -12v-1040z" />
<glyph unicode="&#xd1;" horiz-adv-x="1284" d="M16 55q0 18 9.5 29.5t21.5 17.5q10 8 21.5 12.5t23.5 8.5q16 6 30.5 10t14.5 17v1056q0 16 -15.5 22.5t-31.5 14.5q-23 10 -48.5 25.5t-25.5 46.5q0 29 20.5 41t45.5 12h201q55 0 84 -49l528 -942v842q0 4 -6 12t-35 12q-31 8 -55.5 24.5t-24.5 47.5t20.5 42t47.5 11h274 q27 0 48.5 -11t21.5 -42q0 -25 -17.5 -38t-35.5 -24l-13 -4q-6 -2 -10 -4q-16 -6 -29.5 -9t-13.5 -15v-1155q0 -31 -19.5 -48.5t-50.5 -17.5h-94q-59 0 -86 51l-510 928v-829q0 -12 13.5 -16.5t29.5 -10.5q12 -4 23.5 -8t21.5 -13q12 -6 22.5 -17t10.5 -30q0 -29 -19.5 -42 t-46.5 -13h-280q-25 0 -45.5 12t-20.5 43zM328 1376v170q47 51 87 68.5t79 17.5q16 0 47.5 -9l66.5 -19q31 -10 57.5 -19.5t41.5 -9.5q12 0 25 4t32.5 16.5t46.5 36t63 64.5v-162q-47 -53 -86.5 -71.5t-80.5 -18.5q-16 0 -49 9t-68 22q-16 4 -32.5 9t-31.5 9q-18 8 -32 8 q-12 0 -25.5 -3t-32 -15.5t-45 -37t-63.5 -69.5z" />
<glyph unicode="&#xd2;" horiz-adv-x="1232" d="M16 684q0 338 139.5 516t422.5 178h26q281 0 422 -178t141 -516t-141 -515t-422 -177h-26q-283 0 -422.5 177t-139.5 515zM227 684q0 -262 101.5 -397t263.5 -148q80 6 146.5 43t114.5 104.5t75.5 167t27.5 230.5t-27.5 231.5t-75.5 168t-114.5 104.5t-146.5 43 q-162 -14 -263.5 -148.5t-101.5 -398.5zM406 1632q0 35 22.5 56.5t58.5 21.5q25 0 44.5 -11t48.5 -40l268 -266h-123l-262 155q-25 16 -41 36.5t-16 47.5z" />
<glyph unicode="&#xd3;" horiz-adv-x="1230" d="M16 684q0 338 139.5 516t422.5 178h26q281 0 422 -178t141 -516t-141 -515t-422 -177h-26q-283 0 -422.5 177t-139.5 515zM227 684q0 -262 101.5 -397t263.5 -148q80 6 146.5 43t114.5 104.5t75.5 167t27.5 230.5t-27.5 231.5t-75.5 168t-114.5 104.5t-146.5 43 q-162 -14 -263.5 -148.5t-101.5 -398.5zM348 1393l268 266q29 29 48.5 40t44.5 11q37 0 60.5 -21.5t23.5 -56.5q0 -27 -17.5 -47t-42.5 -37l-262 -155h-123z" />
<glyph unicode="&#xd4;" horiz-adv-x="1232" d="M16 684q0 338 139.5 516t422.5 178h26q281 0 422 -178t141 -516t-141 -515t-422 -177h-26q-283 0 -422.5 177t-139.5 515zM227 684q0 -262 101.5 -397t263.5 -148q80 6 146.5 43t114.5 104.5t75.5 167t27.5 230.5t-27.5 231.5t-75.5 168t-114.5 104.5t-146.5 43 q-162 -14 -263.5 -148.5t-101.5 -398.5zM342 1413l195 293h110l195 -293h-97l-153 139l-154 -139h-96z" />
<glyph unicode="&#xd5;" horiz-adv-x="1232" d="M16 684q0 338 139.5 515t422.5 177h26q281 0 422 -177t141 -515t-141 -515t-422 -177h-26q-283 0 -422.5 177t-139.5 515zM227 684q0 -262 101.5 -397t263.5 -148q80 6 146.5 43t114.5 104.5t75.5 167t27.5 230.5t-27.5 230.5t-75.5 167t-114.5 104.5t-146.5 43 q-162 -12 -263.5 -147.5t-101.5 -397.5zM358 1352v166q47 51 87 68.5t79 17.5q16 0 48 -9.5t67 -19.5q31 -10 57.5 -19.5t40.5 -9.5q12 0 25.5 4t33 16.5t46 36t65.5 64.5v-162q-47 -53 -88 -71.5t-82 -18.5q-16 0 -48 9.5t-66 21.5q-31 10 -57.5 18.5t-41.5 8.5 q-12 0 -25.5 -4.5t-31.5 -16.5t-45 -35.5t-64 -64.5z" />
<glyph unicode="&#xd6;" horiz-adv-x="1228" d="M16 684q0 338 139.5 515t422.5 177h26q281 0 422 -177t141 -515t-141 -515t-422 -177h-26q-283 0 -422.5 177t-139.5 515zM227 684q0 -262 101.5 -397t263.5 -148q80 6 146.5 43t114.5 104.5t75.5 167t27.5 230.5t-27.5 230.5t-75.5 167t-114.5 104.5t-146.5 43 q-162 -12 -263.5 -147.5t-101.5 -397.5zM385 1556q0 43 26.5 64.5t69.5 21.5t71 -21.5t28 -64.5q0 -45 -28 -65.5t-71 -20.5t-69.5 20.5t-26.5 65.5zM602 1556q0 43 26.5 64.5t69.5 21.5q45 0 73 -20t28 -66q0 -45 -28 -65.5t-73 -20.5q-43 0 -69.5 20.5t-26.5 65.5z" />
<glyph unicode="&#xd7;" horiz-adv-x="792" d="M16 743q0 29 26 49.5t52 20.5q29 0 56 -20l200 -181l195 174q12 8 25.5 14.5t25.5 6.5q29 0 55 -23q14 -10 19.5 -23t5.5 -24q0 -29 -25 -49l-192 -172l186 -162q25 -20 25 -49q0 -27 -26 -47t-54 -20q-27 0 -53 20l-187 164l-190 -172q-12 -10 -25.5 -17.5t-30.5 -7.5 q-27 0 -52 21.5t-25 48.5t24 51l193 170l-203 180q-25 20 -25 47z" />
<glyph unicode="&#xd8;" horiz-adv-x="1226" d="M16 680q0 336 139.5 512t422.5 176h26q281 0 422 -176t141 -512t-141 -512t-422 -176h-26q-283 0 -422.5 176t-139.5 512zM227 680q0 -262 101 -395q27 -37 57 -62l307 975q-53 18 -100 25q-162 -14 -263.5 -148.5t-101.5 -394.5zM485 162q55 -18 107 -25q80 6 146.5 43 t114.5 104.5t75.5 166t27.5 229.5q0 129 -26.5 227.5t-77.5 167.5q-31 37 -55 60z" />
<glyph unicode="&#xd9;" horiz-adv-x="1282" d="M16 1315q0 31 20.5 43t45.5 12h319q27 0 46.5 -13.5t19.5 -41.5q0 -18 -10.5 -29.5t-22.5 -17.5q-10 -8 -21.5 -12.5t-23.5 -8.5q-16 -6 -29.5 -10t-13.5 -16v-768q0 -147 66.5 -217t201.5 -70q154 0 218.5 71.5t64.5 213.5v770q0 10 -14.5 14t-30.5 10q-10 4 -22.5 9.5 t-22.5 11.5t-20.5 17t-12.5 28q0 33 19.5 46t46.5 13l280 -2q27 0 46.5 -13.5t19.5 -41.5q0 -16 -10.5 -27.5t-20.5 -17.5q-10 -8 -22.5 -13.5t-22.5 -9.5q-16 -6 -29.5 -10t-13.5 -14v-750q0 -117 -36 -205t-100.5 -147.5t-154.5 -89t-196 -29.5q-211 0 -327 123t-116 366 v732q0 12 -14 16t-31 10q-12 4 -23.5 8.5t-21.5 12.5q-12 6 -21.5 17.5t-9.5 29.5zM406 1632q0 35 22.5 56.5t58.5 21.5q25 0 44.5 -11t48.5 -40l268 -266h-123l-262 155q-25 16 -41 36.5t-16 47.5z" />
<glyph unicode="&#xda;" horiz-adv-x="1280" d="M16 1315q0 31 20.5 43t45.5 12h319q27 0 46.5 -13.5t19.5 -41.5q0 -18 -10.5 -29.5t-22.5 -17.5q-10 -8 -21.5 -12.5t-23.5 -8.5q-16 -6 -29.5 -10t-13.5 -16v-768q0 -152 69.5 -221.5t215.5 -65.5q143 4 204.5 75.5t61.5 209.5v770q0 10 -14.5 14t-30.5 10 q-10 4 -22.5 9.5t-22.5 11.5t-20.5 17t-12.5 28q0 33 19.5 46t46.5 13l280 -2q27 0 46.5 -13.5t19.5 -41.5q0 -16 -10.5 -27.5t-20.5 -17.5q-10 -8 -22.5 -13.5t-22.5 -9.5q-16 -6 -29.5 -10t-13.5 -14v-750q0 -117 -36 -205t-100.5 -147.5t-154.5 -89t-196 -29.5 q-211 0 -327 123t-116 366v732q0 12 -14 16t-31 10q-12 4 -23.5 8.5t-21.5 12.5q-12 6 -21.5 17.5t-9.5 29.5zM389 1393l268 266q29 29 48.5 40t44.5 11q37 0 60.5 -21.5t23.5 -56.5q0 -27 -17.5 -47t-42.5 -37l-262 -155h-123z" />
<glyph unicode="&#xdb;" horiz-adv-x="1280" d="M16 1315q0 31 20.5 43t45.5 12h319q27 0 46.5 -13.5t19.5 -41.5q0 -18 -10.5 -29.5t-22.5 -17.5q-10 -8 -21.5 -12.5t-23.5 -8.5q-16 -6 -29.5 -10t-13.5 -16v-768q0 -152 69.5 -221.5t215.5 -65.5q143 4 204.5 75.5t61.5 209.5v770q0 10 -14.5 14t-30.5 10 q-10 4 -22.5 9.5t-22.5 11.5t-20.5 17t-12.5 28q0 33 19.5 46t46.5 13l280 -2q27 0 46.5 -13.5t19.5 -41.5q0 -16 -10.5 -27.5t-20.5 -17.5q-10 -8 -22.5 -13.5t-22.5 -9.5q-16 -6 -29.5 -10t-13.5 -14v-750q0 -117 -36 -205t-100.5 -147.5t-154.5 -89t-196 -29.5 q-211 0 -327 123t-116 366v732q0 12 -14 16t-31 10q-12 4 -23.5 8.5t-21.5 12.5q-12 6 -21.5 17.5t-9.5 29.5zM365 1413l194 293h111l194 -293h-96l-154 139l-153 -139h-96z" />
<glyph unicode="&#xdc;" horiz-adv-x="1273" d="M16 1315q0 29 20.5 41t45.5 12h319q27 0 46.5 -12.5t19.5 -40.5q0 -18 -10.5 -30.5t-22.5 -18.5q-10 -6 -21.5 -11.5t-23.5 -9.5q-16 -6 -29.5 -9t-13.5 -17v-766q0 -152 69.5 -222.5t215.5 -66.5q143 4 204.5 76.5t61.5 210.5v768q0 12 -14.5 16t-30.5 10 q-10 4 -22.5 9.5t-22.5 11.5t-20.5 16t-12.5 29q0 31 19.5 44t46.5 13l280 -2q27 0 46.5 -12.5t19.5 -40.5q0 -18 -10.5 -29.5t-20.5 -17.5t-22.5 -11.5t-22.5 -9.5q-16 -6 -29.5 -10t-13.5 -16v-750q0 -117 -36 -204t-100.5 -146.5t-154.5 -89t-196 -29.5q-211 0 -327 123 t-116 366v730q0 14 -14 17t-31 9q-12 4 -23.5 9.5t-21.5 11.5q-12 6 -21.5 18.5t-9.5 30.5zM395 1556q0 43 27 64.5t70 21.5t70.5 -21.5t27.5 -64.5q0 -45 -27.5 -65.5t-70.5 -20.5t-70 20.5t-27 65.5zM612 1556q0 43 27 64.5t70 21.5t70.5 -21.5t27.5 -64.5 q0 -45 -27.5 -65.5t-70.5 -20.5t-70 20.5t-27 65.5z" />
<glyph unicode="&#xdd;" horiz-adv-x="1312" d="M16 1315q0 31 20.5 43t45.5 12h338q25 0 46 -12t21 -43q0 -23 -17 -34t-36 -17l-12 -4q-6 -2 -14 -7l-25 -8q0 -4 2 -6l240 -422l231 420l-22 6q-35 10 -56.5 28.5t-21.5 43.5q0 31 20.5 43t44.5 12h279q25 0 46 -12t21 -43q0 -25 -22.5 -42.5t-57.5 -27.5 q-20 -6 -45 -16q-16 -8 -22 -19l-297 -542q-12 -23 -15 -35t-1 -19v-462q0 -12 13 -17.5t30 -9.5q12 -4 24 -9t23 -14q10 -6 20 -17t10 -30q0 -31 -21.5 -43t-45.5 -12h-320q-27 0 -45 13.5t-18 41.5q0 23 16.5 36t34.5 24q6 2 11 4t12 4q16 6 30.5 10t14.5 17v466 q0 10 -4.5 23.5t-14.5 30.5l-317 540q-8 12 -31 21.5t-37 13.5q-33 12 -54.5 28.5t-21.5 41.5zM389 1393l268 266q29 29 48.5 40t44.5 11q37 0 60.5 -21.5t23.5 -56.5q0 -27 -17.5 -47t-42.5 -37l-262 -155h-123z" />
<glyph unicode="&#xde;" horiz-adv-x="1048" d="M16 -354q0 20 11.5 30.5t23.5 14.5q10 4 22.5 5t24.5 3t24.5 2t14.5 12l2 1587q0 12 -13 11.5t-26 1.5q-12 2 -24.5 3t-22.5 5q-12 4 -23.5 15.5t-11.5 31.5q0 18 20.5 34.5t50.5 29t60.5 20.5t53.5 8h59q33 0 60.5 -13t27.5 -50v-424q92 47 199 47q96 0 176 -39 t137.5 -104.5t89 -153.5t31.5 -186q0 -104 -30.5 -204t-94 -176.5t-158 -123.5t-219.5 -47q-63 0 -133 18v-387q0 -37 -27.5 -50t-60.5 -13h-59q-23 0 -53.5 8t-60.5 20t-50.5 29t-20.5 35zM348 176q0 -18 16.5 -27.5t39 -11.5t45 -1t34.5 1q57 0 110.5 23.5t93.5 73 t64.5 124t24.5 177.5q0 158 -66.5 242.5t-183.5 84.5q-16 0 -45.5 -1t-59.5 -6t-51.5 -16.5t-21.5 -31.5v-631z" />
<glyph unicode="&#xdf;" horiz-adv-x="1345" d="M16 53q0 18 9.5 29.5t21.5 19.5q10 6 21.5 11.5t23.5 9.5q16 4 30.5 8t14.5 19v706q0 10 -16 10h-39q-35 0 -50.5 20.5t-15.5 53.5q0 31 15.5 51.5t50.5 20.5h55q0 184 102.5 266t301.5 82h37q31 0 87 -8.5t111 -34t95 -75.5t40 -132q0 -45 -15 -81t-37.5 -63.5 t-49.5 -47t-49 -33.5q-14 -8 -24.5 -16.5t-20.5 -20.5t-18.5 -30.5t-8.5 -47.5q0 -43 54.5 -89t187.5 -93q276 -96 276 -305q0 -152 -100 -223.5t-281 -71.5q-76 0 -157.5 17.5t-180.5 57.5l-41 218q0 35 23 47t51 12q47 0 64 -47l30 -86q16 -35 57.5 -60.5t114.5 -25.5 q115 0 164 48t49 120q0 35 -54 78t-189 90t-205 121.5t-70 179.5q0 88 47 145.5t129 97.5q14 8 26.5 15.5t23.5 19.5q10 10 19 27.5t9 46.5v18q-18 104 -180 105q-8 -4 -16 -4q-6 0 -15 4q-90 -4 -133 -52t-43 -173v-858q0 -14 13.5 -18.5t29.5 -8.5l22.5 -9t22.5 -12 q10 -8 20.5 -19t10.5 -30q0 -29 -19.5 -41t-46.5 -12h-319q-25 0 -45.5 12t-20.5 41z" />
<glyph unicode="&#xe0;" horiz-adv-x="1034" d="M16 272q-4 92 33 159t104.5 108t163 60t209.5 19h33q8 0 11 2.5t3 12.5v69q0 195 -172 195q-61 0 -117.5 -7t-113.5 -24q-27 2 -47.5 14.5t-20.5 41.5q0 25 16.5 41t37.5 26q84 39 241 39q197 0 292 -89t95 -255v-526q0 -20 33 -35l21 -8q10 -4 18 -11q27 -14 27 -47 q-4 -33 -30 -45t-56 -12q-119 0 -187 61q-135 -61 -268 -61q-152 0 -237 73.5t-89 198.5zM201 1305q0 35 22.5 56t59.5 21q25 0 44 -11t48 -40l268 -264h-123l-262 156q-25 14 -41 34.5t-16 47.5zM217 293q0 -29 8 -57.5t29.5 -50t56.5 -35t88 -13.5q78 0 152 19q23 6 22 22 v311q0 10 -2 11.5t-12 1.5q-100 -4 -165.5 -19.5t-104.5 -42t-55.5 -64.5t-16.5 -83z" />
<glyph unicode="&#xe1;" horiz-adv-x="1019" d="M16 287q0 90 39 152.5t107.5 102.5t162 58t201.5 18h33q8 0 11 2.5t3 12.5v69q0 195 -176 195q-59 0 -115.5 -7t-111.5 -24q-27 2 -47.5 14.5t-20.5 41.5q0 25 16.5 41t37.5 26q84 39 241 39q197 0 292 -89t95 -255v-526q0 -20 33 -35l21 -8q10 -4 18 -11q27 -14 27 -47 q-4 -33 -30 -45t-56 -12q-119 0 -187 61q-135 -61 -268 -61q-158 0 -242 79t-84 208zM143 1067l269 264q29 29 48 40t44 11q37 0 60.5 -21.5t23.5 -55.5q0 -27 -17.5 -47.5t-42.5 -34.5l-262 -156h-123zM217 293q0 -29 8 -57.5t29.5 -50t56.5 -35t88 -13.5q78 0 152 19 q23 6 22 22v311q0 10 -2 11.5t-12 1.5q-100 -4 -165.5 -19.5t-104.5 -42t-55.5 -64.5t-16.5 -83z" />
<glyph unicode="&#xe2;" horiz-adv-x="1024" d="M16 287q0 90 39 152.5t107.5 102.5t162 58t201.5 18h33q8 0 11 2.5t3 12.5v69q0 195 -176 195q-59 0 -115.5 -7t-111.5 -24q-27 2 -47.5 14.5t-20.5 41.5q0 25 16.5 40t37.5 25q82 41 241 41q197 0 292 -89t95 -255v-526q0 -20 33 -35l21 -8q10 -4 18 -11q27 -14 27 -47 q-4 -33 -30 -45t-56 -12q-119 0 -187 61q-135 -61 -268 -61q-158 0 -242 79t-84 208zM139 1067l195 291h110l195 -291h-96l-154 137l-153 -137h-97zM217 293q0 -29 8 -57.5t29.5 -51t56.5 -36t88 -13.5q41 0 78 5t74 16q23 6 22 22v311q0 10 -2 11.5t-12 1.5 q-100 -4 -165.5 -19.5t-104.5 -42t-55.5 -64.5t-16.5 -83z" />
<glyph unicode="&#xe3;" horiz-adv-x="1026" d="M16 287q0 88 39 151.5t107.5 102.5t162 57t201.5 18h33q14 0 14 15v69q0 195 -176 195q-59 0 -115.5 -7t-111.5 -24q-27 4 -47.5 15.5t-20.5 40.5q0 25 16.5 41t37.5 26q84 39 241 39q197 0 292 -89t95 -255v-524q0 -14 7.5 -20.5t25.5 -14.5l21 -8q10 -4 18 -11 q10 -8 18.5 -19t8.5 -28q-4 -33 -30 -45t-56 -12q-119 0 -187 61q-135 -61 -268 -61q-158 0 -242 79t-84 208zM143 1030v168q47 51 87 68.5t79 17.5q16 0 48 -9t67 -20q31 -10 57.5 -18t40.5 -8q12 0 25.5 3t33 15.5t46 36t63.5 64.5v-162q-47 -51 -87 -69.5t-81 -18.5 q-16 0 -49 9t-67 21q-16 4 -33 9.5t-31 9.5q-10 4 -19.5 6t-13.5 2q-12 0 -25.5 -3t-32 -15.5t-45 -38t-63.5 -68.5zM217 293q0 -29 8 -57.5t29.5 -51t56.5 -36t88 -13.5q41 0 78 5t74 16q23 6 22 22v309q0 14 -14 13q-100 -4 -165.5 -19.5t-104.5 -41t-55.5 -63.5 t-16.5 -83z" />
<glyph unicode="&#xe4;" horiz-adv-x="1026" d="M16 287q0 88 39 151.5t107.5 102.5t162 57t201.5 18h33q8 0 11 2.5t3 12.5v69q0 193 -176 193q-59 0 -115.5 -6t-111.5 -23q-27 2 -47.5 13.5t-20.5 40.5q0 25 16.5 41t37.5 26q82 41 241 41q197 0 292 -89t95 -255v-526q0 -12 7.5 -18.5t25.5 -14.5l21 -8q10 -4 18 -11 q10 -8 18.5 -19t8.5 -28q-4 -33 -30 -45t-56 -12q-119 0 -187 61q-135 -61 -268 -61q-158 0 -242 79t-84 208zM188 1180q0 43 27 64.5t70 21.5t70.5 -21.5t27.5 -64.5t-27.5 -64.5t-70.5 -21.5t-70 21.5t-27 64.5zM217 293q0 -29 8 -57.5t29.5 -51t56.5 -36t88 -13.5 q82 0 152 21q23 6 22 22v309q0 10 -2 11.5t-12 1.5q-100 -4 -165.5 -19.5t-104.5 -41t-55.5 -63.5t-16.5 -83zM406 1180q0 43 26.5 64.5t69.5 21.5t70.5 -21.5t27.5 -64.5t-27.5 -64.5t-70.5 -21.5t-69.5 21.5t-26.5 64.5z" />
<glyph unicode="&#xe5;" horiz-adv-x="1021" d="M16 287q0 90 39 152.5t107.5 102.5t162 58t201.5 18h33q8 0 11 2.5t3 12.5v69q0 195 -176 195q-59 0 -115.5 -7t-111.5 -24q-27 2 -47.5 14.5t-20.5 41.5q0 25 16.5 41t37.5 26q84 39 241 39q197 0 292 -89t95 -255v-526q0 -20 33 -35l21 -8q10 -4 18 -11q27 -14 27 -47 q-4 -33 -30 -45t-56 -12q-119 0 -187 61q-135 -61 -268 -61q-158 0 -242 79t-84 208zM217 293q0 -29 8 -57.5t29.5 -50t56.5 -35t88 -13.5q78 0 152 19q23 6 22 22v311q0 10 -2 11.5t-12 1.5q-100 -4 -165.5 -19.5t-104.5 -42t-55.5 -64.5t-16.5 -83zM231 1221 q0 61 45.5 111t120.5 50q33 0 64 -12t54.5 -33.5t37.5 -51.5t14 -64q0 -68 -49 -115t-121 -47t-119 46t-47 116zM344 1221q0 -53 53 -54q23 0 39.5 15.5t16.5 38.5q0 18 -16.5 34.5t-39.5 16.5t-38 -15.5t-15 -35.5z" />
<glyph unicode="&#xe6;" horiz-adv-x="1544" d="M16 285q0 88 39 150.5t107.5 101t162 56t201.5 17.5h33q8 0 11 2t3 13v67q0 193 -176 193q-59 0 -115.5 -6.5t-111.5 -22.5q-27 2 -47.5 13.5t-20.5 39.5q0 23 25 42.5t65.5 33.5t94 22.5t110.5 8.5q219 0 320 -123q68 61 147.5 94t159.5 33q197 0 292 -135t95 -369 q0 -27 -16.5 -40t-42.5 -13h-557q4 -152 75.5 -240t188.5 -88q41 0 93 11.5t120 35.5q25 0 48 -9t23 -40q0 -27 -36.5 -51.5t-87 -43t-101.5 -29.5t-80 -11q-78 0 -154.5 27.5t-140.5 76.5q-98 -53 -198.5 -78.5t-186.5 -25.5q-164 0 -253 78t-89 209zM217 289 q0 -29 7 -56.5t27.5 -49t54.5 -35t87 -13.5q76 0 160 25q14 4 17 7t3 9v273q-2 8 -2 14t-2 12q0 12 -2 17q0 4 -8 4q-100 -2 -165.5 -17.5t-104.5 -42t-55.5 -64.5t-16.5 -83zM803 600q0 -10 2 -11t10 -1h389q10 0 12.5 1t2.5 11q-6 80 -20.5 135.5t-40 88t-63.5 47 t-91 14.5q-92 0 -138.5 -71t-62.5 -214z" />
<glyph unicode="&#xe7;" horiz-adv-x="917" d="M16 479q0 104 33 200.5t94.5 169.5t151.5 117t205 44q51 0 114.5 -11.5t153.5 -33.5v-174q0 -29 -16.5 -47.5t-49.5 -18.5q-27 0 -47 21.5t-37 52.5q-6 10 -11 21t-13 22q-12 18 -25 24q-20 10 -40.5 13.5t-43.5 3.5q-49 0 -95 -29t-82 -81t-57.5 -127t-21.5 -167 q0 -84 23.5 -150.5t66.5 -113.5t101.5 -72.5t130.5 -25.5q39 0 85 8t101 27q25 0 48.5 -10.5t23.5 -41.5q0 -25 -32 -46t-77 -37.5t-95 -26.5t-87 -10l-16 -41q8 2 22 2q96 0 152.5 -45.5t56.5 -131.5q0 -88 -67.5 -135t-178.5 -47q-61 0 -113 9.5t-100 31.5v152 q68 -41 107 -55.5t70 -14.5q61 0 79.5 15.5t18.5 43.5q0 35 -39 44.5t-88 9.5h-16v2q0 2 2 2l-43 24l38 144q-45 6 -94 24q-143 57 -218 178t-75 287z" />
<glyph unicode="&#xe8;" horiz-adv-x="983" d="M16 516q0 109 33 203t92.5 163.5t142.5 109.5t185 40q98 0 171 -35.5t121 -101.5t71.5 -160t23.5 -213q0 -27 -16.5 -40t-42.5 -13h-557q6 -154 76.5 -243t187.5 -89q41 0 93 11.5t120 37.5q25 0 48 -10t23 -41q0 -27 -36.5 -51.5t-87 -44t-101.5 -30.5t-80 -11 q-106 0 -192 40t-147.5 108.5t-94.5 163.5t-33 206zM201 1305q0 35 22.5 56t59.5 21q25 0 44 -11t48 -40l268 -264h-123l-262 156q-25 14 -41 34.5t-16 47.5zM248 608q0 -14 12 -14h389q10 0 12.5 2t2.5 12q-6 80 -20.5 134.5t-39 88t-60.5 49t-85 17.5q-98 2 -146.5 -66.5 t-64.5 -222.5z" />
<glyph unicode="&#xe9;" horiz-adv-x="985" d="M16 516q0 109 33 203t92.5 163.5t142.5 109.5t185 40q98 0 171 -35.5t121 -101.5t71.5 -160t23.5 -213q0 -27 -16.5 -40t-42.5 -13h-557q4 -154 75.5 -243t188.5 -89q41 0 93 11.5t120 37.5q25 0 48 -10t23 -41q0 -27 -36.5 -51.5t-87 -44t-101.5 -30.5t-80 -11 q-106 0 -192 40t-147.5 108.5t-94.5 163.5t-33 206zM184 1067l269 264q29 29 48 40t44 11q37 0 60.5 -21.5t23.5 -55.5q0 -27 -17.5 -47.5t-42.5 -34.5l-262 -156h-123zM248 608q0 -14 12 -14h389q10 0 12.5 2t2.5 12q-6 82 -20.5 137.5t-40 89t-63.5 48t-91 14.5 q-92 0 -138.5 -73t-62.5 -216z" />
<glyph unicode="&#xea;" horiz-adv-x="989" d="M16 516q0 106 33 200.5t92.5 165t142.5 110.5t185 40q98 0 171 -35.5t121 -101.5t71.5 -160t23.5 -213q0 -27 -16.5 -41t-42.5 -14h-557q4 -152 75.5 -242t188.5 -90q80 0 213 51q25 0 48 -10t23 -41q0 -27 -36.5 -51.5t-87 -44t-101.5 -30.5t-80 -11q-106 0 -192 39 t-147.5 108.5t-94.5 164.5t-33 206zM201 1067l194 291h111l194 -291h-96l-153 137l-154 -137h-96zM248 608q0 -10 2 -12t10 -2h389q10 0 12.5 2t2.5 12q-6 82 -20.5 136.5t-40 88t-63.5 48t-91 14.5q-92 0 -138.5 -72t-62.5 -215z" />
<glyph unicode="&#xeb;" horiz-adv-x="987" d="M16 514q0 106 33 200.5t92.5 165t142.5 110.5t185 40q197 0 292 -137t95 -373q0 -27 -16.5 -40t-42.5 -13h-557q4 -154 75.5 -243t188.5 -89q41 0 93 11.5t120 37.5q25 0 48 -9t23 -40q0 -27 -36.5 -51.5t-87 -44t-101.5 -30.5t-80 -11q-106 0 -192 39t-147.5 108.5 t-94.5 163.5t-33 205zM248 606q0 -14 12 -14h389q10 0 12.5 2t2.5 12q-6 82 -20.5 136.5t-40 88t-63.5 48t-91 14.5q-92 0 -138.5 -72t-62.5 -215zM250 1180q0 43 26.5 64.5t69.5 21.5t70.5 -21.5t27.5 -64.5t-27.5 -64.5t-70.5 -21.5t-69.5 21.5t-26.5 64.5zM467 1180 q0 43 26.5 64.5t69.5 21.5t71 -21.5t28 -64.5t-28 -64.5t-71 -21.5t-69.5 21.5t-26.5 64.5z" />
<glyph unicode="&#xec;" horiz-adv-x="630" d="M16 1305q0 35 22.5 56t59.5 21q25 0 44.5 -11t47.5 -40l269 -264h-123l-262 156q-25 14 -41.5 34.5t-16.5 47.5zM37 55q0 29 22.5 47.5t51.5 32.5q10 4 19 8t17 11q10 8 11 14v686q0 12 -13.5 12t-25.5 2t-24.5 3t-22.5 6q-12 4 -23.5 14t-11.5 31q0 18 19.5 34.5 t49 28.5t61.5 20.5t56 8.5h78q29 0 48.5 -16.5t19.5 -47.5v-780q0 -14 14 -20.5t31 -16.5q27 -12 45 -27q10 -10 19 -22t9 -29q0 -29 -19 -42t-46 -13h-320q-25 0 -45 12t-20 43z" />
<glyph unicode="&#xed;" horiz-adv-x="651" d="M-20 1067l268 264q29 29 48 40t44 11q37 0 60.5 -21.5t23.5 -55.5q0 -27 -17.5 -47.5t-41.5 -34.5l-263 -156h-122zM16 55q0 29 22.5 47.5t51.5 32.5q10 4 19.5 8t17.5 11q10 8 10 14v686q0 12 -13 12t-26 2q-12 2 -24.5 3t-22.5 6q-12 4 -23.5 14t-11.5 31 q0 18 19.5 34.5t49.5 28.5t61.5 20.5t56.5 8.5h78q29 0 48 -16.5t19 -47.5v-780q0 -14 14.5 -20.5t30.5 -16.5q27 -12 45 -27q10 -10 19.5 -22t9.5 -29q0 -29 -19.5 -42t-46.5 -13h-319q-25 0 -45.5 12t-20.5 43z" />
<glyph unicode="&#xee;" horiz-adv-x="641" d="M-6 1067l194 291h111l195 -291h-97l-153 137l-154 -137h-96zM29 55q0 29 22.5 47.5t50.5 32.5q10 4 19.5 8t17.5 11q10 8 11 14v686q0 12 -13.5 12t-25.5 2t-24.5 3t-23.5 6q-12 4 -23 14t-11 31q0 18 19.5 34.5t49 28.5t61 19.5t56.5 7.5h78q29 0 48 -15.5t19 -46.5 v-780q0 -14 14.5 -20.5t31.5 -16.5q27 -12 45 -27q10 -10 19 -22t9 -29q0 -29 -19.5 -42t-45.5 -13h-320q-25 0 -45 12t-20 43z" />
<glyph unicode="&#xef;" horiz-adv-x="624" d="M16 53q0 29 22.5 47.5t51.5 32.5q10 4 19.5 9t17.5 12q10 8 10 14v684q0 12 -13 12t-26 2q-12 2 -24.5 3t-22.5 5q-12 4 -23.5 13.5t-11.5 30.5q0 18 19.5 34.5t49.5 28.5t61.5 20.5t56.5 8.5h78q29 0 48 -15.5t19 -46.5v-778q0 -14 14 -22l31 -15q27 -12 45 -27 q10 -10 19.5 -22t9.5 -31q0 -29 -19.5 -41t-46.5 -12h-319q-25 0 -45.5 12t-20.5 41zM16 1180q0 43 27 64.5t70 21.5t70.5 -21.5t27.5 -64.5t-27.5 -64.5t-70.5 -21.5t-70 21.5t-27 64.5zM233 1180q0 43 27 64.5t70 21.5q45 0 72.5 -20.5t27.5 -65.5q0 -43 -27.5 -64.5 t-72.5 -21.5q-43 0 -70 21.5t-27 64.5z" />
<glyph unicode="&#xf0;" horiz-adv-x="1019" d="M16 510q0 104 28 196.5t83 161t137 109.5t191 41q123 0 204 -60l-2 9q-10 41 -33.5 86t-64.5 84l-8 8l-94 -58h-125l119 115q-27 10 -55.5 15.5t-63.5 5.5q-39 0 -82 -9.5t-90 -9.5q-49 0 -60 53q0 29 31 49.5t73 33t86 18.5t72 6q111 0 209 -41l31 29q29 29 46.5 41 t45.5 10q84 -4 84 -78q0 -27 -17.5 -46t-41.5 -36l-14 -8q49 -47 86 -105q68 -111 98.5 -255t30.5 -318q0 -145 -35 -249.5t-96.5 -173t-142.5 -101.5t-173 -33q-180 0 -313 113q-37 31 -63.5 78t-45 101t-27 111.5t-8.5 106.5zM236 520q0 -8 1 -37.5t6 -68.5t17 -82 t34.5 -79t57.5 -59.5t86 -23.5q129 0 196.5 85t67.5 271v49q0 37 -5 74t-27 53q-55 86 -108.5 122t-104.5 36q-53 0 -94 -25.5t-69 -70.5t-43 -107.5t-15 -136.5z" />
<glyph unicode="&#xf1;" horiz-adv-x="1249" d="M16 53q0 31 26 45.5t50 24.5q16 6 30.5 10t14.5 17v702q0 12 -13 12t-26 2q-12 2 -24.5 3t-22.5 5q-12 4 -23.5 14.5t-11.5 31.5q0 18 19.5 34.5t49.5 28.5t61.5 20.5t56.5 8.5h78q29 0 48 -16.5t19 -47.5v-45q74 57 146.5 89t148.5 32t132 -26.5t95 -72.5t57.5 -109.5 t18.5 -137.5l-2 -526q0 -14 14.5 -18.5t30.5 -10.5q12 -4 24.5 -9t22.5 -12q10 -6 20.5 -18t10.5 -31q0 -29 -21.5 -41t-46.5 -12h-319q-25 0 -45.5 12.5t-20.5 40.5q0 31 27 45.5t49 24.5q16 6 31.5 10t15.5 17v530q0 33 -10 65.5t-30.5 59t-48 42t-64.5 15.5 q-47 0 -103.5 -25.5t-132.5 -74.5v-610q0 -14 13.5 -18.5t29.5 -10.5l22.5 -9t22.5 -12q10 -8 20.5 -19t10.5 -30q0 -29 -19.5 -41t-46.5 -12h-319q-25 0 -45.5 12t-20.5 41zM266 1030v168q47 51 87 68.5t79 17.5q16 0 48 -9t67 -20q31 -10 57.5 -18t40.5 -8q12 0 25.5 3 t33 15.5t46 36t63.5 64.5v-162q-47 -51 -87 -69.5t-81 -18.5q-16 0 -49 9t-68 21q-16 4 -32.5 9.5t-30.5 9.5q-10 4 -19.5 6t-13.5 2q-12 0 -25.5 -3t-32 -15.5t-45 -38t-63.5 -68.5z" />
<glyph unicode="&#xf2;" horiz-adv-x="1042" d="M16 494q0 180 71 312t204 183q92 35 180 35q102 0 186 -38t144.5 -107.5t93.5 -168t33 -216.5q0 -113 -33 -206t-93.5 -161t-144.5 -104.5t-186 -36.5q-104 0 -188 37.5t-143.5 105.5t-91.5 161t-32 204zM233 494q0 -158 58.5 -255.5t179.5 -97.5q117 0 179.5 91.5 t62.5 254.5q0 197 -63.5 293.5t-176.5 96.5q-49 0 -98 -23q-72 -35 -107 -128t-35 -232zM283 1305q0 35 22.5 56t59.5 21q25 0 44 -11t48 -40l268 -264h-123l-262 156q-25 14 -41 34.5t-16 47.5z" />
<glyph unicode="&#xf3;" horiz-adv-x="1042" d="M16 494q0 180 71 312t204 183q92 35 180 35q98 0 182 -37t145.5 -105.5t95.5 -167t34 -220.5q0 -111 -32 -204t-91.5 -161t-144.5 -105.5t-189 -37.5q-102 0 -186 36.5t-143.5 104.5t-92.5 161t-33 206zM225 1067l269 264q29 29 48 40t44 11q37 0 60.5 -21.5t23.5 -55.5 q0 -27 -17.5 -47.5t-42.5 -34.5l-262 -156h-123zM233 494q0 -156 57.5 -254.5t180.5 -98.5q113 0 177.5 91.5t64.5 254.5q0 182 -59.5 286t-180.5 104q-49 0 -98 -23q-72 -35 -107 -128t-35 -232z" />
<glyph unicode="&#xf4;" horiz-adv-x="1046" d="M16 494q0 180 71 311t204 184q92 35 180 35q98 0 182 -37t145.5 -106.5t95.5 -167t34 -219.5q0 -111 -32 -204t-91.5 -161t-144.5 -105.5t-189 -37.5q-102 0 -186 36.5t-143.5 104.5t-92.5 161t-33 206zM227 1067l195 291h110l195 -291h-96l-154 137l-153 -137h-97z M233 494q0 -156 57.5 -254.5t180.5 -98.5q113 0 177.5 91.5t64.5 252.5q0 184 -59.5 288t-180.5 104q-49 0 -98 -23q-72 -35 -107 -128t-35 -232z" />
<glyph unicode="&#xf5;" horiz-adv-x="989" d="M16 494q0 178 71 310t204 183q92 35 180 35q98 0 182 -37t145.5 -105.5t95.5 -166t34 -219.5q0 -111 -32 -204t-91.5 -161t-144.5 -105.5t-189 -37.5q-102 0 -186 36.5t-143.5 104.5t-92.5 161t-33 206zM184 1030v168q47 51 87 68.5t79 17.5q16 0 48 -9t67 -20 q31 -10 57.5 -18t40.5 -8q12 0 25.5 3t33 15.5t46 36t63.5 64.5v-162q-47 -51 -87 -69.5t-81 -18.5q-16 0 -49 9t-68 21q-16 4 -32.5 9.5t-30.5 9.5q-10 4 -19.5 6t-13.5 2q-12 0 -25.5 -3t-32 -15.5t-45 -38t-63.5 -68.5zM233 494q0 -158 57.5 -255.5t180.5 -97.5 q113 0 177.5 91.5t64.5 252.5q0 184 -59.5 286.5t-180.5 102.5q-55 0 -98 -22q-72 -35 -107 -128t-35 -230z" />
<glyph unicode="&#xf6;" horiz-adv-x="1044" d="M16 494q0 178 71 309t204 184q45 16 89 25.5t91 9.5q98 0 182 -37t145.5 -105.5t95.5 -167t34 -218.5q0 -111 -32 -204t-91.5 -161t-144.5 -105.5t-189 -37.5q-102 0 -186 36.5t-143.5 104.5t-92.5 161t-33 206zM233 494q0 -158 57.5 -255.5t180.5 -97.5 q113 0 177.5 91.5t64.5 252.5q0 182 -59.5 285.5t-180.5 103.5q-53 0 -98 -24q-72 -35 -107 -127t-35 -229zM270 1180q0 43 27 64.5t70 21.5t70.5 -21.5t27.5 -64.5t-27.5 -64.5t-70.5 -21.5t-70 21.5t-27 64.5zM487 1180q0 43 27 64.5t70 21.5t70.5 -21.5t27.5 -64.5 t-27.5 -64.5t-70.5 -21.5t-70 21.5t-27 64.5z" />
<glyph unicode="&#xf7;" horiz-adv-x="845" d="M16 545q2 31 22.5 48t53.5 17h656q35 0 56 -17.5t21 -49.5q0 -35 -24.5 -52.5t-52.5 -17.5h-658q-35 0 -56.5 18.5t-17.5 53.5zM283 311q0 53 32.5 79t92.5 26q59 0 93 -25.5t34 -79.5q0 -53 -34 -79.5t-93 -26.5t-92 26.5t-33 79.5zM283 780q0 53 32.5 80t92.5 27 q59 0 93 -26.5t34 -80.5q0 -53 -34 -78.5t-93 -25.5t-92 25.5t-33 78.5zM303 311q0 43 28.5 64.5t76.5 21.5q51 0 78.5 -22.5t27.5 -63.5q0 -45 -29.5 -66.5t-76.5 -21.5t-76 21.5t-29 66.5zM303 780q0 45 28.5 66.5t76.5 21.5q47 0 76.5 -21.5t29.5 -66.5 q0 -43 -29.5 -64.5t-76.5 -21.5t-76 21.5t-29 64.5zM334 311q0 -31 15.5 -45t58.5 -14t59 14.5t16 44.5q0 29 -16 43.5t-59 14.5t-58.5 -14.5t-15.5 -43.5zM334 780q0 -29 15.5 -43t58.5 -14t59 14.5t16 42.5q0 31 -16 45.5t-59 14.5t-58.5 -14.5t-15.5 -45.5z" />
<glyph unicode="&#xf8;" horiz-adv-x="1024" d="M16 487q0 176 71 307.5t204 182.5q92 35 180 35q98 0 182 -37t145.5 -104.5t95.5 -165t34 -218.5q0 -109 -32 -200.5t-91.5 -158.5t-144.5 -104.5t-189 -37.5q-102 0 -186 36.5t-143.5 102t-92.5 158.5t-33 204zM233 487q0 -72 15.5 -149.5t66.5 -134.5l209 657 q-23 6 -51 6q-53 0 -98 -24q-72 -35 -107 -127.5t-35 -227.5zM416 145q20 -6 55 -6q113 0 177.5 90t64.5 250q0 90 -15.5 162t-46.5 121q-6 10 -12 18l-12 17z" />
<glyph unicode="&#xf9;" horiz-adv-x="1193" d="M16 922q0 16 19.5 32.5t50.5 29.5t66.5 21.5t68.5 8.5h60q29 0 48 -16.5t19 -47.5v-598q0 -37 11.5 -71.5t33 -61t52 -43t69.5 -16.5q43 0 98.5 20.5t124.5 67.5v606q0 12 -13 11t-26 -1q-12 2 -24 3t-23 5q-14 6 -24.5 17.5t-10.5 32.5q0 31 62.5 61.5t202.5 30.5 q66 0 65 -64v-800q0 -12 12.5 -12.5t24.5 -2.5t23.5 -3t23.5 -5q10 -4 23.5 -13.5t13.5 -29.5q0 -18 -21.5 -35.5t-52 -31t-62.5 -20.5t-50 -7l-70 2q-74 4 -74 71v43q-145 -109 -282 -108q-158 0 -238 98.5t-80 255.5v502q0 12 -13 11t-26 -1q-12 2 -24.5 3t-22.5 5 q-14 6 -24.5 18t-10.5 32zM303 1305q0 35 22.5 56t59.5 21q25 0 44.5 -11t47.5 -40l268 -264h-122l-263 156q-25 14 -41 34.5t-16 47.5z" />
<glyph unicode="&#xfa;" horiz-adv-x="1196" d="M16 922q0 16 19.5 32.5t50.5 29.5t66.5 21.5t68.5 8.5h60q29 0 48 -16.5t19 -47.5v-598q0 -37 11.5 -71.5t33 -61t52 -43t69.5 -16.5q43 0 98.5 20.5t124.5 67.5v606q0 12 -13 11t-26 -1q-12 2 -24 3t-23 5q-14 6 -24.5 17.5t-10.5 32.5q0 31 62.5 61.5t202.5 30.5 q66 0 65 -64v-800q0 -12 12.5 -12.5t24.5 -2.5t23.5 -3t23.5 -5q10 -4 23.5 -13.5t13.5 -29.5q0 -18 -21.5 -35.5t-52 -31t-62.5 -20.5t-50 -7l-70 2q-74 4 -74 71v43q-145 -109 -282 -108q-158 0 -238 98.5t-80 255.5v502q0 12 -13 11t-26 -1q-12 2 -24.5 3t-22.5 5 q-14 6 -24.5 18t-10.5 32zM287 1067l268 264q29 29 48.5 40t43.5 11q37 0 60.5 -21.5t23.5 -55.5q0 -27 -17.5 -47.5t-41.5 -34.5l-262 -156h-123z" />
<glyph unicode="&#xfb;" horiz-adv-x="1198" d="M16 920q0 18 19.5 34.5t50.5 28.5t66.5 20.5t68.5 8.5h60q29 0 48 -15.5t19 -46.5v-598q0 -37 11.5 -71.5t33 -61t52 -43t69.5 -16.5q43 0 98.5 20.5t124.5 67.5v606q0 12 -13 10t-26 0q-12 2 -24 3t-23 5q-14 4 -24.5 16.5t-10.5 31.5q0 33 62.5 62.5t202.5 29.5 q66 0 65 -62v-800q0 -12 12.5 -12.5t24.5 -2.5t23.5 -3t23.5 -5q10 -4 23.5 -13.5t13.5 -29.5q0 -18 -21.5 -35.5t-52 -31t-62.5 -20.5t-50 -7l-70 2q-74 4 -74 71v43q-145 -109 -282 -108q-158 0 -238 98.5t-80 255.5v502q0 12 -13 10t-26 0q-12 2 -24.5 3t-22.5 5 q-14 4 -24.5 17t-10.5 31zM279 1067l194 291h111l194 -291h-96l-154 137l-153 -137h-96z" />
<glyph unicode="&#xfc;" horiz-adv-x="1198" d="M16 918q0 18 19.5 34.5t50.5 28.5t66.5 20.5t68.5 8.5h60q29 0 48 -15.5t19 -46.5v-598q0 -74 44 -132t122 -58q43 0 98.5 20.5t124.5 67.5v604q0 12 -13 10t-26 0q-12 2 -24 3t-23 5q-14 4 -24.5 16.5t-10.5 31.5q0 33 62.5 62.5t202.5 29.5q66 0 65 -62v-801 q0 -10 12.5 -10t24.5 -2t23.5 -3t23.5 -5q10 -4 23.5 -13.5t13.5 -29.5q0 -18 -21.5 -35.5t-52 -31t-62.5 -20.5t-50 -7l-70 2q-74 4 -74 71v43q-145 -109 -282 -108q-158 0 -238 98.5t-80 253.5v502q0 12 -13 10t-26 0q-12 2 -24.5 3t-22.5 5q-14 4 -24.5 17t-10.5 31z M311 1180q0 43 27 64.5t70 21.5t70.5 -21.5t27.5 -64.5t-27.5 -64.5t-70.5 -21.5t-70 21.5t-27 64.5zM528 1180q0 43 27 64.5t70 21.5t70.5 -21.5t27.5 -64.5t-27.5 -64.5t-70.5 -21.5t-70 21.5t-27 64.5z" />
<glyph unicode="&#xfd;" horiz-adv-x="1132" d="M16 958q4 29 22.5 40.5t43.5 11.5h330q27 0 46 -12.5t19 -41.5q0 -16 -12 -25t-19 -13q-10 -4 -20 -9.5t-20 -9.5t-21.5 -6t-15.5 -8q0 -2 1 -4t1 -7l186 -532l188 539q0 10 -13 13t-25 7q-18 6 -41 17q-29 14 -29 38q0 29 19.5 41.5t43.5 12.5l273 2q27 0 46 -13.5 t19 -42.5q0 -23 -32 -41q-27 -14 -63 -27.5t-46 -41.5l-383 -1065q-35 -98 -94.5 -139t-130.5 -43q-29 0 -68 9t-74.5 26.5t-60.5 43t-25 60.5q0 29 17.5 42t44.5 13q25 0 41 -8t37 -21q16 -8 32.5 -14t45.5 -6t54 17.5t42 64.5l71 199l-290 821q-10 29 -46 41t-63 26 q-10 4 -20.5 15.5t-10.5 29.5zM328 1063l268 268q29 29 48.5 40t43.5 11q37 0 60.5 -21.5t23.5 -55.5q0 -27 -17.5 -47.5t-41.5 -36.5l-262 -158h-123z" />
<glyph unicode="&#xfe;" horiz-adv-x="1048" d="M16 -354q0 20 11.5 30.5t23.5 14.5q10 4 22.5 5t24.5 3t24.5 2t14.5 12l2 1587q0 12 -13 11.5t-26 1.5q-12 2 -24.5 3t-22.5 5q-12 4 -23.5 15.5t-11.5 31.5q0 18 20.5 34.5t50.5 29t60.5 20.5t53.5 8h59q33 0 60.5 -13t27.5 -50v-424q92 47 199 47q96 0 176 -39 t137.5 -104.5t89 -153.5t31.5 -186q0 -104 -30.5 -204t-94 -176.5t-158 -123.5t-219.5 -47q-63 0 -133 18v-387q0 -37 -27.5 -50t-60.5 -13h-59q-23 0 -53.5 8t-60.5 20t-50.5 29t-20.5 35zM348 176q0 -18 16.5 -27.5t39 -11.5t45 -1t34.5 1q57 0 110.5 23.5t93.5 73 t64.5 124t24.5 177.5q0 158 -66.5 242.5t-183.5 84.5q-16 0 -45.5 -1t-59.5 -6t-51.5 -16.5t-21.5 -31.5v-631z" />
<glyph unicode="&#xff;" horiz-adv-x="1132" d="M16 956q4 29 22.5 40.5t43.5 11.5h330q27 0 46 -12.5t19 -41.5q0 -16 -12 -26t-19 -15l-20 -8l-20 -8q-10 -4 -21.5 -6t-15.5 -8q0 -2 1 -4t1 -7l186 -532l188 539v-2q0 10 -13 13t-25 7l-21 8l-20 8q-29 16 -29 41q0 29 19.5 41.5t43.5 12.5l273 2q27 0 46 -13.5 t19 -42.5q0 -27 -32 -41q-27 -14 -63 -27.5t-46 -41.5l-383 -1063q-35 -98 -94.5 -139t-130.5 -43q-29 0 -68 9t-74.5 26.5t-60.5 43t-25 58.5q0 29 17.5 43t44.5 14q25 0 41 -8t37 -21q16 -8 32.5 -14t45.5 -6t54 17.5t42 64.5l71 197l-290 821q-10 29 -46 41t-63 26 q-10 4 -20.5 14.5t-10.5 30.5zM352 1180q0 43 27 64.5t70 21.5t70.5 -21.5t27.5 -64.5q0 -45 -27.5 -65.5t-70.5 -20.5t-70 20.5t-27 65.5zM569 1180q0 43 27 64.5t70 21.5t70.5 -21.5t27.5 -64.5q0 -45 -27.5 -65.5t-70.5 -20.5t-70 20.5t-27 65.5z" />
<glyph unicode="&#x152;" horiz-adv-x="1916" d="M16 680q0 336 139.5 512t422.5 176h26q96 0 180 -25q16 16 50 17h899q31 0 49 -17.5t18 -46.5v-135q0 -25 -14 -43t-43 -18q-25 0 -42.5 21.5t-29.5 49.5q-6 16 -9 29.5t-15 13.5h-535q-12 0 -12 -12v-426q0 -8 2 -11t14 -3h232q12 0 16 14.5t10 28.5q10 23 25.5 48.5 t46.5 25.5t44 -20.5t13 -43.5v-246q0 -27 -12 -47t-45 -20q-31 0 -46.5 25.5t-25.5 47.5q-6 14 -10 28.5t-16 14.5h-232q-10 0 -13 -3t-3 -17v-442q0 -10 8 -11h532q16 0 21.5 13.5t11.5 29.5q4 10 9.5 21.5t13.5 21.5q6 10 18 19.5t31 9.5q29 0 42 -18.5t13 -42.5v-133 q0 -66 -69 -66h-893q-14 0 -28.5 3t-25.5 13q-84 -25 -180 -24h-26q-283 0 -422.5 176t-139.5 512zM227 680q0 -131 27 -229.5t75 -166t115.5 -104.5t147.5 -43q102 10 180 66q70 51 117 139v674q-47 92 -117 141q-78 55 -180 66q-162 -14 -263.5 -148.5t-101.5 -394.5z" />
<glyph unicode="&#x153;" horiz-adv-x="1685" d="M16 487q0 117 33 214.5t93.5 166t143.5 106.5t185 38t194.5 -42t151.5 -120q66 80 158 125t190 45q197 0 292 -135t95 -369q0 -27 -16 -41t-43 -14h-557q4 -150 75.5 -239t188.5 -89q41 0 93.5 11.5t119.5 37.5q25 0 48.5 -9t23.5 -40q0 -27 -37 -51.5t-87 -43 t-101.5 -29.5t-79.5 -11q-98 0 -192.5 41t-160.5 115q-61 -86 -156.5 -127t-199.5 -41q-102 0 -186 36.5t-143.5 102t-92.5 158.5t-33 204zM233 487q0 -154 57.5 -251t180.5 -97q109 0 175.5 87t66.5 241v59q0 170 -63.5 255t-176.5 85q-49 0 -98 -22q-72 -35 -107 -127.5 t-35 -229.5zM944 600q0 -14 12 -14h390q10 0 12 2t2 12q-6 80 -20.5 135.5t-40 88t-63.5 47t-91 14.5q-92 0 -138.5 -71t-62.5 -214z" />
<glyph unicode="&#x178;" horiz-adv-x="1292" d="M16 1315q0 29 20.5 41t45.5 12h338q25 0 46 -12.5t21 -40.5q0 -23 -17 -34t-36 -19l-12 -5q-6 -2 -14 -4l-25 -10q0 -2 2 -4l240 -422l231 420l-22 6q-35 8 -56.5 26.5t-21.5 45.5q0 29 20.5 41t44.5 12h279q25 0 46 -12.5t21 -40.5q0 -27 -22.5 -43.5t-57.5 -28.5 q-10 -4 -22 -7t-23 -9q-16 -8 -22 -19l-297 -542q-12 -20 -15 -32.5t-1 -19.5v-462q0 -12 13 -17.5t30 -9.5q12 -4 24 -9t23 -14q10 -6 20 -18t10 -29q0 -31 -21.5 -43t-45.5 -12h-320q-27 0 -45 13.5t-18 41.5q0 23 16.5 36t34.5 24q6 2 11 4t12 4q16 6 30.5 10t14.5 17 v464q0 10 -4.5 23.5t-14.5 30.5l-317 540q-8 12 -31 21.5t-37 13.5q-33 12 -54.5 29.5t-21.5 42.5zM416 1556q0 43 26.5 64.5t69.5 21.5t70.5 -21.5t27.5 -64.5q0 -45 -27.5 -65.5t-70.5 -20.5t-69.5 20.5t-26.5 65.5zM633 1556q0 43 26.5 64.5t69.5 21.5t70.5 -21.5 t27.5 -64.5q0 -45 -27.5 -65.5t-70.5 -20.5t-69.5 20.5t-26.5 65.5z" />
<glyph unicode="&#x2c6;" horiz-adv-x="606" d="M-6 1108l194 250h111l195 -250h-97l-153 119l-154 -119h-96z" />
<glyph unicode="&#x2dc;" horiz-adv-x="759" d="M16 1083v136q47 41 87 56t79 15q16 0 48 -7t67 -17q31 -10 57.5 -16.5t40.5 -6.5q12 0 25.5 3t33 13.5t46 29t65.5 50.5v-131q-47 -43 -88 -58t-82 -15q-16 0 -48 7t-66 17q-31 10 -57.5 16.5t-41.5 6.5q-23 0 -57.5 -16.5t-108.5 -82.5z" />
<glyph unicode="&#x2000;" horiz-adv-x="858" />
<glyph unicode="&#x2001;" horiz-adv-x="1716" />
<glyph unicode="&#x2002;" horiz-adv-x="858" />
<glyph unicode="&#x2003;" horiz-adv-x="1716" />
<glyph unicode="&#x2004;" horiz-adv-x="571" />
<glyph unicode="&#x2005;" horiz-adv-x="428" />
<glyph unicode="&#x2006;" horiz-adv-x="284" />
<glyph unicode="&#x2007;" horiz-adv-x="284" />
<glyph unicode="&#x2008;" horiz-adv-x="212" />
<glyph unicode="&#x2009;" horiz-adv-x="342" />
<glyph unicode="&#x200a;" horiz-adv-x="94" />
<glyph unicode="&#x2010;" horiz-adv-x="729" d="M16 535q2 29 22.5 45t53.5 16h488q76 0 75 -64q0 -63 -75 -63h-488q-33 0 -56.5 15.5t-19.5 50.5z" />
<glyph unicode="&#x2011;" horiz-adv-x="729" d="M16 535q2 29 22.5 45t53.5 16h488q76 0 75 -64q0 -63 -75 -63h-488q-33 0 -56.5 15.5t-19.5 50.5z" />
<glyph unicode="&#x2012;" horiz-adv-x="729" d="M16 535q2 29 22.5 45t53.5 16h488q76 0 75 -64q0 -63 -75 -63h-488q-33 0 -56.5 15.5t-19.5 50.5z" />
<glyph unicode="&#x2013;" horiz-adv-x="1071" d="M16 543q2 23 23.5 41t52.5 18h799q31 0 54.5 -18.5t23.5 -40.5q0 -23 -27 -42.5t-51 -19.5h-801q-33 0 -55.5 19.5t-18.5 42.5z" />
<glyph unicode="&#x2014;" horiz-adv-x="1611" d="M16 543q2 23 23.5 41t52.5 18h1340q31 0 54 -18.5t23 -40.5q0 -23 -26.5 -42.5t-50.5 -19.5h-1342q-33 0 -55.5 19.5t-18.5 42.5z" />
<glyph unicode="&#x2018;" horiz-adv-x="483" d="M16 1268v30q0 23 7.5 50.5t25 51t46 40t71.5 16.5q29 0 52.5 -10t23.5 -39q0 -27 -39 -41l-25 -6l-4 -2q43 -6 67.5 -29.5t24.5 -64.5q0 -45 -34.5 -66.5t-90.5 -21.5q-55 0 -90 24.5t-35 67.5z" />
<glyph unicode="&#x2019;" horiz-adv-x="491" d="M16 1364q0 47 33 69.5t90 22.5q59 0 93 -22.5t34 -69.5v-31q0 -23 -8 -50.5t-25.5 -51t-46 -38.5t-71.5 -15q-29 0 -51.5 10t-22.5 39q0 33 35 39q8 6 16 6t12 2q-88 12 -88 90z" />
<glyph unicode="&#x201a;" horiz-adv-x="464" d="M16 72q0 47 33 69.5t90 22.5q59 0 93 -22.5t34 -69.5v-31q0 -25 -8 -52.5t-25.5 -51t-46 -39t-71.5 -15.5q-29 0 -51.5 10.5t-22.5 38.5q0 20 13.5 30.5t35.5 17.5h8q2 2 4 2q-41 6 -63.5 28.5t-22.5 61.5z" />
<glyph unicode="&#x201c;" horiz-adv-x="702" d="M16 1268v30q0 23 7.5 50.5t25 51t46 40t71.5 16.5q29 0 52.5 -10t23.5 -39q0 -27 -39 -41l-25 -6l-4 -2q43 -6 67.5 -29.5t24.5 -64.5q0 -45 -34.5 -66.5t-90.5 -21.5q-55 0 -90 24.5t-35 67.5zM233 1268v30q0 25 8.5 52.5t26 51t46 39t71.5 15.5q27 0 46.5 -10t29.5 -37 q0 -29 -39 -43l-25 -6l-4 -2q43 -6 67.5 -27.5t24.5 -62.5q0 -47 -33.5 -69.5t-93.5 -22.5q-55 0 -90 24.5t-35 67.5z" />
<glyph unicode="&#x201d;" horiz-adv-x="706" d="M16 1364q0 47 33 69.5t90 22.5q59 0 93 -22.5t34 -69.5v-31q0 -23 -8 -50.5t-25.5 -51t-46 -38.5t-71.5 -15q-29 0 -51.5 10t-22.5 39q0 33 35 39q8 6 16 6t12 2q-88 12 -88 90zM231 1364q0 47 33 69.5t90 22.5q59 0 93 -22.5t34 -69.5v-31q0 -23 -8 -50.5t-25.5 -51 t-46 -38.5t-71.5 -15q-29 0 -51.5 10t-22.5 39q0 33 35 39q8 6 16 6t12 2q-88 12 -88 90z" />
<glyph unicode="&#x201e;" horiz-adv-x="763" d="M16 68q0 47 33 69.5t90 22.5q59 0 93 -22.5t34 -69.5v-31q0 -23 -8 -50.5t-25.5 -51t-46 -39t-71.5 -15.5q-29 0 -51.5 10.5t-22.5 38.5q0 33 35 39q8 6 16 6t12 2q-88 13 -88 91zM313 68q0 47 33 69.5t90 22.5q59 0 93 -22.5t34 -69.5v-31q0 -23 -8 -50.5t-25.5 -51 t-46 -39t-71.5 -15.5q-29 0 -51.5 10.5t-22.5 38.5q0 33 35 39q8 6 16 6t12 2q-88 13 -88 91z" />
<glyph unicode="&#x2022;" horiz-adv-x="796" d="M16 719q0 61 26 114.5t70 93.5t102 63.5t124 23.5t124 -23.5t102 -63.5t69.5 -94.5t25.5 -113.5t-25.5 -113.5t-69.5 -95.5t-102.5 -64.5t-125.5 -23.5q-68 0 -126 23.5t-101 64.5t-68 94.5t-25 114.5z" />
<glyph unicode="&#x2026;" horiz-adv-x="1294" d="M16 80q0 41 34 60.5t91 19.5q53 0 90 -20.5t37 -59.5q0 -41 -34.5 -60.5t-92.5 -19.5q-57 0 -91 19.5t-34 60.5zM416 80q-4 43 33.5 61.5t91.5 18.5q53 0 90 -20.5t37 -59.5q0 -41 -35 -60.5t-92 -19.5q-55 0 -89 19.5t-36 60.5zM817 80q0 41 34 60.5t91 19.5 q53 0 90 -20.5t37 -59.5q0 -41 -35 -60.5t-92 -19.5t-91 19.5t-34 60.5z" />
<glyph unicode="&#x202f;" horiz-adv-x="342" />
<glyph unicode="&#x2039;" horiz-adv-x="686" d="M16 504v12l4 16l340 367q12 14 26.5 18.5t29.5 4.5h76q14 0 27 -8.5t13 -24.5t-12 -29l-272 -350l-2 -8v-4l274 -353q4 -8 7 -15t3 -15q0 -16 -12 -24.5t-26 -8.5h-76q-31 0 -64 22l-325 369q-11 13 -11 31z" />
<glyph unicode="&#x203a;" horiz-adv-x="618" d="M16 881q0 25 14.5 33t26.5 8h76q18 -2 31.5 -7.5t23.5 -13.5l338 -371q4 -8 4 -14l5 -12q0 -18 -15 -31l-323 -369q-33 -23 -66 -22h-74q-14 0 -26.5 8t-12.5 25q0 18 13 35l272 354l-2 4l-281 356z" />
<glyph unicode="&#x205f;" horiz-adv-x="428" />
<glyph unicode="&#x20ac;" horiz-adv-x="1124" d="M-106 575q2 29 22.5 45.5t52.5 16.5h678q35 0 56.5 -16.5t21.5 -47.5t-21.5 -47t-56.5 -16h-678q-33 0 -56 15t-19 50zM-106 780q2 29 22.5 45.5t52.5 16.5h678q35 0 56.5 -16.5t21.5 -47.5t-21.5 -47t-56.5 -16h-678q-33 0 -56 15t-19 50zM16 680q0 690 611 690 q92 0 180 -20.5t180 -67.5v-188q0 -43 -16.5 -62.5t-38.5 -19.5q-33 0 -49.5 23.5t-26.5 51.5l-18 54q-27 41 -73 62.5t-120 21.5q-86 0 -161.5 -34t-132 -101.5t-88.5 -170t-32 -239.5t32 -239.5t88.5 -170t132 -101.5t161.5 -34q74 0 120 21.5t73 62.5l18 53 q10 29 26.5 52.5t49.5 23.5q23 0 39 -19.5t16 -62.5v-190q-96 -45 -184 -65.5t-176 -20.5q-309 0 -460 173t-151 517z" />
<glyph unicode="&#x2122;" horiz-adv-x="1599" d="M16 1243v74q0 23 15.5 33t34.5 10h491q45 0 45 -43l2 -72q2 -16 -9 -31.5t-34 -15.5q-14 0 -23.5 7t-13.5 14q-4 6 -6 13t-6 13q-4 4 -2 9.5t-2 5.5h-121v-555q0 -2 12 -3q31 -10 42.5 -23t11.5 -26q0 -23 -16.5 -31t-33.5 -8h-174q-16 0 -31.5 8.5t-15.5 30.5 q0 16 10.5 25.5t24.5 15.5q4 2 6 2t6 2q4 4 11.5 3t7.5 4v555h-135q-4 0 -3 -5.5t-1 -11.5q-10 -18 -22.5 -31.5t-29.5 -13.5q-23 0 -32 15.5t-9 29.5zM578 653q0 14 7 22.5t13 12.5t13 6t14 6q6 2 12 1t6 4v565q0 4 -6 3t-12 1q-6 4 -13.5 6t-13.5 6t-13 12.5t-7 22.5 q0 23 15 31t32 8h139q23 0 37 -15.5t22 -33.5l178 -447l197 449q10 18 24.5 32.5t37.5 14.5h110q18 0 32.5 -9.5t14.5 -29.5q0 -23 -17.5 -34t-35.5 -15q-12 0 -12 -2v-565q0 -4 5 -3.5t11 -1.5q6 -4 13.5 -6t13.5 -6t14 -12t8 -23q0 -23 -17.5 -31t-33.5 -8h-170 q-16 0 -32.5 8.5t-16.5 30.5q0 14 7 22.5t13 12.5t13.5 6t13.5 6q6 2 12 1t6 4v385l-165 -385q-10 -18 -24.5 -34t-37.5 -16t-38 15.5t-23 34.5l-164 401v-401q0 -4 5 -3.5t11 -1.5q6 -4 13.5 -6t13.5 -6t14 -12t8 -23q0 -23 -16 -31t-33 -8h-151q-16 0 -31.5 8t-15.5 31z " />
<glyph unicode="&#xe000;" horiz-adv-x="1000" d="M0 1000h1000v-1000h-1000v1000z" />
<glyph unicode="&#xfb01;" horiz-adv-x="1187" d="M16 55q0 16 9.5 28.5t21.5 18.5q10 6 21.5 11.5t23.5 9.5q16 4 30.5 8t14.5 19v706q0 10 -16 10h-39q-35 0 -50.5 21.5t-15.5 52.5t15.5 51.5t50.5 20.5h55q0 184 102.5 266t301.5 82q100 0 162.5 -16.5t99.5 -39t51 -45t16 -36.5q10 -18 11 -43q0 -51 -32 -76t-85 -25 t-84 25.5t-31 77.5q0 27 8 45q-20 4 -40.5 6t-38.5 2q-113 0 -171.5 -46t-58.5 -177h465q29 0 48.5 -15.5t19.5 -46.5v-780q0 -14 14 -20.5t31 -16.5q27 -12 45 -27q10 -10 19 -22t9 -29q0 -29 -19 -42t-46 -13h-320q-25 0 -45 12.5t-20 42.5q0 29 22.5 47.5t51.5 32.5 q10 4 19 8t17 11q10 8 11 14v686q0 10 -9.5 11t-25.5 1h-287v-716q0 -14 13.5 -18.5t29.5 -8.5l22.5 -9t22.5 -12q10 -6 20.5 -18t10.5 -29q0 -29 -19.5 -42t-46.5 -13h-319q-25 0 -45.5 12t-20.5 43z" />
<glyph unicode="&#xfb02;" horiz-adv-x="1150" d="M16 57q0 23 16.5 36t37.5 24q4 2 10 4l12 4q16 6 30.5 10t14.5 19v706q0 10 -16 10h-39q-35 0 -50.5 21.5t-15.5 52.5t15.5 52.5t50.5 21.5h55q0 125 33 210t106.5 137t193.5 74.5t292 22.5h80q33 0 49 -17.5t16 -45.5v-1247q0 -12 13.5 -16.5t29.5 -10.5 q25 -10 51.5 -24.5t26.5 -43.5t-19.5 -42t-45.5 -13h-322q-27 0 -45 12.5t-18 40.5q0 29 25.5 44.5t47.5 25.5q16 6 30.5 11t14.5 18v1149q0 10 -8 19t-26 9q-12 0 -20.5 2t-14.5 -4h-15q-80 0 -132 -19.5t-80.5 -58.5t-40 -97t-11.5 -136h92q35 0 51.5 -21.5t16.5 -52.5 q0 -29 -15.5 -51.5t-50.5 -22.5h-94v-718q0 -12 13.5 -16.5t29.5 -10.5l22.5 -9t22.5 -12q10 -8 20.5 -19t10.5 -28q0 -29 -19.5 -42t-46.5 -13h-319q-25 0 -45.5 12t-20.5 43z" />
<glyph unicode="&#xfb03;" horiz-adv-x="1939" d="M1392 53q0 29 22.5 48.5t51.5 33.5q10 4 19.5 8t17.5 11q10 8 10 14v684q0 12 -13 12t-26 2q-12 2 -24.5 3t-22.5 5q-12 4 -23.5 14.5t-11.5 31.5q0 18 19.5 34.5t49.5 28.5t61.5 19.5t56.5 7.5h78q29 0 48 -15.5t19 -46.5v-778q0 -14 14 -22l31 -15q27 -12 45 -27 q10 -10 19.5 -22t9.5 -31q0 -29 -19.5 -41t-46.5 -12h-319q-25 0 -45.5 12t-20.5 41zM1493 1184q0 48 29 71q32 25 85 25t85 -25.5t32 -76.5t-31.5 -76t-85.5 -25q-53 0 -83.5 26t-30.5 81zM704 55q0 16 9.5 28.5t21.5 18.5q10 6 21.5 11.5t23.5 9.5q16 4 30.5 8t14.5 19 v706q0 10 -16 10h-39q-35 0 -50.5 21.5t-15.5 52.5t15.5 51.5t50.5 20.5h55q0 184 102.5 266t301.5 82q31 0 49 -17.5t18 -46.5q0 -31 -19.5 -47t-47.5 -16q-98 0 -145.5 -47t-47.5 -174h92q35 0 51.5 -20.5t16.5 -51.5t-15.5 -52.5t-50.5 -21.5h-94v-716q0 -14 13.5 -18.5 t29.5 -8.5l22.5 -9t22.5 -12q10 -6 20.5 -18t10.5 -29q0 -29 -19.5 -42t-46.5 -13h-319q-25 0 -45.5 12t-20.5 43zM16 55q0 16 9.5 28.5t21.5 18.5q10 6 21.5 11.5t23.5 9.5q16 4 30.5 8t14.5 19v706q0 10 -16 10h-39q-35 0 -50.5 21.5t-15.5 52.5t15.5 51.5t50.5 20.5h55 q0 184 102.5 266t301.5 82q31 0 49 -17.5t18 -46.5q0 -31 -19.5 -47t-47.5 -16q-98 0 -145.5 -47t-47.5 -174h92q35 0 51.5 -20.5t16.5 -51.5t-15.5 -52.5t-50.5 -21.5h-94v-716q0 -14 13.5 -18.5t29.5 -8.5l22.5 -9t22.5 -12q10 -6 20.5 -18t10.5 -29q0 -29 -19.5 -42 t-46.5 -13h-319q-25 0 -45.5 12t-20.5 43z" />
<glyph unicode="&#xfb04;" horiz-adv-x="1929" d="M1392 55q0 16 9.5 28.5t21.5 18.5q10 6 21.5 11.5t23.5 9.5q16 6 30.5 9t14.5 18v1150q0 12 -13 11.5t-26 1.5l-24 4q-12 2 -23 6q-12 4 -23.5 14.5t-11.5 30.5q0 18 20.5 34.5t50.5 29t60.5 20.5t53.5 8h80q31 0 49 -17.5t18 -45.5v-1247q0 -14 13.5 -18.5t29.5 -8.5 l22.5 -9t22.5 -12q10 -6 20.5 -18t10.5 -29q0 -29 -19.5 -42t-46.5 -13h-319q-25 0 -45.5 12t-20.5 43zM704 55q0 16 9.5 28.5t21.5 18.5q10 6 21.5 11.5t23.5 9.5q16 4 30.5 8t14.5 19v706q0 10 -16 10h-39q-35 0 -50.5 21.5t-15.5 52.5t15.5 51.5t50.5 20.5h55 q0 184 102.5 266t301.5 82q31 0 49 -17.5t18 -46.5q0 -31 -19.5 -47t-47.5 -16q-98 0 -145.5 -47t-47.5 -174h92q35 0 51.5 -20.5t16.5 -51.5t-15.5 -52.5t-50.5 -21.5h-94v-716q0 -14 13.5 -18.5t29.5 -8.5l22.5 -9t22.5 -12q10 -6 20.5 -18t10.5 -29q0 -29 -19.5 -42 t-46.5 -13h-319q-25 0 -45.5 12t-20.5 43zM16 55q0 16 9.5 28.5t21.5 18.5q10 6 21.5 11.5t23.5 9.5q16 4 30.5 8t14.5 19v706q0 10 -16 10h-39q-35 0 -50.5 21.5t-15.5 52.5t15.5 51.5t50.5 20.5h55q0 184 102.5 266t301.5 82q31 0 49 -17.5t18 -46.5q0 -31 -19.5 -47 t-47.5 -16q-98 0 -145.5 -47t-47.5 -174h92q35 0 51.5 -20.5t16.5 -51.5t-15.5 -52.5t-50.5 -21.5h-94v-716q0 -14 13.5 -18.5t29.5 -8.5l22.5 -9t22.5 -12q10 -6 20.5 -18t10.5 -29q0 -29 -19.5 -42t-46.5 -13h-319q-25 0 -45.5 12t-20.5 43z" />
</font>
</defs>
</svg>
