<?xml version="1.0" standalone="no"?>
<!DOCTYPE svg PUBLIC "-//W3C//DTD SVG 1.1//EN" "http://www.w3.org/Graphics/SVG/1.1/DTD/svg11.dtd" >
<svg xmlns="http://www.w3.org/2000/svg">
<metadata>
This is a custom SVG webfont generated by Font Squirrel.
Copyright   : URW Software Copyright 1994 by URW
</metadata>
<defs>
<font id="webfontH1BQkWHE" horiz-adv-x="1024" >
<font-face units-per-em="2048" ascent="1692" descent="-356" />
<missing-glyph horiz-adv-x="548" />
<glyph horiz-adv-x="0" />
<glyph horiz-adv-x="548" />
<glyph unicode=" "  horiz-adv-x="548" />
<glyph unicode="&#x09;" horiz-adv-x="548" />
<glyph unicode="&#xa0;" horiz-adv-x="548" />
<glyph unicode="!" horiz-adv-x="565" d="M123 1366h321l-55 -973h-211zM145 0v266h277v-266h-277z" />
<glyph unicode="&#x22;" horiz-adv-x="831" d="M94 1366h279l-45 -532h-187zM459 1366h278l-45 -532h-186z" />
<glyph unicode="#" horiz-adv-x="1132" d="M39 453l29 159h221l33 183h-224l29 159h221l74 412h170l-72 -412h180l72 412h172l-72 -412h222l-29 -159h-221l-33 -183h221l-26 -159h-224l-80 -453h-170l80 453h-182l-78 -453h-172l80 453h-221zM459 612h180l35 183h-182z" />
<glyph unicode="$" horiz-adv-x="1132" d="M78 989q0 227 196 328q88 45 191 49v199h190v-199q49 -18 93 -55q33 -29 57 -76v131h231v-412h-231q-6 94 -37 144q-31 46 -86 73q-61 29 -121 29q-76 0 -135 -41q-68 -49 -68 -129q0 -61 45 -106q53 -53 164 -95l201 -75q180 -68 244 -162q55 -86 55 -203 q0 -143 -82 -239q-102 -127 -309 -150v-207h-193v207q-35 8 -98 51q-51 39 -72 88v-139h-231v426h231q3 -83 43 -147q33 -57 105 -91q51 -23 114 -22q94 0 150 53q55 52 55 123q0 129 -186 205l-227 92q-170 70 -232 156q-57 81 -57 194z" />
<glyph unicode="%" horiz-adv-x="1488" d="M55 1024q0 354 258 354q137 0 205 -121q47 -88 47 -223q0 -178 -67 -274q-63 -90 -189 -90q-131 0 -194 102q-60 96 -60 252zM203 1014q0 -244 108.5 -244t108.5 254t-108.5 254t-108.5 -264zM266 0l791 1366h147l-790 -1366h-148zM924 342q0 354 258 354q137 0 204 -121 q47 -88 48 -225q0 -174 -70 -272q-66 -92 -188 -92q-135 0 -195 102q-57 94 -57 254zM1071 332q0 -246 107 -246q109 0 108 254q0 126 -24 190q-25 66 -82 66q-109 0 -109 -264z" />
<glyph unicode="&#x26;" horiz-adv-x="1531" d="M61 385q0 180 148 299q68 55 147 94q-61 51 -94 92q-82 100 -82 209q0 158 131 248q106 72 277 72q190 0 286 -76q106 -82 107 -236q0 -111 -57 -186q-82 -111 -205 -168l299 -303q68 104 76 217h-127v174h503v-174h-159q-25 -205 -137 -356l104 -111h213v-180h-387 l-109 117q-68 -58 -129 -86q-125 -61 -315 -62q-213 0 -332 88q-158 117 -158 328zM344 373q0 -102 74 -168q66 -55 162 -55q84 0 155 28q53 20 119 80l-336 344q-174 -79 -174 -229zM428 1104q0 -74 78 -152l63 -63l90 59q82 61 82 152q0 61 -41 98q-41 39 -110 39 q-66 0 -109 -31q-53 -36 -53 -102z" />
<glyph unicode="'" horiz-adv-x="466" d="M94 1366h279l-45 -532h-187z" />
<glyph unicode="(" horiz-adv-x="653" d="M59 524q0 213 72 416q59 170 168 367q43 76 51 88h211q-80 -127 -133 -254q-125 -301 -125 -619q0 -201 53 -409q43 -166 152 -379q27 -49 53 -90h-211q-41 61 -141 268q-150 307 -150 612z" />
<glyph unicode=")" horiz-adv-x="653" d="M92 -356q55 80 139 272q57 125 88 289q31 160 31 317q0 340 -145 666q-53 117 -113 207h211q68 -104 141 -265q72 -154 111 -290q41 -158 41 -316q0 -217 -74 -432q-41 -117 -155 -340q-31 -61 -64 -108h-211z" />
<glyph unicode="*" horiz-adv-x="1132" d="M211 1030l65 201l191 -94l41 -25q-12 39 -14 47l-31 207h211l-31 -207q-4 -23 -14 -51q31 22 49 31l182 88l66 -201l-205 -35q-25 -4 -31 -4q-2 0 -8 1t-12 1q23 -14 41 -33l141 -149l-172 -123l-96 190l-1 4q-1 3 -3 7l-5 10q0 3 -6 18q-10 -27 -18 -41l-100 -186 l-170 123l149 152l37 30q-10 -2 -22.5 -2t-24.5 2z" />
<glyph unicode="+" horiz-adv-x="1132" d="M84 621v163h397v387h172v-387h398v-163h-398v-388h-172v388h-397z" />
<glyph unicode="," horiz-adv-x="501" d="M106 -295l113 295h-110v274h286v-274l-98 -295h-191z" />
<glyph unicode="-" horiz-adv-x="524" d="M0 403v209h524v-209h-524z" />
<glyph unicode="." horiz-adv-x="501" d="M109 0v279h284v-279h-284z" />
<glyph unicode="/" horiz-adv-x="1159" d="M-141 -356l1022 1751h231l-1022 -1751h-231z" />
<glyph unicode="0" horiz-adv-x="1132" d="M63 682q0 344 121 520q131 190 389 191q274 0 406 -242q57 -102 78 -229q14 -94 14 -220q0 -252 -59 -405q-127 -324 -449 -324q-264 0 -387 205q-74 121 -96 281q-17 114 -17 223zM346 664q0 -223 43 -353q49 -145 176 -145t176 147q47 141 47 367q0 256 -51 389 q-49 131 -170 131t-172 -143q-49 -135 -49 -393z" />
<glyph unicode="1" horiz-adv-x="1132" d="M166 850v252q143 96 178 125q39 31 164 139h280v-1180h187v-186h-680v186h213v916q-88 -80 -133 -113q-51 -41 -209 -139z" />
<glyph unicode="2" horiz-adv-x="1132" d="M63 0v262l283 248q211 186 318 328q70 90 69 182q0 86 -53 137q-45 43 -127 43q-111 0 -162 -82q-43 -66 -43 -162h-285q0 141 78 256q119 180 416 181q231 0 354 -111q113 -100 113 -270q0 -78 -20 -133q-27 -70 -68 -125q-82 -109 -430 -428q-106 -100 -174 -140 q12 2 26 2l45 -2h408v197h238v-383h-986z" />
<glyph unicode="3" horiz-adv-x="1132" d="M68 383h284q6 -90 39 -137q58 -80 166 -80q88 0 141 51q66 61 66 158q0 143 -113 196q-61 28 -190 31v189q16 0 36.5 1t34 2t21.5 1q96 10 143 65q51 61 52 150q0 86 -56 141q-47 49 -137 49q-147 0 -190 -133q-12 -39 -13 -84h-284q2 127 59 217q121 193 428 193 q217 0 340 -93q133 -100 133 -284q0 -176 -119 -256q-57 -39 -180 -60v-6q147 -12 225 -84q96 -90 97 -243q0 -203 -148 -308q-123 -86 -346 -86q-201 0 -313 70q-131 80 -166 236q-10 47 -10 104z" />
<glyph unicode="4" horiz-adv-x="1132" d="M37 344v252l549 770h342v-836h157v-186h-157v-158h157v-186h-630v186h202v158h-620zM240 530h417v605z" />
<glyph unicode="5" horiz-adv-x="1132" d="M98 348v19h285q10 -96 47 -140q55 -61 143 -61q117 0 170 92q41 72 41 186q0 127 -61 195q-51 61 -143 61q-154 0 -197 -155h-285l29 821h877v-188h-621l-14 -433q20 57 69 91q88 57 217 57q96 0 183 -37q82 -35 139 -102q90 -109 90 -301q0 -209 -106 -334 q-121 -145 -394 -146q-178 0 -301 74q-121 72 -157 217q-11 39 -11 84z" />
<glyph unicode="6" horiz-adv-x="1132" d="M82 633q0 384 154 584q135 176 397 176q242 0 352 -152q68 -92 70 -201h-277q-9 80 -43 117q-40 43 -117 43q-104 0 -167 -82q-100 -129 -101 -436q29 82 82 129q96 86 230 86q98 0 178 -39q82 -39 135 -108q92 -126 92 -308q0 -111 -37 -209q-35 -96 -106 -159 q-115 -106 -326 -107q-240 0 -385 164q-131 150 -131 502zM371 436q0 -104 47 -180q57 -90 166 -90q119 0 172 96q41 68 41 178q0 113 -43 183q-55 86 -162 86q-96 0 -162 -78q-59 -72 -59 -195z" />
<glyph unicode="7" horiz-adv-x="1132" d="M68 944v422h1013v-215q-211 -426 -247 -514q-70 -143 -259 -637h-307q184 463 262 623q55 129 277 555h-496v-234h-243z" />
<glyph unicode="8" horiz-adv-x="1132" d="M72 367q0 174 125 272q74 58 190 74q-109 23 -170 59q-125 80 -125 250q0 182 141 285q123 86 330 86q221 0 342 -90q135 -102 135 -281q0 -168 -127 -254q-66 -43 -165 -55q117 -15 190 -74q123 -94 123 -272q0 -195 -133 -297q-127 -96 -363 -97q-221 0 -352 93 q-141 101 -141 301zM346 393q0 -113 66 -174q55 -53 153.5 -53t157.5 53q66 61 65 178q0 109 -57 166q-61 63 -170 64q-100 0 -158 -64q-57 -59 -57 -170zM360 1005.5q0 -92.5 50 -147.5q53 -59 153 -59q92 0 152 53q57 55 57 152q0 90 -51 139q-59 57 -162 57 q-80 0 -137 -47q-62 -55 -62 -147.5z" />
<glyph unicode="9" horiz-adv-x="1132" d="M66 934q0 113 38 205q39 94 107 155q117 104 324 105q240 0 385 -166q131 -150 131 -500q0 -384 -154 -583q-133 -176 -395 -177q-248 0 -355 160q-61 88 -67 211h274q4 -86 43 -131q41 -47 115 -47q51 0 94 22q49 27 78 64q59 76 84 233q14 88 14 220q-25 -78 -80 -132 q-96 -86 -229 -86q-98 0 -178 39q-84 41 -135 107q-94 121 -94 301zM338 936q0 -104 43 -176q53 -84 160 -84q98 0 161 76q59 68 60 186q0 104 -45 174q-57 88 -170 88t-168 -92q-41 -63 -41 -172z" />
<glyph unicode=":" horiz-adv-x="501" d="M109 0v279h284v-279h-284zM109 696v277h284v-277h-284z" />
<glyph unicode=";" horiz-adv-x="501" d="M106 -295l113 295h-110v274h286v-274l-96 -295h-193zM109 696v277h286v-277h-286z" />
<glyph unicode="&#x3c;" d="M68 555v256l886 467v-305l-563 -291l563 -291v-303z" />
<glyph unicode="=" horiz-adv-x="1132" d="M84 453v159h967v-159h-967zM84 795v159h967v-159h-967z" />
<glyph unicode="&#x3e;" d="M70 88v303l563 291l-563 291v305l886 -467v-256z" />
<glyph unicode="?" horiz-adv-x="1046" d="M68 1010q8 154 90 243q63 74 151 107q86 33 215 33q213 0 328 -97q127 -104 127 -278q0 -190 -178 -340l-76 -64q-78 -66 -100 -143q-10 -45 -15 -96h-256q0 14 -1 30.5t-1 20.5q0 96 25 166q20 51 49 82q14 16 66 63l79 72q82 72 103 129q14 37 14 92q0 88 -47 135 q-43 41 -119 41q-104 0 -151 -84q-20 -41 -27 -112h-276zM344 0v262h277v-262h-277z" />
<glyph unicode="@" horiz-adv-x="1583" d="M78 606q0 217 119 406q123 193 329 295q176 88 377 88q274 0 455 -158q160 -141 160 -356q0 -164 -97 -308q-141 -209 -377 -208h-190l20 106q-68 -125 -241 -125q-115 0 -174 60q-63 61 -64 180q0 172 86 295q96 139 273 139q172 0 204 -135l21 116h258l-20 -108h-89 l-71 -418q86 0 143 37q98 63 148 188q33 88 32 168q0 166 -120 275q-138 123 -357 123q-139 0 -262 -52q-127 -53 -223 -145q-98 -96 -150 -215q-53 -125 -53 -252q0 -248 174 -391q139 -117 371 -117q244 0 477 111l53 -121q-272 -119 -526 -119q-283 0 -463 146 q-108 86 -166 215q-57 126 -57 280zM584 602q0 -137 129 -137q115 0 166 98q45 84 45 199q0 141 -136 141q-106 0 -161 -110q-43 -89 -43 -191z" />
<glyph unicode="A" horiz-adv-x="1583" d="M16 0v186h119l490 1180h340l485 -1180h117v-186h-602v186h178l-88 234h-561l-91 -234h181v-186h-568zM563 600h418l-207 537z" />
<glyph unicode="B" horiz-adv-x="1384" d="M63 0v186h173v992h-173v188h777q113 0 192 -23q76 -20 133 -71q104 -92 105 -248q0 -137 -76 -219q-72 -78 -221 -96q104 -8 170 -43q160 -86 160 -291q0 -166 -111 -269q-63 -57 -149.5 -81.5t-217.5 -24.5h-762zM524 186h207q127 0 191 41q88 59 88 172q0 98 -66 154 q-59 51 -203 51h-217v-418zM524 793h187q137 0 204 49q66 47 66 149q0 94 -59 142q-39 33 -88.5 39t-120.5 6h-189v-385z" />
<glyph unicode="C" horiz-adv-x="1447" d="M68 694q0 313 159 500q168 199 480 199q225 0 342 -97q41 -33 79 -100v170h234v-496h-252q-10 127 -59 197q-90 133 -281 133q-108 0 -190 -43t-134 -129q-78 -133 -77 -354q0 -219 90 -357q102 -152 309 -151q281 0 322 299h288q-6 -129 -59 -229q-66 -129 -221 -199 q-139 -63 -330 -64q-336 0 -520 193q-180 190 -180 528z" />
<glyph unicode="D" horiz-adv-x="1542" d="M63 0v186h173v992h-173v188h693q330 0 518 -164q98 -86 147 -219q53 -147 54 -305q0 -346 -215 -524q-119 -98 -273 -129q-126 -25 -276 -25h-648zM524 186h135q176 0 271 41q143 63 205 224q39 102 39 235q0 248 -138 381q-74 72 -168 92q-78 18 -170 19h-174v-992z" />
<glyph unicode="E" horiz-adv-x="1406" d="M61 0v186h175v992h-175v188h1246v-418h-234v230h-549v-392h226v162h194v-512h-194v162h-226v-412h549v250h234v-436h-1246z" />
<glyph unicode="F" horiz-adv-x="1335" d="M61 0v186h175v992h-175v188h1219v-438h-233v250h-523v-418h215v168h197v-529h-197v172h-215v-385h215v-186h-678z" />
<glyph unicode="G" horiz-adv-x="1576" d="M68 688q0 322 165 512q168 193 478 193q317 0 415 -199v172h234v-483h-234q-12 160 -102 237q-100 84 -252 84q-104 0 -194 -53q-211 -127 -211 -461q0 -248 104 -383q113 -145 281 -145q106 0 178 31q78 33 125 92q68 90 71 227h-186v186h598v-186h-147v-512h-246v182 q-37 -78 -101 -123q-126 -86 -319 -86q-156 0 -285 55.5t-217 161.5q-155 187 -155 498z" />
<glyph unicode="H" horiz-adv-x="1644" d="M66 0v186h170v992h-170v188h641v-188h-183v-394h598v394h-182v188h641v-188h-172v-992h172v-186h-641v186h182v412h-598v-412h183v-186h-641z" />
<glyph unicode="I" horiz-adv-x="786" d="M70 0v186h180v992h-180v188h651v-188h-182v-992h182v-186h-651z" />
<glyph unicode="J" horiz-adv-x="1124" d="M43 449h285q0 -111 14 -166q25 -117 147 -117q83 0 117 55q33 55 33 197v760h-205v188h629v-188h-137v-729q0 -190 -39 -271q-100 -205 -410 -205q-313 0 -395 215q-39 105 -39 261z" />
<glyph unicode="K" horiz-adv-x="1482" d="M63 0v186h173v992h-173v188h629v-188h-168v-443l443 443h-140v188h580v-188h-111l-469 -443l502 -549h115v-186h-617v186h158l-461 523v-523h168v-186h-629z" />
<glyph unicode="L" horiz-adv-x="1271" d="M63 0v186h173v992h-173v188h685v-188h-224v-992h457v306h233v-492h-1151z" />
<glyph unicode="M" horiz-adv-x="2007" d="M68 0v186h168v992h-168v188h620l221 -702q59 -184 95 -385q20 113 26 135l80 264l215 688h619v-188h-172v-992h172v-186h-601v186h160l2 478l-2 514l-393 -1178h-256l-385 1178v-514v-478h164v-186h-565z" />
<glyph unicode="N" horiz-adv-x="1634" d="M63 0v186h173v992h-173v188h570l444 -803q66 -123 125 -315q-16 442 -20 930h-176v188h581v-188h-162v-1178h-362l-475 856q-74 135 -131 301q10 -322 22 -971h176v-186h-592z" />
<glyph unicode="O" horiz-adv-x="1568" d="M68 680q0 332 184 516q197 197 539 197q352 0 548 -222q160 -181 160 -479q0 -311 -162 -497q-194 -221 -553 -222q-350 0 -546 211q-170 187 -170 496zM371 674q0 -248 110 -379q111 -129 301 -129q195 0 305 131q111 132 111 381q0 219 -76 346q-47 80 -135 127 q-95 49 -209 49q-147 0 -256 -88q-151 -123 -151 -438z" />
<glyph unicode="P" horiz-adv-x="1327" d="M59 0v186h177v992h-177v188h754q195 0 315 -92q150 -111 150 -332q0 -111 -43 -199q-45 -92 -119 -143q-80 -55 -178 -68q-82 -10 -160 -10h-254v-336h219v-186h-684zM524 709h176q96 0 146 18q129 49 129 217q0 109 -62 170q-63 63 -215 64h-174v-469z" />
<glyph unicode="Q" horiz-adv-x="1556" d="M68 682q0 354 227 551q184 160 481 160q332 0 516 -185q92 -92 142 -227q47 -131 47 -266q0 -160 -72 -320q-43 -96 -106 -153q-39 -37 -107 -72q100 16 262 16h107v-186h-199q-272 0 -381 -12q-143 -14 -244 -15q-156 0 -288 58q-135 57 -224 162q-161 190 -161 489z M371 678q0 -180 65 -316q98 -197 338 -196q184 0 281 129q53 72 90 184q33 98 33 207q0 190 -70 324q-101 190 -338 190q-139 0 -244 -86q-86 -72 -127 -215q-28 -108 -28 -221z" />
<glyph unicode="R" horiz-adv-x="1441" d="M57 0v186h179v992h-179v188h750q279 0 385 -129q80 -92 80 -229q0 -82 -31 -156q-29 -68 -84 -117q-66 -57 -213 -76v-8q88 -4 148 -41q29 -18 53 -53q18 -31 41 -98l90 -273h139v-186h-379l-139 424q-27 86 -78 117q-41 29 -125 28h-170v-383h170v-186h-637zM524 756 h170q131 0 213 57q76 51 76 162q0 203 -244 203h-215v-422z" />
<glyph unicode="S" horiz-adv-x="1236" d="M82 993q0 207 145 312q121 88 320 88q256 0 342 -156v129h233v-442h-233q0 276 -275 276q-100 0 -159 -39q-70 -45 -70 -133q0 -63 41 -98q45 -39 156 -78l241 -84q168 -61 232 -115q111 -98 110 -274q0 -195 -131 -301q-126 -104 -350 -105q-279 0 -358 172v-145h-234 v465h234q12 -100 43 -166q66 -133 243 -133q104 0 168 37q82 45 82 147q0 68 -37 107q-35 37 -161 84l-248 88q-162 57 -226 112q-108 92 -108 252z" />
<glyph unicode="T" horiz-adv-x="1406" d="M55 895v471h1299v-471h-234v283h-272v-992h201v-186h-691v186h201v992h-270v-283h-234z" />
<glyph unicode="U" horiz-adv-x="1550" d="M51 1178v188h623v-188h-187v-703q0 -92 23 -147q37 -84 121 -127q63 -35 157 -35q154 0 234 100q74 92 74 260v652h-183v188h586v-188h-149v-668q0 -236 -136 -379q-152 -158 -446 -158q-279 0 -424 144q-72 70 -113 178q-31 86 -30 174v709h-150z" />
<glyph unicode="V" horiz-adv-x="1529" d="M16 1178v188h611v-188h-193l277 -719q29 -76 69 -219q41 135 74 219l276 719h-190v188h573v-188h-110l-475 -1178h-326l-473 1178h-113z" />
<glyph unicode="W" horiz-adv-x="2052" d="M16 1178v188h568v-188h-181l150 -654q35 -158 51 -282l12 106q8 53 50 205l211 813h342l200 -782q51 -211 68 -342q23 158 53 293l154 643h-185v188h529v-188h-101l-297 -1178h-350l-190 731q-46 175 -74 424q-25 -260 -80 -467l-184 -688h-359l-286 1178h-101z" />
<glyph unicode="X" horiz-adv-x="1542" d="M27 0v186h120l441 521l-400 471h-125v188h637v-188h-174l267 -330l266 330h-172v188h596v-188h-127l-398 -471l441 -521h117v-186h-654v186h197l-314 375l-301 -375h195v-186h-612z" />
<glyph unicode="Y" horiz-adv-x="1421" d="M16 1178v188h607v-188h-179l285 -433l289 433h-168v188h557v-188h-102l-453 -656v-336h211v-186h-707v186h207v336l-448 656h-99z" />
<glyph unicode="Z" horiz-adv-x="1343" d="M82 0v233l831 945h-581v-252h-234v440h1151v-223l-841 -957h628v267h234v-453h-1188z" />
<glyph unicode="[" horiz-adv-x="653" d="M137 -356v1751h404v-168h-162v-1417h162v-166h-404z" />
<glyph unicode="\" horiz-adv-x="1159" d="M49 1395h232l1022 -1751h-234z" />
<glyph unicode="]" horiz-adv-x="653" d="M115 -190h161v1417h-161v168h403v-1751h-403v166z" />
<glyph unicode="^" d="M31 719l311 653h340l309 -653h-268l-211 448l-211 -448h-270z" />
<glyph unicode="_" d="M0 -385h1024v-127h-1024v127z" />
<glyph unicode="`" d="M205 1364v20h309l197 -297h-197z" />
<glyph unicode="a" horiz-adv-x="1187" d="M72 281q0 186 180 270q109 51 356 51q6 0 162 -4q0 77 -6 111q-22 111 -191 110q-178 0 -190 -141h-270q6 164 141 254q115 74 311 74q233 0 344 -86q65 -52 92 -123q27 -74 27 -174v-445h143v-178h-383v178q-45 -90 -112 -139q-94 -66 -242 -66q-184 0 -276 90 q-86 85 -86 218zM340 293q0 -66 49 -103q43 -31 117 -30q129 0 196 76q55 59 72 213q-61 4 -90 4q-139 0 -227 -25q-117 -34 -117 -135z" />
<glyph unicode="b" horiz-adv-x="1306" d="M31 0v178h143v1036h-143v181h424v-596q43 102 129 155q84 51 215 52q231 0 352 -158q53 -68 74 -150q23 -86 22 -198q0 -240 -102 -369q-121 -158 -346 -158q-145 0 -248 70q-78 51 -113 152v-195h-407zM446 493.5q0 -141.5 64 -235.5q68 -98 201 -98q125 0 188 94 q59 90 59 235q0 150 -53 232q-63 98 -198 98q-61 0 -113 -26q-55 -29 -84 -70q-64 -88 -64 -229.5z" />
<glyph unicode="c" horiz-adv-x="1093" d="M59 498q0 248 144 385q125 123 323 123q129 0 211 -64q59 -45 84 -104v135h213v-375h-231q-18 221 -213 221q-115 0 -180 -86q-63 -86 -64 -231q0 -156 70 -254q63 -88 182 -88q111 0 166 76q23 31 39 100h231q0 -76 -20 -125q-52 -126 -185 -191q-101 -49 -245 -49 q-246 0 -387 146q-138 139 -138 381z" />
<glyph unicode="d" horiz-adv-x="1294" d="M59 492q0 225 95 352q57 76 149 119t207 43q258 0 338 -197v405h-152v181h432v-1217h144v-178h-408v195q-23 -84 -96 -142q-104 -80 -258 -80q-206 0 -326 123q-125 132 -125 396zM346 487q0 -156 64 -241q65 -86 184 -86q131 0 201 100q61 88 61 229.5t-55 225.5 q-68 104 -207 104q-133 0 -199 -108q-49 -87 -49 -224z" />
<glyph unicode="e" horiz-adv-x="1124" d="M59 489q0 231 129 373q131 143 379 144q336 0 447 -238q53 -113 53 -309v-41h-733q6 -94 45 -156q66 -102 203 -102q170 0 211 133h260q-15 -92 -92 -178q-123 -141 -383 -142q-268 0 -412 174q-107 131 -107 342zM340 582h453q-6 102 -43 153q-61 84 -179 84 q-133 0 -196 -110q-25 -41 -35 -127z" />
<glyph unicode="f" horiz-adv-x="743" d="M29 793v180h159v94q0 147 78 238q98 111 309 110q106 0 187 -20v-178q-74 12 -117 12q-176 0 -176 -168v-88h207v-180h-207v-615h186v-178h-614v178h147v615h-159z" />
<glyph unicode="g" horiz-adv-x="1298" d="M59 508q0 225 113 358q117 139 330 140q139 0 237 -68q63 -45 90 -92q10 -14 33 -74v201h414v-180h-146v-738q0 -150 -59 -243q-126 -197 -467 -197q-236 0 -342 66q-135 84 -141 243h282q20 -61 62 -88q57 -35 129 -35q102 0 174 52q41 29 61 67q23 45 23 86v57 q0 80 10 144q-53 -84 -90 -115q-96 -84 -262 -84q-215 0 -334 137q-117 133 -117 363zM346 512q0 -131 53 -215q63 -100 199 -100q125 0 199 94q61 80 61 213q0 145 -78 233q-76 82 -186 82q-121 0 -188 -94q-60 -84 -60 -213z" />
<glyph unicode="h" horiz-adv-x="1290" d="M31 0v178h143v1036h-143v181h426v-592q14 45 35 76q23 35 59 59q92 68 235 68q160 0 248 -76q96 -84 96 -221v-531h142v-178h-557v178h135v426q0 106 -37 156q-41 59 -133 59q-106 0 -164 -67q-59 -66 -59 -215v-359h135v-178h-561z" />
<glyph unicode="i" horiz-adv-x="632" d="M45 0v178h139v615h-139v180h422v-795h127v-178h-549zM176 1133v262h291v-262h-291z" />
<glyph unicode="j" horiz-adv-x="604" d="M-16 -182q47 -8 79 -8q57 0 89 24q18 16 26 49q6 31 6 76v834h-141v180h424v-1045q0 -135 -33 -194q-66 -113 -272 -113q-82 0 -178 14v183zM174 1133v262h293v-262h-293z" />
<glyph unicode="k" horiz-adv-x="1263" d="M31 0v178h143v1036h-143v181h424v-858l327 256h-151v180h563v-180h-139l-226 -181l277 -434h111v-178h-517v178h115l-184 285l-176 -141v-144h120v-178h-544z" />
<glyph unicode="l" horiz-adv-x="622" d="M33 0v178h141v1036h-141v181h424v-1217h135v-178h-559z" />
<glyph unicode="m" horiz-adv-x="1925" d="M39 0v178h145v615h-145v180h405v-203q86 236 344 236q248 0 310 -213q31 92 112 149q88 63 211 64q143 0 234 -72q111 -86 110 -264v-492h138v-178h-549v178h131v422q0 104 -41 158q-46 61 -129 61q-96 0 -152 -78q-47 -66 -47 -194v-369h127v-178h-538v178h129v436 q0 98 -43 152q-47 53 -119 53q-100 0 -158 -88q-47 -72 -47 -194v-359h127v-178h-555z" />
<glyph unicode="n" horiz-adv-x="1296" d="M39 0v178h145v615h-143v180h403v-199q27 100 109 160q96 72 238 72q156 0 247 -74q98 -80 99 -246v-508h137v-178h-549v178h129v434q0 104 -43 155.5t-133 51.5q-96 0 -154 -67q-57 -70 -57 -187v-387h131v-178h-559z" />
<glyph unicode="o" horiz-adv-x="1198" d="M59 489q0 248 154 383q147 133 393 134q238 0 389 -142q147 -139 148 -375q0 -219 -133 -358q-152 -158 -408 -158q-248 0 -401 148q-142 138 -142 368zM346 489q0 -131 57 -223q68 -106 195 -106q147 0 213 121q43 83 43 215q0 133 -47 209q-72 115 -209 114 q-65 0 -117 -31q-55 -33 -84 -81q-51 -91 -51 -218z" />
<glyph unicode="p" horiz-adv-x="1290" d="M16 -178h146v971h-146v180h408v-213q14 59 37 94q25 39 61 70q100 82 264 82q213 0 330 -138q63 -72 90 -159q27 -86 27 -217q0 -231 -100 -363q-119 -156 -355 -156q-256 0 -336 201v-352h158v-178h-584v178zM434 487q0 -147 62 -229q70 -98 198 -98q63 0 116.5 28.5 t84.5 73.5q49 78 49 225q0 154 -57 238q-66 94 -191 94q-123 0 -196 -96q-66 -84 -66 -236z" />
<glyph unicode="q" horiz-adv-x="1294" d="M59 485q0 238 111 373q117 147 338 148q168 0 272 -93q63 -53 84 -135v195h408v-180h-146v-971h146v-178h-586v178h160v356q-14 -49 -35 -78q-20 -31 -59 -57q-96 -72 -240 -72q-223 0 -342 144q-111 130 -111 370zM346 477q0 -129 53 -217q61 -100 195 -100 q129 0 201 96q61 83 61 233q0 145 -61 232q-70 98 -205 98q-129 0 -189 -102q-55 -96 -55 -240z" />
<glyph unicode="r" horiz-adv-x="874" d="M37 0v178h147v615h-147v180h412v-228q18 96 81 162q92 98 215 99q55 0 91 -33v-242q-55 12 -97 12q-113 0 -184 -63q-45 -39 -68 -96q-20 -53 -20 -138v-268h174v-178h-604z" />
<glyph unicode="s" horiz-adv-x="1009" d="M70 0v340h223q2 -53 29 -98q49 -82 180 -82q68 0 119 24q61 28 61 86q0 53 -47 82q-31 18 -141 37l-123 23q-164 29 -232 102q-61 68 -61 184q0 138 98 222q102 88 266 88q125 0 201 -60q39 -27 76 -92v117h205v-326h-217v12q0 61 -41 107q-47 53 -160 53q-80 0 -127 -31 q-41 -29 -41 -75q0 -39 27 -64q29 -27 133 -45l116 -22q328 -61 328 -293q0 -145 -106 -234q-96 -82 -267 -82q-215 0 -293 152v-125h-206z" />
<glyph unicode="t" horiz-adv-x="804" d="M0 793v180h162v196l280 99v-295h279v-180h-279v-510q0 -58 7 -74q18 -49 73 -49q57 0 76 53q8 25 12 119h168v-43q0 -133 -49 -207q-74 -109 -258 -109q-158 0 -233.5 78t-75.5 248v494h-162z" />
<glyph unicode="u" horiz-adv-x="1273" d="M18 793v180h424v-606q0 -207 172 -207q106 0 166 90q45 70 45 190v353h-147v180h430v-795h141v-178h-403v195q-74 -223 -348 -224q-172 0 -267 107q-51 59 -63 135q-6 46 -6 111v469h-144z" />
<glyph unicode="v" horiz-adv-x="1179" d="M12 793v180h520v-180h-137l111 -293q39 -98 69 -197q18 -57 29 -137q20 100 98 313l119 314h-139v180h485v-180h-84l-321 -793h-336l-322 793h-92z" />
<glyph unicode="w" horiz-adv-x="1867" d="M12 793v180h527v-180h-146l105 -342q41 -141 63 -283q6 20 21 92q16 88 51 213l149 500h336l156 -522q45 -150 63 -283l6 33l7.5 44t6.5 34.5t3 19.5q10 59 51 193l94 301h-143v180h493v-180h-102l-260 -793h-348l-158 520q-41 133 -53 262q-8 -111 -53 -256l-162 -526 h-342l-260 793h-105z" />
<glyph unicode="x" horiz-adv-x="1204" d="M31 0v178h84l305 322l-285 293h-88v180h504v-166h-131l192 -209l187 209h-117v166h477v-180h-90l-270 -293l295 -322h82v-178h-517v166h142l-211 227l-207 -227h139v-166h-491z" />
<glyph unicode="y" horiz-adv-x="1181" d="M12 793v180h525v-180h-144l168 -394q33 -80 55 -174q16 70 68 199l143 369h-143v180h485v-180h-84l-401 -904q-63 -139 -111 -194q-68 -74 -241 -74q-84 0 -146 12v193q66 -16 109 -16q49 0 76 12q22 12 37 31q12 16 32 61l33 72l-373 807h-88z" />
<glyph unicode="z" horiz-adv-x="1048" d="M61 0v207l584 600h-354v-152h-213v318h885v-205l-586 -602h385v170h213v-336h-914z" />
<glyph unicode="{" horiz-adv-x="772" d="M96 438v160q51 12 84 51t33 137v310q0 102 18 149q41 111 154 133q61 16 211 17h49v-162h-22q-53 0 -86 -8q-31 -8 -52 -25q-31 -31 -34 -76q-4 -41 -5 -67v-291q0 -96 -22 -145q-27 -61 -94 -103q68 -41 96 -110q20 -51 20 -136v-288q0 -86 15 -111q27 -47 67 -57 q37 -10 95 -11h22v-161h-49q-160 0 -211 14q-88 20 -131 90q-41 63 -41 195v309q0 94 -33 137q-35 37 -84 49z" />
<glyph unicode="|" d="M426 -342v1708h172v-1708h-172z" />
<glyph unicode="}" horiz-adv-x="772" d="M129 -195h23q51 0 84 9q35 8 53 24q33 33 35 76q4 37 4 70v288q0 96 22 146q27 57 94 100q-71 43 -98 111q-18 47 -18 137v291q0 84 -15 108q-27 47 -67 58q-37 10 -94 10h-23v162h49q150 0 211 -17q90 -23 131 -88q41 -68 41 -194v-310q0 -98 33 -137t84 -51v-160 q-49 -12 -84 -49q-33 -43 -33 -137v-309q0 -104 -18 -152q-39 -109 -154 -133q-51 -14 -211 -14h-49v161z" />
<glyph unicode="~" d="M195 547q2 86 34 147q55 109 148 109q51 0 143 -35q86 -33 111 -33q33 0 51 25q16 23 20 57h127v-10q0 -100 -57 -178q-49 -68 -125 -68q-41 0 -139 35q-94 33 -117 33q-66 0 -72 -82h-124z" />
<glyph unicode="&#xa1;" horiz-adv-x="565" d="M123 -393l53 973h211l57 -973h-321zM145 705v268h277v-268h-277z" />
<glyph unicode="&#xa2;" horiz-adv-x="1132" d="M100 709q0 135 54 252q72 158 229 221q49 18 113 22v170h190v-186q39 -16 78 -62q35 -41 53 -90v146h215v-379h-235q0 86 -31 135q-55 84 -162 84q-113 0 -174 -98q-53 -86 -53 -230q0 -152 69 -239q57 -74 168 -74q102 0 152 74q25 37 31 92h235q0 -123 -78 -217 q-100 -123 -268 -135v-168h-190v168q-115 12 -217 90q-88 66 -140 200q-39 113 -39 224z" />
<glyph unicode="&#xa3;" horiz-adv-x="1132" d="M35 0v186h160v455h-160v186h160v138q0 158 51 241q113 186 409 187q258 0 367 -152q55 -78 59 -215h-262q-4 86 -31 123q-39 51 -126 51q-180 0 -181 -207v-166h230v-186h-230v-455h338v209h262v-395h-1046z" />
<glyph unicode="&#xa4;" horiz-adv-x="1132" d="M92 1059l121 119l127 -127q109 70 227 69q123 0 232 -69l125 125l116 -115l-127 -127q72 -109 72 -232q0 -121 -70 -227l127 -127l-120 -119l-127 125q-68 -41 -111 -55q-45 -14 -115 -14q-119 0 -231 71l-127 -127l-117 117l125 125q-70 106 -69 231q0 123 69 230z M342 705q0 -96 70 -164q63 -63 155 -64q94 0 162 70q63 63 64 155q0 102 -70 166q-68 61 -160 61.5t-160 -69.5q-61 -61 -61 -155z" />
<glyph unicode="&#xa5;" horiz-adv-x="1132" d="M-4 1178v188h516v-188h-131l209 -433l213 433h-123v188h471v-188h-82l-192 -351h163v-157h-252l-79 -150h264v-158h-264v-176h204v-186h-688v186h201v176h-264v158h264l-78 150h-256v157h168l-188 351h-76z" />
<glyph unicode="&#xa6;" d="M426 461h172v-922h-172v922zM426 565v918h172v-918h-172z" />
<glyph unicode="&#xa7;" horiz-adv-x="1132" d="M113 586q0 106 71 178q43 43 117 67q-66 18 -104 64q-68 80 -68 178q0 150 127 240q111 80 307 80q169 0 264 -50q123 -66 160 -206q10 -41 10 -88h-264q-4 68 -22 100q-39 70 -148 70q-57 0 -106 -25q-55 -27 -56 -90q0 -47 31 -78q20 -23 133 -68l215 -86 q123 -49 166 -88q76 -68 76 -186q0 -106 -72 -178q-43 -43 -106 -55q66 -25 106 -72q63 -76 64 -182q0 -162 -129 -254q-111 -78 -320 -78q-267 0 -375 153q-61 89 -67 197h268q6 -63 35 -109q45 -63 145 -63q74 0 119 29q51 33 51 98q0 84 -114 127l-269 98 q-131 49 -184 109q-61 64 -61 168zM352 633q0 -96 158 -152l172 -61q37 23 55 41q39 41 39 96q0 53 -41 90q-35 31 -102 55l-191 70q-41 -23 -57 -43q-33 -39 -33 -96z" />
<glyph unicode="&#xa8;" d="M207 1120v252h219v-252h-219zM600 1120v252h219v-252h-219z" />
<glyph unicode="&#xa9;" horiz-adv-x="1554" d="M68 682q0 141 55 274q53 127 153 228q215 209 512 209q133 0 263 -56q133 -57 229 -153q209 -205 209 -502q0 -293 -209 -502q-207 -207 -502 -207q-147 0 -272 54q-133 57 -230 153q-96 94 -153 232q-55 129 -55 270zM184 682q0 -246 174 -420t420 -174t420 174t174 420 q0 121 -45 229q-46 111 -129 191q-176 174 -428 174q-115 0 -219 -45q-111 -47 -193 -129q-174 -172 -174 -420zM352 682q0 178 94 285q100 113 285 112q117 0 184 -43q27 -16 54 -49v78h147v-291h-158q-12 184 -190 184q-127 0 -182 -92q-43 -74 -43 -194q0 -125 49 -199 q55 -82 174 -82q160 0 180 168h180q-4 -80 -34 -137q-39 -74 -131 -115q-84 -37 -195 -37q-200 0 -307 111t-107 301z" />
<glyph unicode="&#xaa;" horiz-adv-x="749" d="M76 979q0 111 104 156q68 29 199 28q43 0 88 -2q0 55 -14 76q-25 31 -91 31q-94 0 -100 -64h-164q4 92 82 142q63 39 176 38q135 0 199 -49q70 -51 70 -168v-235h80v-113h-228v78q-58 -92 -190 -92q-106 0 -160 51q-51 47 -51 123zM240 987q0 -66 86 -65q68 0 104 39 q29 33 39 104q-12 2 -41 2q-86 0 -129 -12q-59 -19 -59 -68z" />
<glyph unicode="&#xab;" horiz-adv-x="858" d="M63 508l175 407h204l-174 -405l172 -420h-202zM391 506l172 409h205l-174 -405l172 -420h-203z" />
<glyph unicode="&#xac;" d="M68 328v266h886v-594h-297v328h-589z" />
<glyph unicode="&#xad;" horiz-adv-x="524" d="M0 403v209h524v-209h-524z" />
<glyph unicode="&#xae;" horiz-adv-x="1554" d="M68 682q0 141 55 274q53 127 153 228q215 209 512 209q133 0 263 -56q133 -57 229 -153q209 -205 209 -502q0 -293 -209 -502q-207 -207 -502 -207q-147 0 -272 54q-133 57 -230 153q-96 94 -153 232q-55 129 -55 270zM184 682q0 -246 174 -420t420 -174t420 174t174 420 q0 121 -45 229q-46 111 -129 191q-176 174 -428 174q-115 0 -219 -45q-111 -47 -193 -129q-174 -172 -174 -420zM387 287v119h102v540h-102v119h440q164 0 230 -74q47 -53 47 -133q0 -160 -158 -196q31 -6 49 -21q39 -25 60 -88l49 -147h84v-119h-234l-80 241q-14 41 -43 64 q-20 14 -67 14h-92v-200h98v-119h-383zM672 725h92q72 0 119 31q41 27 41 84q0 106 -136 106h-116v-221z" />
<glyph unicode="&#xb0;" horiz-adv-x="817" d="M102 1094q0 143 105 231q92 80 209 80q133 0 221 -96q80 -86 80 -217q0 -129 -86 -220q-90 -94 -223 -94q-141 0 -234 109q-72 84 -72 207zM217 1092q0 -71 49 -129q59 -66 144 -66q80 0 131 51q57 57 57 144q0 80 -49 135q-55 61 -141 61q-78 0 -132 -53 q-59 -57 -59 -143z" />
<glyph unicode="&#xb1;" horiz-adv-x="1122" d="M20 754v112h486v490h112v-490h486v-112h-486v-490h-112v490h-486zM23 0v113h1073v-113h-1073z" />
<glyph unicode="&#xb2;" horiz-adv-x="755" d="M49 547v164l182 147q145 119 203 193q43 51 43 102t-33 78q-25 23 -75 22q-66 0 -99 -45q-25 -37 -24 -98h-197q0 68 37 137q74 133 287 133q145 0 229 -65q76 -63 76 -164q0 -86 -60 -158q-45 -55 -235 -221q-66 -55 -127 -100h270v114h166v-239h-643z" />
<glyph unicode="&#xb3;" horiz-adv-x="755" d="M51 786h197q6 -129 125 -129q51 0 86 29q37 35 37 88q0 82 -68 111q-33 16 -125 16v125h21q86 4 118 27q45 33 45 96q0 47 -32 78q-29 27 -84 26q-119 0 -123 -127h-197q4 86 39 140q78 115 281 114q141 0 221 -55q90 -61 90 -174q0 -76 -45 -127q-37 -39 -119 -57 q70 -14 100 -37q76 -55 76 -162q0 -121 -96 -184q-82 -53 -225 -54q-162 0 -240 63.5t-82 192.5z" />
<glyph unicode="&#xb4;" d="M324 1087l194 299h293v-22l-293 -277h-194z" />
<glyph unicode="&#xb5;" horiz-adv-x="1179" d="M68 -301q0 47 34 186q25 90 25 158v981h180v-678q0 -102 39 -156q20 -31 64 -51q41 -20 86 -20q68 0 141 51q39 27 88 96v758h180v-756q0 -117 45 -159q29 -25 56 -25q53 0 84 74q16 37 18 65l53 -2q-18 -102 -67 -164q-68 -84 -176 -84q-96 0 -146 70q-29 43 -47 123 q-164 -193 -315 -193q-74 0 -140 45q-35 25 -63 50v-29q0 -61 22 -148q39 -135 39 -190q0 -74 -28 -111q-31 -39 -70 -39q-41 0 -68 33q-34 41 -34 115z" />
<glyph unicode="&#xb6;" horiz-adv-x="1226" d="M53 940q0 190 103 309q100 117 305 117h694v-174h-141v-1215h141v-172h-813v172h178v549h-12q-166 0 -248 35q-113 51 -170 182q-37 89 -37 197zM717 -23h102v1215h-102v-1215z" />
<glyph unicode="&#xb7;" horiz-adv-x="501" d="M109 561v279h284v-279h-284z" />
<glyph unicode="&#xb8;" d="M279 -422l30 86q76 -35 148 -35q119 0 118 78q0 35 -26.5 55.5t-61.5 20.5q-33 0 -86 -16l-39 38l127 195h89l-89 -143q47 10 74 10q74 0 121 -35q59 -41 59 -115q0 -78 -67 -127q-66 -49 -180 -49q-100 0 -217 37z" />
<glyph unicode="&#xb9;" horiz-adv-x="755" d="M115 1042v164q113 72 223 160h190v-696h119v-123h-450v123h137v518q-90 -72 -219 -146z" />
<glyph unicode="&#xba;" horiz-adv-x="749" d="M66 1094q0 139 88 214.5t227 75.5q135 0 221 -79q84 -78 84 -211q0 -125 -76 -201q-86 -88 -233 -88q-145 0 -230 82q-81 80 -81 207zM242 1094q0 -76 28 -119q37 -55 105 -55q80 0 112 63q25 43 25 115q0 68 -27 110q-35 59 -110 60q-72 0 -107 -60q-26 -44 -26 -114z " />
<glyph unicode="&#xbb;" horiz-adv-x="858" d="M90 915h205l174 -409l-174 -416h-201l170 420zM416 915h207l172 -407l-172 -418h-203l170 420z" />
<glyph unicode="&#xbc;" horiz-adv-x="1781" d="M115 1042v164q113 72 223 160h190v-696h119v-123h-450v123h137v518q-90 -72 -219 -146zM408 0l790 1366h176l-790 -1366h-176zM1057 207v153l354 459h231v-491h101v-121h-101v-82h101v-125h-418v125h129v82h-397zM1208 328h246v327z" />
<glyph unicode="&#xbd;" horiz-adv-x="1781" d="M115 1042v164q113 72 223 160h190v-696h119v-123h-450v123h137v518q-90 -72 -219 -146zM408 0l790 1366h176l-790 -1366h-176zM1075 0v166l182 147q139 115 203 193q43 51 43 102q0 49 -33 76q-29 25 -75 25q-66 0 -99 -45q-25 -37 -24 -99h-197q0 72 35 137 q74 133 289 134q147 0 229 -66q76 -63 76 -166q0 -82 -59 -158q-39 -47 -236 -219q-70 -59 -129 -102h272v115h166v-240h-643z" />
<glyph unicode="&#xbe;" horiz-adv-x="1781" d="M51 786h197q6 -129 125 -129q51 0 86 29q37 35 37 88q0 82 -68 111q-33 16 -125 16v125h21q86 4 118 27q45 33 45 96q0 47 -32 78q-29 27 -84 26q-119 0 -123 -127h-197q4 86 39 140q78 115 281 114q141 0 221 -55q90 -61 90 -174q0 -76 -45 -127q-37 -39 -119 -57 q70 -14 100 -37q76 -55 76 -162q0 -121 -96 -184q-82 -53 -225 -54q-162 0 -240 63.5t-82 192.5zM408 0l790 1366h176l-790 -1366h-176zM1059 207v153l354 459h229v-491h101v-121h-101v-82h101v-125h-418v125h129v82h-395zM1208 328h246v327z" />
<glyph unicode="&#xbf;" horiz-adv-x="1046" d="M68 -45q0 188 178 340l73 63q82 72 103 142q4 16 12 98h258q0 -14 1 -32.5t1 -22.5q0 -96 -24 -162q-20 -57 -115 -145l-80 -72q-82 -76 -102 -129q-14 -37 -15 -90q0 -90 48 -138q43 -41 118 -40q106 0 152 83q20 41 26 113h277q-8 -152 -88 -244q-68 -77 -166 -110 q-86 -29 -203 -29q-213 0 -327 96q-127 105 -127 279zM426 709v264h274v-264h-274z" />
<glyph unicode="&#xc0;" horiz-adv-x="1583" d="M16 0v186h119l490 1180h340l485 -1180h117v-186h-602v186h178l-88 234h-561l-91 -234h181v-186h-568zM563 600h418l-207 537zM484 1747v20h309l197 -297h-197z" />
<glyph unicode="&#xc1;" horiz-adv-x="1583" d="M16 0v186h119l490 1180h340l485 -1180h117v-186h-602v186h178l-88 234h-561l-91 -234h181v-186h-568zM563 600h418l-207 537zM603 1470l194 299h293v-20l-293 -279h-194z" />
<glyph unicode="&#xc2;" horiz-adv-x="1583" d="M16 0v186h119l490 1180h340l485 -1180h117v-186h-602v186h178l-88 234h-561l-91 -234h181v-186h-568zM563 600h418l-207 537zM469 1470l205 299h244l197 -299h-197l-129 189l-129 -189h-191z" />
<glyph unicode="&#xc3;" horiz-adv-x="1583" d="M16 0v186h119l490 1180h340l485 -1180h117v-186h-602v186h178l-88 234h-561l-91 -234h181v-186h-568zM563 600h418l-207 537zM474 1487q2 84 34 145q55 109 148 109q51 0 143 -35q86 -33 111 -33q33 0 51 25q16 27 20 59h127v-10q0 -102 -57 -180q-49 -68 -125 -68 q-41 0 -139 35q-90 33 -117 33q-66 0 -72 -80h-124z" />
<glyph unicode="&#xc4;" horiz-adv-x="1583" d="M16 0v186h119l490 1180h340l485 -1180h117v-186h-602v186h178l-88 234h-561l-91 -234h181v-186h-568zM485 1475v254h220v-254h-220zM563 600h418l-207 537zM879 1477v252h219v-252h-219z" />
<glyph unicode="&#xc5;" horiz-adv-x="1583" d="M16 0v186h119l490 1180h340l485 -1180h117v-186h-602v186h178l-88 234h-561l-91 -234h181v-186h-568zM563 600h418l-207 537zM574 1667q0 92 63.5 155.5t157.5 63.5q90 0 153.5 -63.5t63.5 -155.5t-63.5 -155.5t-155.5 -63.5t-155.5 63.5t-63.5 155.5zM676 1667 q0 -47 35 -82t82 -35t82 35t35 82t-35 82t-82 35t-82 -35t-35 -82z" />
<glyph unicode="&#xc6;" horiz-adv-x="2078" d="M14 0v186h82l625 1180h1245v-420h-233v232h-586l67 -385h213v168h197v-523h-197v168h-182l74 -420h426v252h231v-438h-1110v186h185l-37 230h-537l-127 -230h178v-186h-514zM565 598h416l-102 592z" />
<glyph unicode="&#xc7;" horiz-adv-x="1447" d="M68 682q0 391 229 578q164 133 410 133q203 0 327 -88q61 -43 94 -107l-4 168h236v-498h-252q0 123 -66 207q-96 125 -274 125q-199 0 -315 -168q-82 -119 -82 -354q0 -266 118 -393q106 -115 279 -115q199 0 279 147q37 63 43 148h290q-12 -236 -178 -367 q-59 -49 -135 -78q-74 -29 -176 -40q-33 -4 -107 -9l-67 -102q39 10 80 10q59 0 110 -29q74 -43 74 -122q0 -84 -78 -134q-72 -47 -184 -47q-92 0 -223 41l30 86q102 -39 168 -39q53 0 86 27q27 20 27 55q0 37 -35 60q-27 18 -65 18q-43 0 -86 -14l-39 39l104 155 q-201 18 -330 99q-288 178 -288 608z" />
<glyph unicode="&#xc8;" horiz-adv-x="1406" d="M61 0v186h175v992h-175v188h1246v-418h-234v230h-549v-392h226v162h194v-512h-194v162h-226v-412h549v250h234v-436h-1246zM398 1747v20h309l197 -297h-197z" />
<glyph unicode="&#xc9;" horiz-adv-x="1406" d="M61 0v186h175v992h-175v188h1246v-418h-234v230h-549v-392h226v162h194v-512h-194v162h-226v-412h549v250h234v-436h-1246zM517 1470l194 299h293v-20l-293 -279h-194z" />
<glyph unicode="&#xca;" horiz-adv-x="1406" d="M61 0v186h175v992h-175v188h1246v-418h-234v230h-549v-392h226v162h194v-512h-194v162h-226v-412h549v250h234v-436h-1246zM380 1470l205 299h244l197 -299h-197l-129 189l-129 -189h-191z" />
<glyph unicode="&#xcb;" horiz-adv-x="1406" d="M61 0v186h175v992h-175v188h1246v-418h-234v230h-549v-392h226v162h194v-512h-194v162h-226v-412h549v250h234v-436h-1246zM398 1477v252h219v-252h-219zM791 1477v252h219v-252h-219z" />
<glyph unicode="&#xcc;" horiz-adv-x="786" d="M70 0v186h180v992h-180v188h651v-188h-182v-992h182v-186h-651zM86 1747v20h309l197 -297h-197z" />
<glyph unicode="&#xcd;" horiz-adv-x="786" d="M70 0v186h180v992h-180v188h651v-188h-182v-992h182v-186h-651zM205 1470l194 299h293v-20l-293 -279h-194z" />
<glyph unicode="&#xce;" horiz-adv-x="786" d="M70 0v186h180v992h-180v188h651v-188h-182v-992h182v-186h-651zM71 1470l205 299h244l197 -299h-197l-129 189l-129 -189h-191z" />
<glyph unicode="&#xcf;" horiz-adv-x="786" d="M70 0v186h180v992h-180v188h651v-188h-182v-992h182v-186h-651zM88 1477v252h219v-252h-219zM481 1477v252h219v-252h-219z" />
<glyph unicode="&#xd0;" horiz-adv-x="1544" d="M63 629v149h175v400h-175v188h695q330 0 518 -164q96 -82 147 -219q53 -147 54 -303q0 -348 -215 -526q-115 -96 -273 -129q-126 -25 -276 -25h-650v186h175v443h-175zM524 186h138q174 0 268 41q143 63 205 224q39 102 39 237q0 246 -136 379q-74 70 -170 92 q-78 18 -168 19h-176v-400h359v-149h-359v-443z" />
<glyph unicode="&#xd1;" horiz-adv-x="1634" d="M63 0v186h173v992h-173v188h570l444 -803q66 -123 125 -315q-16 442 -20 930h-176v188h581v-188h-162v-1178h-362l-475 856q-74 135 -131 301q10 -322 22 -971h176v-186h-592zM500 1487q2 84 34 145q55 109 148 109q51 0 143 -35q86 -33 111 -33q33 0 51 25q16 27 20 59 h127v-10q0 -102 -57 -180q-49 -68 -125 -68q-41 0 -139 35q-90 33 -117 33q-66 0 -72 -80h-124z" />
<glyph unicode="&#xd2;" horiz-adv-x="1568" d="M68 680q0 332 184 516q197 197 539 197q352 0 548 -222q160 -181 160 -479q0 -311 -162 -497q-194 -221 -553 -222q-350 0 -546 211q-170 187 -170 496zM371 674q0 -248 110 -379q111 -129 301 -129q195 0 305 131q111 132 111 381q0 219 -76 346q-47 80 -135 127 q-95 49 -209 49q-147 0 -256 -88q-151 -123 -151 -438zM477 1747v20h309l197 -297h-197z" />
<glyph unicode="&#xd3;" horiz-adv-x="1568" d="M68 680q0 332 184 516q197 197 539 197q352 0 548 -222q160 -181 160 -479q0 -311 -162 -497q-194 -221 -553 -222q-350 0 -546 211q-170 187 -170 496zM371 674q0 -248 110 -379q111 -129 301 -129q195 0 305 131q111 132 111 381q0 219 -76 346q-47 80 -135 127 q-95 49 -209 49q-147 0 -256 -88q-151 -123 -151 -438zM596 1470l194 299h293v-20l-293 -279h-194z" />
<glyph unicode="&#xd4;" horiz-adv-x="1568" d="M68 680q0 332 184 516q197 197 539 197q352 0 548 -222q160 -181 160 -479q0 -311 -162 -497q-194 -221 -553 -222q-350 0 -546 211q-170 187 -170 496zM371 674q0 -248 110 -379q111 -129 301 -129q195 0 305 131q111 132 111 381q0 219 -76 346q-47 80 -135 127 q-95 49 -209 49q-147 0 -256 -88q-151 -123 -151 -438zM462 1470l205 299h244l197 -299h-197l-129 189l-129 -189h-191z" />
<glyph unicode="&#xd5;" horiz-adv-x="1568" d="M68 680q0 332 184 516q197 197 539 197q352 0 548 -222q160 -181 160 -479q0 -311 -162 -497q-194 -221 -553 -222q-350 0 -546 211q-170 187 -170 496zM371 674q0 -248 110 -379q111 -129 301 -129q195 0 305 131q111 132 111 381q0 219 -76 346q-47 80 -135 127 q-95 49 -209 49q-147 0 -256 -88q-151 -123 -151 -438zM467 1487q2 84 34 145q55 109 148 109q51 0 143 -35q86 -33 111 -33q33 0 51 25q16 27 20 59h127v-10q0 -102 -57 -180q-49 -68 -125 -68q-41 0 -139 35q-90 33 -117 33q-66 0 -72 -80h-124z" />
<glyph unicode="&#xd6;" horiz-adv-x="1568" d="M68 680q0 332 184 516q197 197 539 197q352 0 548 -222q160 -181 160 -479q0 -311 -162 -497q-194 -221 -553 -222q-350 0 -546 211q-170 187 -170 496zM371 674q0 -248 110 -379q111 -129 301 -129q195 0 305 131q111 132 111 381q0 219 -76 346q-47 80 -135 127 q-95 49 -209 49q-147 0 -256 -88q-151 -123 -151 -438zM477 1475v254h219v-254h-219zM872 1477v252h220v-252h-220z" />
<glyph unicode="&#xd7;" horiz-adv-x="1132" d="M133 1018l121 119l315 -316l314 314l114 -115l-313 -315l315 -316l-118 -119l-316 316l-313 -314l-117 115l314 313z" />
<glyph unicode="&#xd8;" horiz-adv-x="1568" d="M68 682q0 326 184 514q190 197 524 197q273 0 455 -123l145 157l103 -92l-144 -157q164 -178 164 -486q0 -315 -162 -497q-195 -221 -551 -222q-262 0 -444 121l-154 -166l-100 90l152 166q-172 185 -172 498zM371 676q0 -190 55 -299l637 723q-113 100 -281 100 q-154 0 -260 -88q-151 -123 -151 -436zM512 262q104 -96 270 -96q195 0 305 131q111 133 111 383q0 184 -53 303z" />
<glyph unicode="&#xd9;" horiz-adv-x="1550" d="M51 1178v188h623v-188h-187v-703q0 -92 23 -147q37 -84 121 -127q63 -35 157 -35q154 0 234 100q74 92 74 260v652h-183v188h586v-188h-149v-668q0 -236 -136 -379q-152 -158 -446 -158q-279 0 -424 144q-72 70 -113 178q-31 86 -30 174v709h-150zM467 1747v20h309 l197 -297h-197z" />
<glyph unicode="&#xda;" horiz-adv-x="1550" d="M51 1178v188h623v-188h-187v-703q0 -92 23 -147q37 -84 121 -127q63 -35 157 -35q154 0 234 100q74 92 74 260v652h-183v188h586v-188h-149v-668q0 -236 -136 -379q-152 -158 -446 -158q-279 0 -424 144q-72 70 -113 178q-31 86 -30 174v709h-150zM586 1470l194 299h293 v-20l-293 -279h-194z" />
<glyph unicode="&#xdb;" horiz-adv-x="1550" d="M51 1178v188h623v-188h-187v-703q0 -92 23 -147q37 -84 121 -127q63 -35 157 -35q154 0 234 100q74 92 74 260v652h-183v188h586v-188h-149v-668q0 -236 -136 -379q-152 -158 -446 -158q-279 0 -424 144q-72 70 -113 178q-31 86 -30 174v709h-150zM452 1470l205 299h244 l197 -299h-197l-129 189l-129 -189h-191z" />
<glyph unicode="&#xdc;" horiz-adv-x="1550" d="M51 1178v188h623v-188h-187v-703q0 -92 23 -147q37 -84 121 -127q63 -35 157 -35q154 0 234 100q74 92 74 260v652h-183v188h586v-188h-149v-668q0 -236 -136 -379q-152 -158 -446 -158q-279 0 -424 144q-72 70 -113 178q-31 86 -30 174v709h-150zM469 1475v254h219v-254 h-219zM862 1477v252h219v-252h-219z" />
<glyph unicode="&#xdd;" horiz-adv-x="1421" d="M16 1178v188h607v-188h-179l285 -433l289 433h-168v188h557v-188h-102l-453 -656v-336h211v-186h-707v186h207v336l-448 656h-99zM523 1470l194 299h293v-20l-293 -279h-194z" />
<glyph unicode="&#xde;" horiz-adv-x="1327" d="M59 0v186h177v992h-177v188h465v-178h287q195 0 317 -92q68 -49 109 -140q41 -88 41 -190q0 -111 -43 -201q-45 -92 -119 -143q-72 -51 -178 -68q-82 -10 -162 -10h-252v-158h217v-186h-682zM524 530h174q92 0 148 21q129 51 129 215q0 119 -68 176q-66 57 -209 57h-174 v-469z" />
<glyph unicode="&#xdf;" horiz-adv-x="1251" d="M31 0v178h143v776q0 162 47 250q117 211 455 211q276 0 389 -139q74 -89 74 -221q0 -147 -107 -228q-66 -49 -194 -69v-4q160 -16 241 -82q115 -96 115 -273q0 -201 -129 -311q-61 -53 -141 -72q-66 -16 -172 -16h-84v178q63 0 106 15q74 25 111 104q20 47 20 113 q0 152 -102 208q-53 29 -170 35v201q217 8 217 199q0 94 -45 139q-49 51 -139 51q-102 0 -158 -61q-51 -61 -51 -203v-801h96v-178h-522z" />
<glyph unicode="&#xe0;" horiz-adv-x="1187" d="M72 281q0 186 180 270q109 51 356 51q6 0 162 -4q0 77 -6 111q-22 111 -191 110q-178 0 -190 -141h-270q6 164 141 254q115 74 311 74q233 0 344 -86q65 -52 92 -123q27 -74 27 -174v-445h143v-178h-383v178q-45 -90 -112 -139q-94 -66 -242 -66q-184 0 -276 90 q-86 85 -86 218zM340 293q0 -66 49 -103q43 -31 117 -30q129 0 196 76q55 59 72 213q-61 4 -90 4q-139 0 -227 -25q-117 -34 -117 -135zM246 1364v20h309l197 -297h-197z" />
<glyph unicode="&#xe1;" horiz-adv-x="1187" d="M72 281q0 186 180 270q109 51 356 51q6 0 162 -4q0 77 -6 111q-22 111 -191 110q-178 0 -190 -141h-270q6 164 141 254q115 74 311 74q233 0 344 -86q65 -52 92 -123q27 -74 27 -174v-445h143v-178h-383v178q-45 -90 -112 -139q-94 -66 -242 -66q-184 0 -276 90 q-86 85 -86 218zM340 293q0 -66 49 -103q43 -31 117 -30q129 0 196 76q55 59 72 213q-61 4 -90 4q-139 0 -227 -25q-117 -34 -117 -135zM365 1087l194 299h293v-22l-293 -277h-194z" />
<glyph unicode="&#xe2;" horiz-adv-x="1187" d="M72 281q0 186 180 270q109 51 356 51q6 0 162 -4q0 77 -6 111q-22 111 -191 110q-178 0 -190 -141h-270q6 164 141 254q115 74 311 74q233 0 344 -86q65 -52 92 -123q27 -74 27 -174v-445h143v-178h-383v178q-45 -90 -112 -139q-94 -66 -242 -66q-184 0 -276 90 q-86 85 -86 218zM340 293q0 -66 49 -103q43 -31 117 -30q129 0 196 76q55 59 72 213q-61 4 -90 4q-139 0 -227 -25q-117 -34 -117 -135zM231 1087l207 299h242l197 -299h-197l-127 189l-131 -189h-191z" />
<glyph unicode="&#xe3;" horiz-adv-x="1187" d="M72 281q0 186 180 270q109 51 356 51q6 0 162 -4q0 77 -6 111q-22 111 -191 110q-178 0 -190 -141h-270q6 164 141 254q115 74 311 74q233 0 344 -86q65 -52 92 -123q27 -74 27 -174v-445h143v-178h-383v178q-45 -90 -112 -139q-94 -66 -242 -66q-184 0 -276 90 q-86 85 -86 218zM340 293q0 -66 49 -103q43 -31 117 -30q129 0 196 76q55 59 72 213q-61 4 -90 4q-139 0 -227 -25q-117 -34 -117 -135zM238 1104q2 88 32 145q55 109 150 109q51 0 143 -35q86 -33 109 -33q39 0 53 25q14 23 18 57h129q0 -84 -34 -153q-55 -102 -148 -103 q-43 0 -141 35q-94 33 -117 33q-66 0 -72 -80h-122z" />
<glyph unicode="&#xe4;" horiz-adv-x="1187" d="M72 281q0 186 180 270q109 51 356 51q6 0 162 -4q0 77 -6 111q-22 111 -191 110q-178 0 -190 -141h-270q6 164 141 254q115 74 311 74q233 0 344 -86q65 -52 92 -123q27 -74 27 -174v-445h143v-178h-383v178q-45 -90 -112 -139q-94 -66 -242 -66q-184 0 -276 90 q-86 85 -86 218zM340 293q0 -66 49 -103q43 -31 117 -30q129 0 196 76q55 59 72 213q-61 4 -90 4q-139 0 -227 -25q-117 -34 -117 -135zM260 1120v252h219v-252h-219zM653 1120v252h219v-252h-219z" />
<glyph unicode="&#xe5;" horiz-adv-x="1187" d="M72 281q0 186 180 270q109 51 356 51q6 0 162 -4q0 77 -6 111q-22 111 -191 110q-178 0 -190 -141h-270q6 164 141 254q115 74 311 74q233 0 344 -86q65 -52 92 -123q27 -74 27 -174v-445h143v-178h-383v178q-45 -90 -112 -139q-94 -66 -242 -66q-184 0 -276 90 q-86 85 -86 218zM340 293q0 -66 49 -103q43 -31 117 -30q129 0 196 76q55 59 72 213q-61 4 -90 4q-139 0 -227 -25q-117 -34 -117 -135zM346 1307q0 92 66 157q63 63 157 64q88 0 152 -64q66 -66 66 -155q0 -92 -66 -158q-63 -63 -154 -64q-92 0 -155 64q-66 66 -66 156z M451 1309q0 -47 34.5 -82t81.5 -35t82 35q33 33 33 82t-32.5 81.5t-84.5 32.5q-47 0 -80 -32q-34 -35 -34 -82z" />
<glyph unicode="&#xe6;" horiz-adv-x="1734" d="M72 274q0 152 114 230q55 39 156 57q95 18 258 19h141v26q0 106 -32 154q-39 59 -146 59q-164 0 -184 -131h-264q10 139 104 223q106 94 328 95q168 0 250 -58q68 -47 94 -123q41 72 102 115q96 66 246 66q207 0 317 -123q121 -133 121 -377v-94h-682q6 -98 25 -136 q58 -117 197 -116q78 0 131 41q33 27 55 96h262q-18 -98 -82 -180q-106 -143 -360 -144q-186 0 -297 93q-70 57 -95 143q-27 -86 -86 -139q-113 -96 -301 -97q-180 0 -278 86q-94 84 -94 215zM340 281q0 -68 53 -97q40 -25 105 -24q225 0 243 260q-25 0 -51 1t-28 1h-58h-24 h-35q-66 0 -131 -31q-74 -36 -74 -110zM999 580h406v24q0 111 -55 166q-49 49 -133 49q-141 0 -193 -119q-23 -48 -25 -120z" />
<glyph unicode="&#xe7;" horiz-adv-x="1093" d="M59 498q0 248 144 385q125 123 323 123q129 0 211 -64q59 -45 84 -104v135h213v-375h-231q-18 221 -213 221q-115 0 -180 -86q-63 -86 -64 -231q0 -156 70 -254q63 -88 182 -88q111 0 166 76q23 31 39 100h231q4 -115 -71 -211q-76 -100 -242 -141q-47 -10 -86 -11 l-74 -116q47 10 78 10q72 0 119 -35q59 -41 59 -115q0 -78 -67 -127q-66 -49 -181 -49q-100 0 -217 37l31 86q76 -35 147 -35q119 0 119 78q0 35 -26.5 55.5t-63.5 20.5q-31 0 -84 -16l-39 38l109 166q-154 0 -287 92q-199 138 -199 435z" />
<glyph unicode="&#xe8;" horiz-adv-x="1124" d="M59 489q0 231 129 373q131 143 379 144q336 0 447 -238q53 -113 53 -309v-41h-733q6 -94 45 -156q66 -102 203 -102q170 0 211 133h260q-15 -92 -92 -178q-123 -141 -383 -142q-268 0 -412 174q-107 131 -107 342zM340 582h453q-6 102 -43 153q-61 84 -179 84 q-133 0 -196 -110q-25 -41 -35 -127zM256 1364v20h309l197 -297h-197z" />
<glyph unicode="&#xe9;" horiz-adv-x="1124" d="M59 489q0 231 129 373q131 143 379 144q336 0 447 -238q53 -113 53 -309v-41h-733q6 -94 45 -156q66 -102 203 -102q170 0 211 133h260q-15 -92 -92 -178q-123 -141 -383 -142q-268 0 -412 174q-107 131 -107 342zM340 582h453q-6 102 -43 153q-61 84 -179 84 q-133 0 -196 -110q-25 -41 -35 -127zM375 1087l194 299h293v-22l-293 -277h-194z" />
<glyph unicode="&#xea;" horiz-adv-x="1124" d="M59 489q0 231 129 373q131 143 379 144q336 0 447 -238q53 -113 53 -309v-41h-733q6 -94 45 -156q66 -102 203 -102q170 0 211 133h260q-15 -92 -92 -178q-123 -141 -383 -142q-268 0 -412 174q-107 131 -107 342zM340 582h453q-6 102 -43 153q-61 84 -179 84 q-133 0 -196 -110q-25 -41 -35 -127zM239 1087l207 299h242l197 -299h-197l-127 189l-131 -189h-191z" />
<glyph unicode="&#xeb;" horiz-adv-x="1124" d="M59 489q0 231 129 373q131 143 379 144q336 0 447 -238q53 -113 53 -309v-41h-733q6 -94 45 -156q66 -102 203 -102q170 0 211 133h260q-15 -92 -92 -178q-123 -141 -383 -142q-268 0 -412 174q-107 131 -107 342zM340 582h453q-6 102 -43 153q-61 84 -179 84 q-133 0 -196 -110q-25 -41 -35 -127zM258 1120v252h219v-252h-219zM651 1120v252h219v-252h-219z" />
<glyph unicode="&#xec;" horiz-adv-x="614" d="M41 0v178h143v615h-143v180h424v-795h133v-178h-557zM0 1364v20h309l197 -297h-197z" />
<glyph unicode="&#xed;" horiz-adv-x="614" d="M41 0v178h143v615h-143v180h424v-795h133v-178h-557zM119 1087l194 299h293v-22l-293 -277h-194z" />
<glyph unicode="&#xee;" horiz-adv-x="614" d="M2 1087l188 299h242l180 -299h-196l-111 189l-112 -189h-191zM41 0v178h143v615h-143v180h426v-795h131v-178h-557z" />
<glyph unicode="&#xef;" horiz-adv-x="614" d="M35 1120v252h219v-252h-219zM41 0v178h143v615h-143v180h424v-795h133v-178h-557zM360 1120v252h220v-252h-220z" />
<glyph unicode="&#xf0;" horiz-adv-x="1198" d="M59 492q0 246 154 385q145 131 365 131q106 0 200 -54q-33 90 -100 158q-66 66 -166 107l-246 -158l-76 115l152 96q-88 23 -229 26l69 136q166 -4 301 -35l281 182l76 -119l-176 -114q195 -84 292 -191q186 -199 187 -618q0 -203 -62 -314q-66 -121 -198 -188 q-121 -63 -277 -64q-250 0 -405 150q-142 136 -142 369zM346 492q0 -133 57 -226q68 -106 195 -106q66 0 125 33q55 31 86 88q45 86 45 215q0 132 -49 209q-68 115 -207 114q-68 0 -117 -28q-55 -33 -84 -84q-51 -90 -51 -215z" />
<glyph unicode="&#xf1;" horiz-adv-x="1296" d="M39 0v178h145v615h-143v180h403v-199q27 100 109 160q96 72 238 72q156 0 247 -74q98 -80 99 -246v-508h137v-178h-549v178h129v434q0 104 -43 155.5t-133 51.5q-96 0 -154 -67q-57 -70 -57 -187v-387h131v-178h-559zM332 1104q2 88 32 145q55 109 150 109q51 0 143 -35 q86 -33 109 -33q39 0 53 25q14 23 18 57h129q0 -84 -34 -153q-55 -102 -148 -103q-43 0 -141 35q-94 33 -117 33q-66 0 -72 -80h-122z" />
<glyph unicode="&#xf2;" horiz-adv-x="1198" d="M59 489q0 248 154 383q147 133 393 134q238 0 389 -142q147 -139 148 -375q0 -219 -133 -358q-152 -158 -408 -158q-248 0 -401 148q-142 138 -142 368zM346 489q0 -131 57 -223q68 -106 195 -106q147 0 213 121q43 83 43 215q0 133 -47 209q-72 115 -209 114 q-65 0 -117 -31q-55 -33 -84 -81q-51 -91 -51 -218zM293 1364v20h309l197 -297h-197z" />
<glyph unicode="&#xf3;" horiz-adv-x="1198" d="M59 489q0 248 154 383q147 133 393 134q238 0 389 -142q147 -139 148 -375q0 -219 -133 -358q-152 -158 -408 -158q-248 0 -401 148q-142 138 -142 368zM346 489q0 -131 57 -223q68 -106 195 -106q147 0 213 121q43 83 43 215q0 133 -47 209q-72 115 -209 114 q-65 0 -117 -31q-55 -33 -84 -81q-51 -91 -51 -218zM412 1087l194 299h293v-22l-293 -277h-194z" />
<glyph unicode="&#xf4;" horiz-adv-x="1198" d="M59 489q0 248 154 383q147 133 393 134q238 0 389 -142q147 -139 148 -375q0 -219 -133 -358q-152 -158 -408 -158q-248 0 -401 148q-142 138 -142 368zM346 489q0 -131 57 -223q68 -106 195 -106q147 0 213 121q43 83 43 215q0 133 -47 209q-72 115 -209 114 q-65 0 -117 -31q-55 -33 -84 -81q-51 -91 -51 -218zM276 1087l207 299h242l197 -299h-197l-127 189l-131 -189h-191z" />
<glyph unicode="&#xf5;" horiz-adv-x="1198" d="M59 489q0 248 154 383q147 133 393 134q238 0 389 -142q147 -139 148 -375q0 -219 -133 -358q-152 -158 -408 -158q-248 0 -401 148q-142 138 -142 368zM346 489q0 -131 57 -223q68 -106 195 -106q147 0 213 121q43 83 43 215q0 133 -47 209q-72 115 -209 114 q-65 0 -117 -31q-55 -33 -84 -81q-51 -91 -51 -218zM283 1104q2 88 32 145q55 109 150 109q51 0 143 -35q86 -33 109 -33q39 0 53 25q14 23 18 57h129q0 -84 -34 -153q-55 -102 -148 -103q-43 0 -141 35q-94 33 -117 33q-66 0 -72 -80h-122z" />
<glyph unicode="&#xf6;" horiz-adv-x="1198" d="M59 489q0 248 154 383q147 133 393 134q238 0 389 -142q147 -139 148 -375q0 -219 -133 -358q-152 -158 -408 -158q-248 0 -401 148q-142 138 -142 368zM346 489q0 -131 57 -223q68 -106 195 -106q147 0 213 121q43 83 43 215q0 133 -47 209q-72 115 -209 114 q-65 0 -117 -31q-55 -33 -84 -81q-51 -91 -51 -218zM295 1120v252h219v-252h-219zM688 1120v252h219v-252h-219z" />
<glyph unicode="&#xf7;" horiz-adv-x="1122" d="M20 489v113h1078v-113h-1078zM432 131q0 57 41 92q33 33 88 33q53 0 90 -43q33 -35 33 -84q0 -57 -41 -92q-39 -35 -86 -35q-55 0 -92 43q-33 35 -33 86zM432 950q0 57 41 92q35 33 88 33t90 -43q33 -35 33 -84q0 -59 -41 -94q-35 -33 -86 -33q-55 0 -92 43 q-33 35 -33 86z" />
<glyph unicode="&#xf8;" horiz-adv-x="1198" d="M59 489q0 252 168 396q141 121 373 121q209 0 338 -93l119 123l76 -69l-115 -121q125 -137 125 -359q0 -246 -160 -385q-151 -129 -381 -129q-197 0 -336 93l-123 -125l-73 71l116 121q-127 141 -127 356zM346 516q0 -72 37 -186l387 415q-66 74 -170 74q-117 0 -180 -80 q-74 -90 -74 -223zM430 231q72 -72 170 -71q150 0 213 125q41 76 41 188q0 104 -37 172z" />
<glyph unicode="&#xf9;" horiz-adv-x="1273" d="M18 793v180h424v-606q0 -207 172 -207q106 0 166 90q45 70 45 190v353h-147v180h430v-795h141v-178h-403v195q-74 -223 -348 -224q-172 0 -267 107q-51 59 -63 135q-6 46 -6 111v469h-144zM330 1364v20h309l197 -297h-197z" />
<glyph unicode="&#xfa;" horiz-adv-x="1273" d="M18 793v180h424v-606q0 -207 172 -207q106 0 166 90q45 70 45 190v353h-147v180h430v-795h141v-178h-403v195q-74 -223 -348 -224q-172 0 -267 107q-51 59 -63 135q-6 46 -6 111v469h-144zM449 1087l194 299h293v-22l-293 -277h-194z" />
<glyph unicode="&#xfb;" horiz-adv-x="1273" d="M18 793v180h424v-606q0 -207 172 -207q106 0 166 90q45 70 45 190v353h-147v180h430v-795h141v-178h-403v195q-74 -223 -348 -224q-172 0 -267 107q-51 59 -63 135q-6 46 -6 111v469h-144zM315 1087l207 299h242l197 -299h-197l-127 189l-131 -189h-191z" />
<glyph unicode="&#xfc;" horiz-adv-x="1273" d="M18 793v180h424v-606q0 -207 172 -207q106 0 166 90q45 70 45 190v353h-147v180h430v-795h141v-178h-403v195q-74 -223 -348 -224q-172 0 -267 107q-51 59 -63 135q-6 46 -6 111v469h-144zM275 1120v252h219v-252h-219zM668 1120v252h219v-252h-219z" />
<glyph unicode="&#xfd;" horiz-adv-x="1181" d="M12 793v180h525v-180h-144l168 -394q33 -80 55 -174q16 70 68 199l143 369h-143v180h485v-180h-84l-401 -904q-63 -139 -111 -194q-68 -74 -241 -74q-84 0 -146 12v193q66 -16 109 -16q49 0 76 12q22 12 37 31q12 16 32 61l33 72l-373 807h-88zM404 1087l194 299h293v-22 l-293 -277h-194z" />
<glyph unicode="&#xfe;" horiz-adv-x="1290" d="M16 -178h146v1392h-146v181h410v-635q18 74 33 94q20 33 63 70q100 82 264 82q213 0 330 -138q63 -72 90 -159q27 -86 27 -217q0 -231 -100 -363q-121 -158 -355 -158q-256 0 -336 203v-352h158v-178h-584v178zM436 487q0 -152 60 -231q70 -96 198 -96q66 0 117 26 q53 29 84 74q49 78 49 227q0 154 -57 238q-63 94 -191 94q-125 0 -196 -96q-64 -82 -64 -236z" />
<glyph unicode="&#xff;" horiz-adv-x="1181" d="M12 793v180h525v-180h-144l168 -394q33 -80 55 -174q16 70 68 199l143 369h-143v180h485v-180h-84l-401 -904q-63 -139 -111 -194q-68 -74 -241 -74q-84 0 -146 12v193q66 -16 109 -16q49 0 76 12q22 12 37 31q12 16 32 61l33 72l-373 807h-88zM287 1120v252h219v-252 h-219zM680 1120v252h219v-252h-219z" />
<glyph unicode="&#x131;" horiz-adv-x="614" d="M41 0v178h143v615h-143v180h424v-795h133v-178h-557z" />
<glyph unicode="&#x141;" horiz-adv-x="1271" d="M63 0v186h173v369l-173 -117v180l173 117v443h-173v188h685v-188h-224v-304l254 173v-183l-254 -170v-508h457v306h233v-492h-1151z" />
<glyph unicode="&#x142;" horiz-adv-x="622" d="M33 0v178h141v395l-137 -96v185l137 96v456h-141v181h424v-467l129 90v-184l-129 -91v-565h135v-178h-559z" />
<glyph unicode="&#x152;" horiz-adv-x="2086" d="M68 686q0 160 45 289q43 123 135 221q187 197 491 197q111 0 303 -21q59 -6 150 -6h793v-416h-234v228h-487v-394h180v166h196v-516h-196v164h-180v-410h487v246h234v-434h-877q-78 0 -150 -8q-126 -12 -196 -12q-293 0 -479 163q-215 191 -215 543zM371 676 q0 -240 112 -371q115 -133 328 -133q61 0 166 16v1002q-109 10 -166 10q-229 0 -340 -149q-100 -133 -100 -375z" />
<glyph unicode="&#x153;" horiz-adv-x="1787" d="M59 485q0 256 156 400q129 121 340 121q190 0 299 -97q53 -45 76 -118q31 82 88 129q61 47 149 71q61 16 125 17q233 0 340 -144q98 -127 99 -352v-106h-674q0 -90 43 -152q63 -94 180 -94q98 0 145 65q14 18 31 72h262q-12 -88 -78 -178q-51 -72 -149 -111 q-92 -35 -199 -35q-162 0 -274 86q-68 51 -88 115q-37 -72 -101 -119q-113 -82 -280 -82q-233 0 -369 154q-121 139 -121 358zM346 483q0 -150 53 -233q55 -90 170 -90q111 0 172 92q55 86 56 242q0 135 -39 211q-59 115 -191 114q-120 0 -178 -110q-43 -83 -43 -226z M1057 575h399q0 78 -14 127q-33 117 -170 117q-127 0 -182 -112q-27 -58 -33 -132z" />
<glyph unicode="&#x160;" horiz-adv-x="1236" d="M82 993q0 207 145 312q121 88 320 88q256 0 342 -156v129h233v-442h-233q0 276 -275 276q-100 0 -159 -39q-70 -45 -70 -133q0 -63 41 -98q45 -39 156 -78l241 -84q168 -61 232 -115q111 -98 110 -274q0 -195 -131 -301q-126 -104 -350 -105q-279 0 -358 172v-145h-234 v465h234q12 -100 43 -166q66 -133 243 -133q104 0 168 37q82 45 82 147q0 68 -37 107q-35 37 -161 84l-248 88q-162 57 -226 112q-108 92 -108 252zM256 1772h199l131 -187l127 187h191l-203 -299h-246z" />
<glyph unicode="&#x161;" horiz-adv-x="1009" d="M70 0v340h223q2 -53 29 -98q49 -82 180 -82q68 0 119 24q61 28 61 86q0 53 -47 82q-31 18 -141 37l-123 23q-164 29 -232 102q-61 68 -61 184q0 138 98 222q102 88 266 88q125 0 201 -60q39 -27 76 -92v117h205v-326h-217v12q0 61 -41 107q-47 53 -160 53q-80 0 -127 -31 q-41 -29 -41 -75q0 -39 27 -64q29 -27 133 -45l116 -22q328 -61 328 -293q0 -145 -106 -234q-96 -82 -267 -82q-215 0 -293 152v-125h-206zM182 1389h199l131 -187l127 187h191l-203 -299h-246z" />
<glyph unicode="&#x178;" horiz-adv-x="1421" d="M16 1178v188h607v-188h-179l285 -433l289 433h-168v188h557v-188h-102l-453 -656v-336h211v-186h-707v186h207v336l-448 656h-99zM403 1477v252h220v-252h-220zM799 1477v252h219v-252h-219z" />
<glyph unicode="&#x17d;" horiz-adv-x="1343" d="M82 0v233l831 945h-581v-252h-234v440h1151v-223l-841 -957h628v267h234v-453h-1188zM350 1772h199l131 -187l127 187h191l-203 -299h-246z" />
<glyph unicode="&#x17e;" horiz-adv-x="1048" d="M61 0v207l584 600h-354v-152h-213v318h885v-205l-586 -602h385v170h213v-336h-914zM200 1389h199l131 -187l127 187h191l-203 -299h-246z" />
<glyph unicode="&#x192;" horiz-adv-x="1132" d="M-51 -256l35 176q55 -12 112 -12q88 0 129 41q41 39 60 127l155 798h-182l35 181h182l25 129q33 164 110 248q102 104 314 104q119 0 198 -25l-35 -178q-46 12 -98 13q-92 0 -137 -37q-47 -39 -66 -131l-22 -123h262l-35 -181h-264l-156 -802q-37 -186 -106 -252 q-104 -102 -328 -103q-75 0 -188 27z" />
<glyph unicode="&#x2c6;" d="M188 1087l207 299h242l197 -299h-197l-127 189l-131 -189h-191z" />
<glyph unicode="&#x2c7;" d="M188 1389h199l131 -187l127 187h191l-203 -299h-246z" />
<glyph unicode="&#x2c9;" d="M207 1169v154h610v-154h-610z" />
<glyph unicode="&#x2d8;" d="M197 1386h133q8 -55 47 -96q49 -53 135 -53q147 0 184 149h131q-6 -111 -65 -188q-82 -106 -252 -106q-184 0 -264 125q-49 77 -49 169z" />
<glyph unicode="&#x2d9;" d="M401 1120v252h220v-252h-220z" />
<glyph unicode="&#x2da;" d="M264 1307q0 92 66 157q63 63 157 64q88 0 152 -64q66 -66 66 -155q0 -92 -66 -158q-63 -63 -154 -64q-92 0 -155 64q-66 66 -66 156zM369 1309q0 -47 34.5 -82t81.5 -35t82 35q33 33 33 82t-32.5 81.5t-84.5 32.5q-47 0 -80 -32q-34 -35 -34 -82z" />
<glyph unicode="&#x2db;" d="M428 -205q0 76 53 142q18 20 74 63h164q-76 -63 -98 -100q-33 -51 -33 -95q0 -31 24 -53q27 -25 76 -24q45 0 125 20v-119q-88 -20 -154 -20q-127 0 -184 63q-47 53 -47 123z" />
<glyph unicode="&#x2dc;" d="M195 1104q2 88 32 145q55 109 150 109q51 0 143 -35q86 -33 109 -33q39 0 53 25q14 23 18 57h129q0 -84 -34 -153q-55 -102 -148 -103q-43 0 -141 35q-94 33 -117 33q-66 0 -72 -80h-122z" />
<glyph unicode="&#x2dd;" d="M193 1087l143 299h262v-22l-229 -277h-176zM561 1087l144 299h264v-22l-232 -277h-176z" />
<glyph unicode="&#x3c0;" horiz-adv-x="1122" d="M20 713q47 162 125 239q68 63 140 70q14 2 69 2h717v-182h-258q-25 -194 -25 -461q0 -86 25 -135q37 -72 107 -72q102 0 116 150h49q-6 -125 -43 -197q-76 -154 -198 -154q-102 0 -153.5 106.5t-51.5 254.5q0 219 43 508h-223l-25 -264q-33 -371 -65 -469 q-43 -135 -140 -136q-49 0 -84 37q-29 33 -28 76q0 47 47 100q20 20 37 35q94 88 102 166l53 455h-94q-88 0 -135 -41q-20 -18 -66 -88h-41z" />
<glyph unicode="&#x2000;" horiz-adv-x="942" />
<glyph unicode="&#x2001;" horiz-adv-x="1886" />
<glyph unicode="&#x2002;" horiz-adv-x="942" />
<glyph unicode="&#x2003;" horiz-adv-x="1886" />
<glyph unicode="&#x2004;" horiz-adv-x="628" />
<glyph unicode="&#x2005;" horiz-adv-x="468" />
<glyph unicode="&#x2006;" horiz-adv-x="313" />
<glyph unicode="&#x2007;" horiz-adv-x="313" />
<glyph unicode="&#x2008;" horiz-adv-x="233" />
<glyph unicode="&#x2009;" horiz-adv-x="376" />
<glyph unicode="&#x200a;" horiz-adv-x="102" />
<glyph unicode="&#x2010;" horiz-adv-x="524" d="M0 403v209h524v-209h-524z" />
<glyph unicode="&#x2011;" horiz-adv-x="524" d="M0 403v209h524v-209h-524z" />
<glyph unicode="&#x2012;" horiz-adv-x="524" d="M0 403v209h524v-209h-524z" />
<glyph unicode="&#x2013;" horiz-adv-x="1132" d="M82 403v209h971v-209h-971z" />
<glyph unicode="&#x2014;" horiz-adv-x="1579" d="M0 403v209h1579v-209h-1579z" />
<glyph unicode="&#x2018;" horiz-adv-x="503" d="M109 821v269l94 276h190l-110 -276h112v-269h-286z" />
<glyph unicode="&#x2019;" horiz-adv-x="579" d="M147 1098v268h285v-268l-92 -277h-193l111 277h-111z" />
<glyph unicode="&#x201a;" horiz-adv-x="579" d="M113 -295l112 295h-110v274h286v-274l-98 -295h-190z" />
<glyph unicode="&#x201c;" horiz-adv-x="880" d="M109 821v269l94 276h190l-110 -276h110v-269h-284zM485 821v269l93 276h192l-111 -276h111v-269h-285z" />
<glyph unicode="&#x201d;" horiz-adv-x="880" d="M109 1098v268h286v-268l-94 -277h-190l110 277h-112zM485 821l113 277h-111v268h283v-268l-92 -277h-193z" />
<glyph unicode="&#x201e;" horiz-adv-x="878" d="M109 0v268h286v-268l-94 -276h-190l110 276h-112zM485 -276l113 276h-111v268h283v-268l-94 -276h-191z" />
<glyph unicode="&#x2020;" horiz-adv-x="1132" d="M104 815v199h334v352h258v-352h336v-199h-336v-1010h-258v1010h-334z" />
<glyph unicode="&#x2021;" horiz-adv-x="1132" d="M104 170v190h336v451h-336v190h336v365h250v-365h340v-190h-340v-451h340v-190h-340v-365h-250v365h-336z" />
<glyph unicode="&#x2022;" horiz-adv-x="1363" d="M401 692q0 123 84 203q88 84 203 84q113 0 197 -84t84 -200.5t-84 -200.5t-201 -84q-115 0 -199 83.5t-84 198.5z" />
<glyph unicode="&#x2026;" horiz-adv-x="1505" d="M109 0v279h284v-279h-284zM610 0v279h285v-279h-285zM1112 0v279h285v-279h-285z" />
<glyph unicode="&#x202f;" horiz-adv-x="376" />
<glyph unicode="&#x2030;" horiz-adv-x="2123" d="M55 1024q0 354 258 354q137 0 205 -121q47 -88 47 -223q0 -178 -67 -274q-63 -90 -189 -90q-133 0 -196 102q-58 94 -58 252zM203 1014q0 -244 106 -244q111 0 111 254t-108.5 254t-108.5 -264zM266 0l791 1366h147l-790 -1366h-148zM924 342q0 354 258 354 q137 0 204 -121q47 -88 48 -225q0 -174 -70 -272q-66 -92 -188 -92q-131 0 -195 102q-57 94 -57 254zM1071 332q0 -246 107 -246q109 0 108 252q0 129 -24 192q-25 66 -84 66q-107 0 -107 -264zM1559 342q0 354 258 354q137 0 204 -121q47 -88 47 -225q0 -174 -69 -272 q-66 -92 -189 -92q-131 0 -194 102q-57 94 -57 254zM1706 332q0 -246 106 -246q109 0 109 254q0 126 -25 190q-25 66 -84 66q-106 0 -106 -264z" />
<glyph unicode="&#x2039;" horiz-adv-x="532" d="M63 506l175 409h202l-172 -405l170 -420h-200z" />
<glyph unicode="&#x203a;" horiz-adv-x="579" d="M123 915h205l172 -409l-172 -416h-201l170 420z" />
<glyph unicode="&#x205f;" horiz-adv-x="468" />
<glyph unicode="&#x2122;" horiz-adv-x="2043" d="M55 1087v279h766v-279h-147v160h-146v-542h117v-117h-414v117h117v542h-143v-160h-150zM879 588v117h98v542h-98v119h370l181 -565l180 565h370v-119h-100v-542h100v-117h-362v117h94v507l-217 -624h-158l-213 624v-507h97v-117h-342z" />
<glyph unicode="&#x2126;" horiz-adv-x="1572" d="M70 0v313h49q12 -70 45 -98q33 -31 96 -31h299l-6 78q-96 33 -164 78q-121 80 -182 190q-68 117 -68 252q0 106 41 209q43 106 117 193q190 221 491 221t492 -221q74 -86 117 -193q43 -108 43 -209q0 -190 -129 -338q-104 -117 -287 -182l-6 -78h299q88 0 119 60 q16 29 22 69h49v-313h-598l37 315q129 72 205 222q57 115 57 245q0 174 -84 324q-51 94 -143 154q-86 55 -193 55q-152 0 -260 -109q-90 -92 -131 -235q-29 -102 -28 -189q0 -147 77 -280q72 -121 187 -187l35 -315h-598z" />
<glyph unicode="&#x2202;" horiz-adv-x="1011" d="M53 377q0 200 142 350q109 117 258 117q84 0 163 -37q47 -23 146 -98q14 121 14 206q0 178 -49 310q-80 221 -278 221q-98 0 -230 -66l-86 105q154 57 264 57q197 0 340 -147q209 -215 209 -570q0 -194 -55 -399q-76 -289 -244 -387q-100 -59 -211 -59q-150 0 -262 108 q-121 117 -121 289zM231 326q0 -113 37 -189q45 -94 144 -94q90 0 168 84q86 92 127 262q6 23 28 148q18 98 15 102q-51 51 -91 76q-61 37 -124 37q-138 0 -228 -148q-76 -124 -76 -278z" />
<glyph unicode="&#x2206;" horiz-adv-x="1251" d="M12 0l658 1409l575 -1409h-1233zM158 104h823l-387 938z" />
<glyph unicode="&#x220f;" horiz-adv-x="1685" d="M51 -201h6q106 0 152 64q22 34 24 80q4 45 5 94v1210q0 96 -11 127q-29 109 -170 111h-6v53h1594v-53h-7q-106 0 -151 -64q-25 -37 -27 -80q-2 -23 -2 -94v-1210q0 -102 8 -127q28 -108 172 -111h7v-53h-594v53h6q109 0 149 64q27 41 29 80q2 23 2 94v1180q0 100 -8 141 q-12 72 -92 84q-47 8 -289 8q-244 0 -291 -8q-74 -12 -90 -84q-8 -39 -8 -141v-1180q0 -102 8 -127q28 -108 172 -111h6v-53h-594v53z" />
<glyph unicode="&#x2211;" horiz-adv-x="1458" d="M29 -252l495 836l-477 956h1227l20 -338h-53q-16 92 -35 133q-25 51 -57 74q-66 47 -240 47h-549l385 -758l-411 -721h674q160 0 231 31q61 27 94 88q16 27 37 82h53l-110 -430h-1284z" />
<glyph unicode="&#x2212;" horiz-adv-x="1132" d="M84 621v163h967v-163h-967z" />
<glyph unicode="&#x2215;" horiz-adv-x="268" d="M-348 0l790 1366h176l-790 -1366h-176z" />
<glyph unicode="&#x2219;" horiz-adv-x="501" d="M109 561v279h284v-279h-284z" />
<glyph unicode="&#x221a;" horiz-adv-x="1122" d="M20 920l299 145l404 -813l260 1618l72 -10l-312 -1932l-495 1016l-195 -94z" />
<glyph unicode="&#x221e;" horiz-adv-x="1458" d="M53 539q0 145 94 231q88 78 203 78q200 0 381 -227q172 227 381 227q143 0 227 -96q70 -82 70 -207q0 -131 -74 -217q-78 -92 -213 -92q-137 0 -288 126q-57 49 -103 105q-35 -45 -63 -74q-145 -158 -326 -157q-129 0 -213 90q-76 78 -76 213zM156 547q0 -114 67 -166 q51 -39 111 -39q135 0 274 139q6 6 35 39l21 25q-55 63 -89 90q-119 106 -235 106q-88 0 -143 -63q-41 -47 -41 -131zM801 541l100 -103q106 -96 223 -96q101 0 148 74q35 51 35 125q0 98 -64 153q-53 47 -123 47q-106 0 -219 -90q-49 -41 -90 -94z" />
<glyph unicode="&#x222b;" horiz-adv-x="559" d="M4 -129q0 33 27 53q16 14 45 15q37 0 63 -45q16 -35 43 -35q25 0 43 26q20 29 21 90q0 55 -6 154q-8 139 -9 346v707q0 360 52 534q27 90 92 131q47 29 98 29q49 0 84 -23q39 -27 39 -69q0 -33 -29 -51q-16 -14 -44.5 -14.5t-49.5 20.5q-10 8 -35 47q-8 12 -24 12 q-61 0 -62 -127q0 -51 6 -143q10 -160 11 -348v-705q0 -360 -52 -534q-46 -160 -190 -160q-53 0 -86 22q-37 25 -37 68z" />
<glyph unicode="&#x2248;" horiz-adv-x="1122" d="M29 317q119 172 299 172q76 0 256 -57q160 -49 202 -49q71 0 129 43q29 23 89 88l75 -70q-94 -174 -291 -174q-52 0 -104 13q-25 4 -129 39q-31 10 -67.5 20t-53 15t-22.5 8q-46 12 -86 12q-66 0 -109 -31q-34 -25 -98 -98zM29 639q119 172 299 172q82 0 256 -55 q166 -51 202 -51q74 0 129 43q29 23 89 88l75 -68q-96 -176 -291 -176q-52 0 -104 12q-25 4 -129 39q-43 12 -72.5 21.5t-41 12.5t-17.5 5l-12 4q-46 12 -86 12q-68 0 -109 -28q-29 -20 -98 -101z" />
<glyph unicode="&#x2260;" horiz-adv-x="1122" d="M31 291v112h409l144 285h-553v113h608l164 323l96 -49l-137 -274h344v-113h-401l-146 -285h547v-112h-602l-174 -342l-94 49l149 293h-354z" />
<glyph unicode="&#x2264;" horiz-adv-x="1122" d="M59 0v113h1018v-113h-1018zM59 717v112l1018 480v-127l-858 -408l858 -407v-127z" />
<glyph unicode="&#x2265;" horiz-adv-x="1122" d="M59 0v113h1018v-113h-1018zM59 240v127l856 407l-856 408v127l1018 -480v-112z" />
<glyph unicode="&#x25ca;" horiz-adv-x="1011" d="M37 770l401 746h129l387 -750l-403 -766h-125zM166 770l326 -651l331 647l-319 633z" />
<glyph unicode="&#xf000;" horiz-adv-x="1617" d="M115 786q0 166 90 299q123 184 352 185q57 0 98 -10q25 -6 66 -25q70 -31 115 -31q55 0 129 33q76 33 147 33q92 0 178 -33q82 -31 168 -127q-106 -84 -145 -154q-45 -84 -45 -178q0 -111 59 -203q31 -51 80 -86q39 -29 94 -53q-113 -233 -155 -286l-62 -64 q-37 -37 -57 -53q-51 -37 -133 -37q-53 0 -115 24q-98 41 -131 41q-53 0 -154 -41q-70 -29 -119 -28q-102 0 -206 123q-125 145 -187 315q-67 180 -67 356zM829 1296q0 47 31 119q29 63 78 121q51 59 117 84q27 12 104 35v-31q0 -10 1 -21l1 -12q0 -59 -28 -127 q-28 -65 -74 -110q-55 -55 -125 -74q-20 -6 -103 -18q-2 20 -2 34z" />
<glyph unicode="&#xf001;" horiz-adv-x="1296" d="M29 793v180h159v67q0 178 129 277q133 98 367 98q289 0 385 -139q55 -80 57 -174h-313q-12 127 -158 127q-186 0 -186 -197v-59h668v-795h139v-178h-547v178h125v615h-385v-615h137v-178h-565v178h147v615h-159z" />
<glyph unicode="&#xf002;" horiz-adv-x="1296" d="M27 793v180h161v80q0 205 156 297q111 66 338 65q194 0 455 -37v-1200h137v-178h-553v178h133v1049q-51 2 -135 2q-104 0 -164 -33q-86 -49 -86 -168v-55h182v-180h-182v-615h131v-178h-559v178h147v615h-161z" />
<glyph horiz-adv-x="1132" />
<glyph horiz-adv-x="548" />
<glyph horiz-adv-x="548" />
<glyph horiz-adv-x="548" />
<glyph horiz-adv-x="548" />
<glyph horiz-adv-x="548" />
<glyph horiz-adv-x="548" />
<glyph horiz-adv-x="548" />
<glyph horiz-adv-x="548" />
<glyph horiz-adv-x="548" />
<glyph horiz-adv-x="548" />
<glyph horiz-adv-x="548" />
<glyph d="M293 1667q0 92 63.5 155.5t157.5 63.5q90 0 153.5 -63.5t63.5 -155.5t-63.5 -155.5t-155.5 -63.5t-155.5 63.5t-63.5 155.5zM395 1667q0 -47 35 -82t82 -35t82 35t35 82t-35 82t-82 35t-82 -35t-35 -82z" />
<glyph d="M205 1477v252h219v-252h-219zM598 1477v252h219v-252h-219z" />
<glyph d="M190 1470l205 299h244l197 -299h-197l-129 189l-129 -189h-191z" />
<glyph d="M205 1747v20h309l197 -297h-197z" />
<glyph d="M324 1470l194 299h293v-20l-293 -279h-194z" />
<glyph d="M188 1772h199l131 -187l127 187h191l-203 -299h-246z" />
<glyph d="M195 1487q2 84 34 145q55 109 148 109q51 0 143 -35q86 -33 111 -33q33 0 51 25q16 27 20 59h127v-10q0 -102 -57 -180q-49 -68 -125 -68q-41 0 -139 35q-90 33 -117 33q-66 0 -72 -80h-124z" />
<glyph horiz-adv-x="548" />
</font>
</defs>
</svg>
