<?xml version="1.0" standalone="no"?>
<!DOCTYPE svg PUBLIC "-//W3C//DTD SVG 1.1//EN" "http://www.w3.org/Graphics/SVG/1.1/DTD/svg11.dtd" >
<svg>
<metadata>
Created by FontForge 20090622 at Wed Oct  4 21:56:11 2017
 By deploy user
Copyright (c) 2007 by Yann Le Coroller. All rights reserved.
</metadata>
<defs>
<font id="AlteHaasGrotesk_Bold" horiz-adv-x="556" >
  <font-face 
    font-family="Alte Haas Grotesk"
    font-weight="700"
    font-stretch="normal"
    units-per-em="1000"
    panose-1="2 0 8 3 0 0 0 9 0 4"
    ascent="800"
    descent="-200"
    x-height="515"
    cap-height="712"
    bbox="-368.333 -220.167 1076 974.042"
    underline-thickness="50"
    underline-position="-75"
    unicode-range="U+0008-U+FB02"
  />
<missing-glyph horiz-adv-x="500" 
d="M442 8h-384v496h384v-496zM50 512v-512h400v512h-400z" />
    <glyph glyph-name="fi" unicode="fi" horiz-adv-x="611" 
d="M250 713h20.5t23 -1t20.5 -3.5t12 -7.5q6 -8 6 -22.5v-27.5q0 -10 -0.5 -20t-4.5 -15q-4 -6 -10 -7.5t-13.5 -1.5t-15 0.5t-14.5 -0.5q-18 -4 -28 -9.5t-16 -22.5q-2 -3 -1.5 -5.5t-0.5 -5.5q-1 -4 -2 -12t0 -13q2 -7 5 -12t9 -8q10 -5 24 -3t26 0q5 -1 8.5 -0.5
t7.5 -0.5q9 -4 13 -9q2 -3 3 -9.5t2 -14t0.5 -15t-1.5 -11.5t0 -7.5t-1 -7.5q-2 -12 -12 -15q-8 -4 -19 -3.5t-22 0.5h-7t-7 -1h-8q-17 -4 -21 -22q-2 -6 -1 -14t1 -16v-61v-195v-47q0 -6 0.5 -12.5t-1.5 -11.5v-11q0 -16 -5 -23q-2 -3 -7 -4.5t-10 -3.5h-5q-5 -1 -11 -0.5
t-11 0.5h-44q-7 0 -14.5 -0.5t-12.5 1.5q-12 3 -16 10q-3 5 -3.5 13t-0.5 16v52v280q0 17 -2 29.5t-14 17.5q-11 5 -27 2.5t-27 2.5t-14 17q-2 5 -1.5 12t0.5 14q0 18 2 30t17 17q8 2 17 2h17.5t15.5 1.5t11 7.5q7 10 5.5 25.5t1.5 29.5q1 4 1.5 8t1.5 9q4 14 8 25.5
t11 21.5q14 24 37 38.5t52 22.5q8 3 17 3.5t18 2.5q3 1 9 0t8 1zM545 706q-5 5 -14 6t-19 1h-73q-2 0 -5 -0.5t-5 -0.5q-4 -2 -7.5 -4t-5.5 -6q-3 -5 -3.5 -11.5t-0.5 -14.5t-0.5 -19t0 -21.5t2 -19t5.5 -11.5q6 -5 14.5 -6t19.5 -1h56q11 0 20.5 1t15.5 6q7 5 7 19v27v31
t-7 24zM552 474q0 10 -0.5 19t-4.5 14q-3 5 -8 6t-11 3h-8q-5 1 -12.5 0.5t-13.5 -0.5h-50q-2 -1 -5.5 -0.5t-5.5 -0.5q-11 -2 -17 -9q-4 -6 -4 -16v-20v-422q0 -12 0.5 -22.5t6.5 -17.5q4 -5 12.5 -6t17.5 -1h56q8 0 15 -0.5t13 1.5q17 5 18 19t1 34v419z" />
    <glyph glyph-name="fl" unicode="fl" horiz-adv-x="611" 
d="M250 713h20.5t23 -1t20.5 -3.5t12 -7.5q6 -8 6 -22.5v-27.5q0 -10 -0.5 -20t-4.5 -15q-4 -6 -10 -7.5t-13.5 -1.5t-15 0.5t-14.5 -0.5q-18 -4 -28 -9.5t-16 -22.5q-2 -3 -1.5 -5.5t-0.5 -5.5q-1 -4 -2 -12t0 -13q2 -7 5 -12t9 -8q10 -5 24 -3t26 0q5 -1 8.5 -0.5
t7.5 -0.5q9 -4 13 -9q2 -3 3 -9.5t2 -14t0.5 -15t-1.5 -11.5t0 -7.5t-1 -7.5q-2 -12 -12 -15q-8 -4 -19 -3.5t-22 0.5h-7t-7 -1h-8q-17 -4 -21 -22q-2 -6 -1 -14t1 -16v-61v-195v-47q0 -6 0.5 -12.5t-1.5 -11.5v-11q0 -16 -5 -23q-2 -3 -7 -4.5t-10 -3.5h-5q-5 -1 -11 -0.5
t-11 0.5h-44q-7 0 -14.5 -0.5t-12.5 1.5q-12 3 -16 10q-3 5 -3.5 13t-0.5 16v52v280q0 17 -2 29.5t-14 17.5q-11 5 -27 2.5t-27 2.5t-14 17q-2 5 -1.5 12t0.5 14q0 18 2 30t17 17q8 2 17 2h17.5t15.5 1.5t11 7.5q7 10 5.5 25.5t1.5 29.5q1 4 1.5 8t1.5 9q4 14 8 25.5
t11 21.5q14 24 37 38.5t52 22.5q8 3 17 3.5t18 2.5q3 1 9 0t8 1zM439 713h73q10 0 19 -1t14 -6q6 -7 6.5 -18.5t0.5 -23.5v-89v-359v-153q0 -12 0.5 -27.5t-4.5 -23.5t-18 -11q-6 -2 -13.5 -1t-14.5 1h-48q-11 0 -20 1t-15 6t-6.5 15.5t-0.5 21.5v89v375v136q0 13 -0.5 31
t4.5 26q2 4 5.5 6t7.5 4q2 0 5 0.5t5 0.5z" />
    <glyph glyph-name=".notdef" horiz-adv-x="500" 
d="M442 8h-384v496h384v-496zM50 512v-512h400v512h-400z" />
    <glyph glyph-name="NULL" horiz-adv-x="0" 
 />
    <glyph glyph-name="uniE001" horiz-adv-x="278" 
 />
    <glyph glyph-name="space" unicode=" " horiz-adv-x="278" 
 />
    <glyph glyph-name="controlBS" horiz-adv-x="0" 
 />
    <glyph glyph-name="controlHT" unicode="&#x9;" horiz-adv-x="278" 
 />
    <glyph glyph-name="controlCR" unicode="&#xd;" horiz-adv-x="278" 
 />
    <glyph glyph-name="controlGS" horiz-adv-x="0" 
 />
    <glyph glyph-name="exclam" unicode="!" horiz-adv-x="278" 
d="M70 489q-5 22 -4.5 48t0.5 52v77v21t5 17q5 6 14 8q2 1 4 0.5t4 0.5h77q12 0 22.5 -1t15.5 -8q4 -6 4 -15v-19v-111q0 -6 1 -13.5t-1 -12.5v-11q-2 -7 -1.5 -14.5t-1.5 -13.5q-2 -5 -1.5 -9.5t-1.5 -9.5q-2 -9 -2 -17.5t-2 -16.5q-1 -4 -1 -7.5t-1 -7.5q-2 -13 -3 -27
t-4 -27q-2 -7 -1.5 -13t-1.5 -14q-4 -18 -4.5 -37.5t-5.5 -37.5q-3 -14 -3.5 -28.5t-10.5 -21.5q-3 -2 -7 -3t-9 -2h-14q-10 0 -17.5 2t-11.5 7q-5 6 -5 13t-2 15q-3 11 -3.5 23t-3.5 23q0 8 -1 11q-1 6 -1 12t-1 12q-4 14 -4.5 29.5t-3.5 29.5q-1 5 -1 9.5t-1 9.5
q-2 9 -2.5 19t-2.5 20q0 2 -0.5 4t-0.5 4q-2 8 -2 15.5t-2 15.5zM209 147q6 -5 7 -14t1 -20v-72q0 -11 -1 -20t-6 -14q-7 -5 -17 -5.5t-21 -0.5h-67q-11 0 -21 0.5t-15 6.5t-6 15.5t-1 20.5v63v19.5t4 15.5t15 10q2 1 4.5 0.5t4.5 0.5h79q12 0 22.5 -0.5t17.5 -5.5z" />
    <glyph glyph-name="quotedbl" unicode="&#x22;" horiz-adv-x="463" 
d="M185 705q6 -9 5.5 -25.5t-0.5 -30.5v-208v-21t-4 -16q-4 -7 -15 -9q-5 -2 -11 -1.5t-12 0.5q-15 0 -33 -0.5t-24 8.5q-5 5 -5.5 13.5t-0.5 18.5v205q0 14 -0.5 34.5t4.5 29.5q4 5 13 9q2 0 4.5 0.5t5.5 0.5q8 0 19.5 0.5t22 0t19.5 -2.5t12 -6zM376 441v-20t-4 -16
q-4 -8 -15 -10q-5 -2 -11 -1.5t-12 0.5q-14 0 -32.5 -0.5t-24.5 8.5q-5 5 -5.5 13.5t-0.5 18.5v205q0 14 -0.5 34.5t4.5 29.5q4 5 13 9q2 0 5 0.5t5 0.5q8 0 19 0.5t21.5 0t19 -2t12.5 -5.5q7 -8 6.5 -24.5t-0.5 -31.5v-209z" />
    <glyph glyph-name="numbersign" unicode="#" 
d="M521 454q0 -7 0.5 -13.5t-1.5 -11.5q-3 -11 -10.5 -14t-17.5 -3t-20.5 0.5t-20.5 -2.5t-14.5 -10.5t-6 -18t-2.5 -22t-3 -21.5q-1 -4 -1.5 -8.5t-1.5 -9.5v-6q0 -1 -0.5 -2.5t-0.5 -3.5l3.5 -10.5t6.5 -7.5q8 -5 22 -3.5t24 -2.5q11 -5 14 -22v-9q1 -5 1 -11.5t-1 -11.5
v-8q-1 -3 -1 -6t-2 -6q-4 -9 -15 -10.5t-25 -1.5h-8t-7 -1h-6q-15 -3 -21 -12q-5 -8 -5.5 -20.5t-3.5 -24.5q-5 -21 -6.5 -43.5t-6.5 -44.5q-2 -8 -2.5 -16t-2 -15t-5.5 -12t-12 -8q-5 -2 -11.5 -1.5t-12.5 0.5q-14 0 -29 0.5t-20 9.5q-4 5 -3.5 18t2.5 20q5 18 6 37t5 37
q1 5 1 9t1 9q1 4 1 7.5t1 7.5q3 15 1 26t-16 15q-5 2 -11 2h-13q-13 0 -25.5 -0.5t-20.5 -5.5q-8 -7 -9 -18.5t-4 -23.5q-2 -6 -1.5 -12t-1.5 -12q-5 -20 -6 -40.5t-6 -40.5q-3 -11 -4 -19.5t-6 -16.5t-18 -8.5t-26 -0.5q-5 0 -10 -0.5t-9 0.5q-5 2 -8.5 1.5t-6.5 1.5
q-8 5 -9 15.5t1 21.5q1 4 1 7.5t1 6.5q4 17 5 35.5t5 35.5q1 5 1 9t1 9q2 8 3.5 21t-1.5 21t-11 10.5t-19 2.5q-4 0 -8.5 -0.5t-8.5 0.5q-2 0 -5 0.5t-5 0.5q-15 3 -18 16q-2 5 -2 11v13q0 12 0.5 24t7.5 17q6 4 15.5 5t20 1h20.5t18 3t12 11.5t6 19t3 22t3 21.5
q1 5 2.5 14.5t0.5 14.5q-3 12 -10 16q-9 5 -24 3.5t-26 1.5q-15 5 -18 19q0 10 -1 15q-2 8 0 17q2 6 1.5 12.5t1.5 11.5q5 11 19.5 11.5t30.5 0.5h14q11 2 17.5 4.5t11.5 12.5q3 8 3.5 17.5t2.5 18.5q5 22 6.5 44.5t6.5 43.5q3 13 3.5 26t7.5 21q3 6 13 8q2 1 5 0.5t5 1.5
q8 0 17.5 0.5t18.5 0t16 -2.5t10 -7q4 -6 3.5 -19t-2.5 -21q-2 -9 -3 -18.5t-3 -19.5q-4 -17 -5 -35.5t-5 -35.5q-2 -7 -1.5 -15.5t3.5 -13.5q4 -8 18 -10q5 -1 10.5 -1h10.5q14 0 28 0.5t20 8.5q5 6 6.5 14.5t3.5 16.5q0 8 1 11q4 18 5 37t5 36q2 6 1.5 11.5t1.5 10.5
q2 11 3 22t6 19q6 10 21.5 10.5t32.5 0.5q9 0 18 -1t13 -7q5 -8 4 -22.5t-3 -24.5q-1 -4 -1 -7.5t-1 -7.5q-3 -13 -4 -27.5t-4 -27.5q-1 -5 -1 -15q-2 -6 -4 -19.5t0 -21.5q3 -11 9.5 -13t17.5 -4q3 -1 7 -0.5t6 0.5q4 -1 7 -0.5t6 -1.5q13 -4 14.5 -15.5t1.5 -28.5z
M333 366q2 8 2.5 18.5t-3.5 16.5q-7 11 -24.5 11h-34.5q-2 -2 -5.5 -1t-5.5 0q-13 -3 -19 -12q-3 -5 -3.5 -10.5t-2.5 -12.5q-3 -13 -4.5 -26.5t-4.5 -26.5q-1 -6 -0.5 -14t2.5 -12q5 -8 16.5 -9.5t25.5 -1.5q5 0 10 -0.5t9 1.5q4 1 7.5 0t7.5 1q10 3 14.5 11.5t6.5 20
t2.5 23.5t3.5 23z" />
    <glyph glyph-name="dollar" unicode="$" 
d="M555 228q2 -13 1.5 -32.5t-3.5 -30.5l-3.5 -14.5t-3.5 -13.5q-13 -30 -30.5 -54.5t-43.5 -42.5q-5 -4 -11 -8l-12 -8q-15 -10 -32.5 -16l-35.5 -12q-9 -3 -18.5 -4.5t-18.5 -3.5q-4 -1 -7.5 -1t-7.5 -1q-17 -6 -21 -21q0 -2 -0.5 -4t-0.5 -4q-1 -2 -0.5 -6t0.5 -8
q0 -10 -0.5 -19.5t-4.5 -15.5q-5 -6 -18 -8q-2 -1 -6 -0.5t-6 0.5q-8 2 -13.5 4.5t-7.5 10.5q-3 9 -2.5 18.5t0.5 18.5t-2 16.5t-9 12.5t-15.5 6t-16.5 3l-27 6t-25 8q-49 20 -79.5 49.5t-50.5 78.5q-5 11 -8 22l-6 22q-2 4 -1.5 7t-1.5 7q-2 6 -2.5 14t1.5 14q3 7 11 10
q5 2 12 2.5t15 0.5h49h16.5t14.5 -2q8 -3 12 -9t6 -13.5t4 -16t5 -15.5q8 -19 20 -32.5t29 -24.5q4 -3 10.5 -6t13 -4.5t13 -0.5t9.5 8q2 5 2.5 13t0.5 16v120q0 12 -0.5 22.5t-5.5 17.5q-5 8 -13.5 10t-17.5 5q-11 4 -22.5 7t-22.5 7q-29 11 -55 24.5t-46 33.5l-11 11
q-9 12 -16.5 25.5t-12.5 30.5q-3 9 -4.5 18.5t-3.5 19.5v21q0 14 1 25.5t4 22.5q3 10 5 19t7 18q14 31 36.5 53t50.5 39q16 10 34 16t38 12q11 3 23 4t20 6q7 5 8.5 11t3.5 16q1 4 0.5 8.5t0.5 8.5q1 5 0.5 8t0.5 7q4 10 11 13q2 1 5 0.5t5 1.5q12 0 20 -2.5t12 -10.5
q2 -6 2 -10v-11q1 -3 0.5 -7.5t0.5 -8.5l3.5 -14t7.5 -10t13.5 -5t15.5 -3q11 -4 22 -6.5t22 -6.5q45 -18 75 -44.5t48 -70.5q5 -11 10 -28q1 -3 1 -6t1 -6q2 -5 3 -11t-1 -11q-3 -10 -11 -13q-6 -2 -13 -2h-15h-48q-8 0 -16.5 -0.5t-15.5 1.5q-14 4 -18 15l-9 24
q-13 28 -34 42q-9 5 -21.5 7t-17.5 -11q-3 -7 -2.5 -18t0.5 -21v-76v-21.5t5 -17.5q7 -11 21 -13.5t28 -7.5q26 -8 50.5 -16.5t45.5 -22.5q28 -17 49.5 -39.5t35.5 -54.5q4 -10 6.5 -20t4.5 -21q2 -5 1 -10t1 -10zM233 457q14 3 15 17t1 31v63v20t-5 15q-6 7 -19 7
q-1 -1 -2.5 -0.5t-3.5 -0.5q-8 -2 -12 -4q-16 -7 -28 -19.5t-17 -30.5l-3 -15q-2 -5 -1 -12.5t2 -11.5q2 -4 2 -6.5t1 -5.5q6 -14 15 -21.5t20 -14.5q5 -3 16 -8t19 -3zM415 186q2 8 0.5 18t-3.5 16q-7 23 -20.5 34.5t-33.5 20.5q-8 4 -16 6.5t-20 2.5q-4 -2 -6.5 -3
t-4.5 -5q-5 -7 -4.5 -18t0.5 -21v-87q0 -16 1 -28t13 -17q7 -2 12 -1q27 7 47 22.5t30 39.5q2 5 2.5 10t2.5 10z" />
    <glyph glyph-name="percent" unicode="%" horiz-adv-x="1000" 
d="M690 612q-6 -10 -11 -20t-11 -20q-25 -41 -46.5 -83.5t-46.5 -83.5q-8 -12 -14 -24.5t-13 -24.5q-9 -15 -17 -30.5t-17 -30.5q-3 -5 -5 -9t-4 -9q-10 -15 -18 -31t-17 -31q-4 -5 -6 -10.5t-5 -10.5l-21.5 -38l-21.5 -38q-3 -5 -5.5 -10.5t-5.5 -10.5q-11 -17 -20 -35.5
t-20 -35.5q-7 -11 -12 -22.5t-16 -17.5q-4 -3 -13 -4.5t-19 -2t-19 0.5t-13 4q-9 5 -5 18q2 7 6 14.5t8 12.5q15 26 29 53t30 53q5 7 8 14t7 15q26 42 48 84t47 84q8 14 15 27.5t15 26.5q3 5 4.5 9t4.5 8l15.5 27.5l15.5 27.5q2 5 4 8.5l5 8.5q11 18 21 37.5t21 37.5
q4 6 7 12.5t7 13.5q13 21 24.5 43.5t24.5 43.5l10 18t10 17q2 4 4.5 8t5.5 6q8 6 13 8q4 0 12 2h27.5t19.5 -8q2 -2 2 -6.5t-1 -7.5q-2 -7 -5.5 -13t-6.5 -12l-18 -32zM392 422q-13 -32 -35 -54t-55 -33q-9 -3 -17.5 -4.5t-18.5 -3.5q-5 -1 -9 -0.5t-9 -0.5
q-4 -2 -13.5 -1.5t-13.5 1.5q-5 2 -8.5 1.5t-8.5 0.5q-10 2 -19 4t-17 6q-59 26 -81 90q-3 8 -4.5 17t-3.5 17q-1 5 -1 15q-2 4 -1.5 8.5t-0.5 8.5v11q-4 10 0 21v8q0 5 0.5 9.5t0.5 9.5q3 13 5 26t7 25q14 35 34.5 59.5t55.5 38.5q9 4 18.5 6t20.5 4q3 1 9.5 0t8.5 1
q62 1 98 -23.5t55 -67.5q4 -8 6.5 -17.5t4.5 -18.5q1 -3 1 -6t1 -6q2 -6 2 -12.5t2 -13.5q1 -3 0.5 -6.5t0.5 -5.5v-11q2 -11 0 -21q-2 -6 -1 -11.5t0 -10.5t-1 -9t-2 -9q-2 -11 -4.5 -21.5t-6.5 -20.5zM258 402q18 6 29 21q7 10 10.5 21.5t6.5 25.5q2 5 1 10.5t1 12.5
q1 4 1.5 13.5t-1.5 14.5v23q-1 4 -0.5 7.5t-0.5 7.5q-2 7 -3 14t-3 13l-4 13.5t-6 12.5l-10 11.5t-11 9.5q-12 7 -32 5q-2 -1 -9 -1q-3 -2 -6.5 -3t-6.5 -3q-12 -8 -19 -19.5t-12 -25.5q-3 -10 -4 -20t-3 -21v-19q-2 -6 -1.5 -19.5t1.5 -19.5q2 -6 1.5 -12t0.5 -11
q5 -17 10 -30t16 -22q11 -7 22 -11q6 0 9 -1q2 0 4.5 -0.5t4.5 0.5q4 1 7 1t7 1zM923 192q1 -5 1 -11.5t-1 -11.5v-9q-1 -4 -1 -8t-1 -8q-1 -5 -1 -9.5t-2 -9.5q-2 -11 -4.5 -21t-6.5 -19q-27 -65 -95 -89q-7 -2 -14.5 -3t-15.5 -3q-5 -1 -9 -0.5t-9 -0.5q-4 -2 -13.5 -1.5
t-12.5 2.5q-5 1 -9 0.5t-8 0.5l-17.5 4t-16.5 6q-34 14 -53.5 37t-30.5 58q-3 8 -4.5 16.5t-3.5 16.5q0 3 -0.5 5.5t-0.5 5.5q-1 5 -1 10.5t-1 10.5v12q-2 8 0 18v9q0 10 1 14q1 5 1 15q3 10 4.5 20t5.5 19q15 37 35 59.5t58 37.5q8 4 17.5 5.5t20.5 3.5q5 0 9.5 0.5
t9.5 0.5q59 2 95.5 -21t54.5 -64q4 -8 6.5 -18t5.5 -20q1 -3 1 -6t1 -6q2 -7 2 -14.5t2 -15.5q0 -5 0.5 -9t0.5 -9zM822 172q2 5 1.5 16t-1.5 16v7q-1 5 -1 9t-1 8q-3 14 -6 26t-10 23q-4 5 -9 9.5t-10 7.5q-7 5 -14.5 6t-18.5 1q-2 -2 -4 -1.5t-4 -0.5q-8 -2 -14 -6
q-12 -7 -19 -18.5t-12 -25.5q-3 -8 -4 -18t-3 -20v-19q-2 -6 -1.5 -19t1.5 -19q2 -5 1 -10.5t1 -10.5l8.5 -31.5t15.5 -24.5q5 -5 17.5 -11t24.5 -4q3 1 6.5 1t6.5 1q8 3 15 7.5t11 10.5q6 8 10 17t8 20q3 9 3 19.5t2 21.5v12z" />
    <glyph glyph-name="ampersand" unicode="&#x26;" horiz-adv-x="685" 
d="M675 18q2 -5 0.5 -8.5t-4.5 -5.5q-7 -5 -19 -4.5t-23 0.5h-61q-17 0 -29.5 0.5t-22.5 8.5q-4 3 -7 6.5t-6 7.5q-2 2 -3.5 4t-3.5 4l-8 10t-9 10q-3 3 -8 6.5t-13 1.5t-13 -6l-10 -8q-8 -5 -16 -11t-16 -11q-14 -8 -30.5 -14.5t-33.5 -12.5q-7 -2 -14 -3t-15 -3
q-5 -2 -10 -1.5t-10 -0.5h-7q-5 -2 -14.5 -2t-14.5 1q-5 0 -9 0.5t-9 0.5q-10 2 -20 3t-19 3l-23.5 7t-21.5 8q-23 10 -43.5 25.5t-33.5 33.5q-5 7 -9.5 14l-9.5 15q-4 7 -6.5 14l-5.5 15q-5 14 -8 29.5t-3 33.5v23q1 3 1 6.5t1 6.5q2 8 3 15t3 14q11 34 32.5 61t47.5 47
l37 25q6 4 12.5 7.5t9.5 11.5q3 10 -4 20t-11 15q-18 26 -29 54q-3 7 -4.5 14t-3.5 15q-5 17 -3.5 39t6.5 36q14 42 40 66.5t65 41.5q11 4 22 6t23 5q6 0 12 0.5t12 1.5q63 1 108 -21.5t69 -60.5q3 -6 5.5 -12t5.5 -12q8 -20 11.5 -49.5t-4.5 -54.5q-4 -13 -8.5 -25
t-10.5 -23q-11 -16 -25 -31.5t-29 -26.5q-5 -5 -11 -8.5t-11 -7.5q-3 -2 -6 -4.5t-5 -5.5q-5 -6 -4 -13.5t5 -12.5q3 -5 7 -9t7 -9q10 -14 20 -25.5t20 -24.5q3 -5 10.5 -9t14.5 1q6 4 9.5 11t5.5 15.5l4 16.5t7 14q8 10 27 10h36q6 0 13 0.5t12 -1.5h6q13 -2 18 -9
q5 -8 1.5 -23l-5.5 -23q-2 -7 -3.5 -13t-3.5 -11l-13.5 -32.5t-14.5 -29.5l-10 -16t-5 -20q4 -14 13 -22.5t17 -18.5q12 -17 26 -31t26 -31q3 -5 7 -8t7 -8q5 -7 11 -13.5t10 -14.5zM367 143q5 4 10.5 11t2.5 17q-2 8 -7.5 14.5l-10.5 12.5q-8 11 -16 20t-16 20l-3.5 3.5
l-3.5 3.5l-14 17.5l-14 17.5t-15 18t-25 9q-2 -1 -8 -3q-5 -2 -8.5 -4t-7.5 -4q-20 -12 -36 -29.5t-24 -40.5q-1 -4 -1.5 -8t-1.5 -9q-2 -10 0 -21.5t4 -18.5q17 -47 70 -64q10 -3 26 -3.5t27 2.5q23 6 39.5 15.5t32.5 23.5zM381 546q2 7 1 15t-3 13q-11 38 -44 48
q-9 3 -22 3q-2 -1 -4.5 -0.5t-4.5 -0.5q-8 -2 -13 -4q-25 -10 -36 -40q-2 -8 -2 -18t2 -18q2 -5 2.5 -9.5t2.5 -9.5q5 -12 11.5 -21.5l13.5 -19.5q4 -5 12.5 -13.5t17.5 -6.5q10 2 15.5 6.5t12.5 9.5q25 18 35 51q2 4 1.5 7.5t1.5 7.5z" />
    <glyph glyph-name="quotesingle" unicode="'" horiz-adv-x="278" 
d="M187 705q6 -9 5.5 -25.5t-0.5 -30.5v-208v-21t-4 -16q-4 -7 -15 -9q-5 -2 -11 -1.5t-12 0.5q-15 0 -33 -0.5t-24 8.5q-5 5 -5.5 13.5t-0.5 18.5v205q0 14 -0.5 34.5t4.5 29.5q4 5 13 9q2 0 4.5 0.5t5.5 0.5q8 0 19.5 0.5t22 0t19.5 -2.5t12 -6z" />
    <glyph glyph-name="parenleft" unicode="(" horiz-adv-x="296" 
d="M54 250q-2 5 -1.5 10.5t0.5 10.5t-0.5 10t1.5 10v10v11t1 11q0 5 0.5 10t0.5 10l6 54q2 11 3.5 20.5t3.5 20.5q2 9 4 19l4 20q7 23 12.5 46.5t14.5 44.5q3 8 5 15t6 15q8 21 17.5 41.5t20.5 39.5q8 12 15 25.5t20 21.5q4 2 8.5 2.5t9.5 1.5h22q8 0 18 0.5t19 0t15.5 -3.5
t8.5 -9t-0.5 -12t-4.5 -10l-10 -22.5l-10 -22.5q-11 -28 -19.5 -57t-18.5 -58q-5 -15 -7.5 -31.5t-6.5 -31.5q-5 -17 -6 -33.5t-5 -33.5q-1 -5 -1 -10.5t-1 -11.5q-2 -11 -2 -24t-2 -24q-2 -6 -1 -12.5t0 -11.5v-23q-2 -10 0 -19q0 -6 -0.5 -12t0.5 -11v-13q2 -6 1 -13.5
t1 -13.5q0 -4 0.5 -7t0.5 -7q2 -9 2 -19t2 -20q2 -11 2.5 -21t2.5 -21q2 -7 2.5 -14t2.5 -14q3 -13 5.5 -26t6.5 -25l9.5 -38t10.5 -36q2 -6 3.5 -11.5t3.5 -11.5q8 -17 14 -35t14 -35q3 -6 8 -17t2 -19q-3 -7 -14 -9q-2 -1 -4 -0.5t-4 -0.5h-40h-19t-17 3q-11 5 -16.5 16
t-11.5 21q-14 23 -25 48.5l-22 51.5q-8 17 -14 34.5t-11 34.5q-4 10 -6 20t-5 20l-12 51q-4 15 -5 30.5t-4 29.5q-1 5 -1 9.5t-1 9.5q-1 9 -1.5 18t-0.5 18v15v0z" />
    <glyph glyph-name="parenright" unicode=")" horiz-adv-x="296" 
d="M242 300q2 -5 1.5 -10.5t-0.5 -10.5t0.5 -10t-1.5 -10v-10v-11t-1 -11q0 -5 -0.5 -10t-0.5 -10l-6 -54q-2 -11 -3.5 -20.5t-3.5 -20.5q-2 -9 -4 -19l-4 -20q-7 -23 -12.5 -46.5t-14.5 -44.5q-3 -8 -5 -15t-6 -15q-8 -21 -17.5 -41.5t-20.5 -39.5q-8 -12 -15 -25.5
t-20 -21.5q-4 -2 -8.5 -2.5t-9.5 -1.5h-22q-8 0 -18 -0.5t-19 0t-16 3.5t-8 9q-2 6 0.5 12t4.5 10l10 22.5l10 22.5q11 28 19.5 57t18.5 58q5 15 7.5 31.5t6.5 31.5q5 17 6 33.5t5 33.5q1 5 1 10.5t1 11.5q2 11 2 24t2 24q2 6 1 12.5t0 11.5v23q2 9 0 19q0 6 0.5 12t-0.5 11
v13q-2 6 -1 13.5t-1 13.5q0 4 -0.5 7t-0.5 7q-2 9 -2 19t-2 20q-2 11 -2.5 21t-2.5 21q-2 7 -2.5 14t-2.5 14q-3 13 -5.5 26t-6.5 25l-9.5 38t-10.5 36q-2 6 -3.5 11.5t-3.5 11.5q-8 17 -14 35t-14 35q-3 6 -8 17t-2 19q3 7 14 9q2 1 4 0.5t4 0.5h40h19t17 -3
q11 -5 16.5 -16t11.5 -21q14 -23 25 -48.5l22 -51.5q8 -17 14 -34.5t11 -34.5q4 -10 6 -20t5 -20l12 -51q4 -15 5 -30.5t4 -29.5q1 -5 1 -9.5t1 -9.5q1 -9 1.5 -18t0.5 -18v-15v0z" />
    <glyph glyph-name="asterisk" unicode="*" horiz-adv-x="407" 
d="M101 531q-12 4 -24.5 7.5t-23.5 8.5q-10 5 -18 11t-3 21q1 5 2.5 9l3.5 9l4 12t7 10q11 9 25 4t26.5 -10l25.5 -10q7 -3 17 -4.5t15 5.5q6 8 5.5 27.5t-0.5 33.5v8.5t1 7.5q1 4 0 7.5t1 7.5q3 12 14 16q2 0 4.5 0.5t5.5 0.5q16 1 30.5 0t19.5 -12q2 -5 2 -12v-15
q0 -11 0.5 -21t0.5 -20t1 -18.5t6 -12.5q5 -3 11.5 -3.5t12.5 1.5q14 5 27.5 10.5t27.5 10.5q8 3 17.5 3t14.5 -6q4 -5 6.5 -10.5t4.5 -11.5q2 -5 3 -9.5t3 -9.5q3 -14 -5 -19.5t-16 -9.5q-13 -5 -27 -9.5t-27 -9.5q-7 -3 -13.5 -5.5t-8.5 -10.5q-3 -9 3.5 -17.5l10.5 -13.5
l15 -21l15 -21q2 -3 5 -8t1 -12q-2 -9 -9 -14.5l-14 -10.5q-5 -3 -9.5 -7t-10.5 -6q-12 -4 -19 3.5t-12 13.5l-14 19.5l-15 19.5l-9 13t-14 9q-8 2 -14 -5t-9 -11l-27 -39q-4 -5 -6.5 -10t-7.5 -8q-4 -3 -10 -4.5t-12 0.5t-11 6l-10 8l-11 8.5t-9 11.5q-2 5 -0.5 11t3.5 9
q7 12 15.5 23l16.5 22q4 5 10.5 14t3.5 18q-3 8 -10 11t-15 6z" />
    <glyph glyph-name="plus" unicode="+" horiz-adv-x="600" 
d="M552 249q0 -9 0.5 -19t-2.5 -16q-5 -12 -18.5 -13.5t-30.5 -1.5h-99q-14 0 -25.5 -1t-17.5 -9q-5 -7 -5 -19.5v-24.5v-93v-23t-5 -19q-3 -4 -7.5 -5.5t-9.5 -3.5q-8 -2 -16 -1.5t-16 0.5q-14 0 -27.5 1t-19.5 9q-5 7 -5 20v25v91q0 13 -0.5 25t-5.5 20q-6 8 -19 8h-27
h-100q-12 0 -24 1t-17 8t-5.5 17.5t-0.5 21.5q0 17 0.5 33.5t13.5 21.5q8 3 20.5 3h23.5h86q17 0 31.5 1t20.5 12q4 8 3.5 20t-0.5 23v86q0 11 -0.5 23t3.5 20q3 8 14 12q3 1 9 1q9 0 20.5 1t22.5 0.5t20 -3t12 -7.5q5 -8 5 -20.5v-24.5v-91q0 -14 0.5 -25.5t5.5 -19.5
q7 -8 24 -8h31h88q11 0 22.5 -0.5t17.5 -5.5q9 -6 9 -21v-29z" />
    <glyph glyph-name="comma" unicode="," horiz-adv-x="278" 
d="M216 42q0 -17 0.5 -38t-3.5 -35q-9 -37 -26 -61.5t-46 -41.5q-19 -13 -41 -20q-4 -2 -10 -4t-11 -1q-8 2 -12 6q-5 6 -5.5 22.5t3.5 25.5q4 10 12.5 15t16.5 11q16 11 28 34q2 4 5.5 12t1.5 15q-3 14 -17 17q-11 3 -22.5 2t-19.5 4q-6 5 -7.5 15t-1.5 21v66v18.5t4 15.5
q5 8 16 11q2 0 5 -0.5t5 1.5h82q12 0 22.5 -1t15.5 -9q5 -6 5 -15v-19v-67v0z" />
    <glyph glyph-name="hyphen" unicode="-" horiz-adv-x="407" 
d="M344 329q5 -4 7 -12.5t2.5 -19t0 -21.5t-0.5 -20v-15.5t-2 -13.5q-5 -11 -16 -12.5t-26 -1.5h-187q-13 0 -31 -0.5t-26 4.5q-6 4 -8.5 12.5t-3 19t0 22t0.5 20.5t0.5 18t3.5 14q4 5 13 9q2 0 4.5 0.5t4.5 0.5h235q9 0 16.5 -0.5t12.5 -3.5z" />
    <glyph glyph-name="period" unicode="." horiz-adv-x="278" 
d="M61 108v19t4 15q4 7 15 11q2 0 4.5 -0.5t4.5 0.5h79h22.5t17.5 -5q6 -5 7 -14t1 -20v-72q0 -11 -1 -20.5t-6 -13.5q-7 -5 -17 -6t-21 -1h-67q-11 0 -21 1t-15 7t-6 15.5t-1 20.5v63z" />
    <glyph glyph-name="slash" unicode="/" horiz-adv-x="371" 
d="M293 729h36q5 0 10.5 0.5t10.5 -0.5h4q6 -2 10.5 -4t6.5 -7q2 -4 1 -8.5t-2 -8.5q-2 -7 -4.5 -13.5t-5.5 -13.5l-4 -11.5l-4 -11.5q-9 -23 -17 -45.5t-18 -45.5q-8 -21 -15 -42t-16 -42q-2 -4 -2.5 -7.5t-2.5 -7.5q-8 -19 -14 -37.5t-14 -37.5q-8 -18 -14 -37.5
t-14 -38.5q-20 -48 -37 -97t-37 -97q-9 -22 -16.5 -44l-15.5 -44q-5 -11 -8.5 -22t-13.5 -17q-8 -5 -23 -5h-29h-18.5t-16.5 3q-6 3 -8 8.5t-1 12t3.5 13l4.5 11.5q11 26 20 53.5t20 53.5q3 6 4.5 12.5t4.5 12.5q7 17 12.5 34.5t13.5 35.5q5 13 9.5 26t9.5 26q20 49 37 99
t37 98q3 7 4.5 13t4.5 12q6 15 11.5 31t11.5 31q3 7 5.5 14t5.5 14q8 20 14.5 39.5t14.5 39.5q5 11 9.5 25t13.5 21q3 3 13 5q2 1 4 0.5t4 0.5z" />
    <glyph glyph-name="zero" unicode="0" 
d="M533 377q1 -6 0.5 -13t-0.5 -14q0 -5 0.5 -10t-0.5 -10v-15l-3 -36q-1 -8 -1.5 -16.5t-1.5 -17.5q-5 -18 -7.5 -36.5t-8.5 -35.5q-20 -62 -51.5 -103.5t-90.5 -65.5q-13 -5 -27.5 -7t-29.5 -6q-7 -1 -13 -1t-13 -1q-3 -1 -10 -0.5t-10 1.5h-10h-5.5t-5.5 1q-8 2 -16 2.5
t-16 2.5q-19 5 -35 11.5t-30 15.5q-37 23 -59 54t-39 73q-5 14 -8 29t-8 30q-3 11 -4 23t-4 24q-1 5 -0.5 9t-1.5 8v12t-1 12q-1 5 -0.5 9t-0.5 9q-2 8 -1.5 18t0.5 18q0 7 -0.5 14.5t1.5 13.5v13q2 8 1 15.5t1 15.5v10q2 6 1.5 12t1.5 13q2 5 2 11.5t2 12.5q4 14 6 27t7 26
q20 60 52 100.5t88 63.5q12 5 25.5 7.5t27.5 5.5q5 1 10 1t10 1q2 1 5.5 0t5.5 0q53 1 92.5 -12t68.5 -37t48.5 -57.5t32.5 -72.5q6 -17 8.5 -35t7.5 -36q2 -8 1.5 -15.5t1.5 -15.5q2 -10 2 -20.5t2 -20.5v-15zM393 332q1 5 0.5 10.5t-0.5 10.5t0.5 10.5t-0.5 10.5v8v13.5
t-1 12.5v10q-2 10 -2.5 19.5t-1.5 19.5q-2 8 -3 16t-3 16q-8 28 -18.5 52.5t-31.5 38.5q-12 9 -26.5 13.5t-36.5 4.5q-2 -2 -5.5 -1t-5.5 0q-5 -2 -9.5 -3t-9.5 -3q-23 -10 -36 -29t-23 -42q-6 -15 -8 -32.5t-6 -35.5q-1 -8 -1.5 -16t-1.5 -16t-1 -17v-17v-11
q-2 -5 -1.5 -11t0.5 -11v-10t1 -10t0 -11.5t0 -11.5v-14q2 -9 2 -19t2 -19v-8q2 -9 3 -18.5t3 -18.5q6 -20 12 -37t17 -32q11 -14 22.5 -22.5t30.5 -14.5q5 -2 14 -3.5t16 0.5q5 2 10.5 2t10.5 2q11 4 23 11.5t19 15.5q9 13 15 24.5t12 26.5q5 13 7 26.5t6 27.5q1 5 1 9.5
t1 9.5q2 7 1.5 14.5t1.5 14.5v17t1 17v10z" />
    <glyph glyph-name="one" unicode="1" 
d="M306 698h38q5 0 10 0.5t10 -1.5h5q5 -1 9.5 -2.5t6.5 -4.5q5 -7 5.5 -18.5t0.5 -24.5v-93v-365v-127q0 -13 0.5 -28.5t-4.5 -23.5q-4 -5 -9.5 -6.5t-13.5 -3.5h-25h-40q-5 0 -10.5 -0.5t-10.5 0.5h-5q-5 2 -9.5 3.5t-7.5 5.5q-5 6 -5 16v21v75v213v64q0 8 0.5 18.5
t-1.5 17.5q-5 17 -19 18.5t-34 1.5h-72q-14 0 -27 1t-19 9q-2 4 -2 7.5t-1 8.5q-2 5 -1.5 10.5t0.5 10.5v27t5 22q5 7 14.5 8t19.5 3h10q6 2 12.5 2.5t12.5 1.5q12 4 22.5 7t21.5 8q23 10 39.5 26t28.5 36q6 11 11 27.5t14 22.5q5 4 11 5q2 1 4.5 0.5t4.5 0.5z" />
    <glyph glyph-name="two" unicode="2" 
d="M282 713q80 2 134.5 -29t84.5 -79q5 -8 8 -16t7 -16q6 -16 9.5 -36.5t4 -42.5t-2.5 -43t-10 -37q-10 -26 -26 -50q-20 -29 -46 -50t-54 -41q-8 -5 -16.5 -11t-16.5 -11l-42.5 -28l-40.5 -29q-7 -5 -12.5 -10l-11.5 -10q-1 -1 -1.5 -2t-2.5 -2q-6 -5 -12.5 -11.5
t-10.5 -14.5q-1 -2 -2.5 -4.5t-0.5 -7.5q2 -5 7 -7t10 -3h5q5 -2 11.5 -1.5t11.5 0.5h45h152q14 0 34 0.5t28 -5.5q5 -4 7 -12t2.5 -18.5t0 -21t-0.5 -19.5q0 -6 0.5 -13t-1.5 -12q-1 -10 -10 -15q-6 -4 -15.5 -4h-18.5h-69h-269h-77q-9 0 -19.5 -0.5t-17.5 2.5
q-10 5 -12.5 16t0.5 24q0 3 0.5 6.5t0.5 6.5q2 8 4 17t4 17q15 44 38 77q25 35 59 62.5l69 53.5l55.5 37.5l55.5 38.5q7 5 12.5 10l11.5 10q14 11 26 26.5t19 32.5q2 5 3 9.5t3 9.5q2 8 3 22t-1 24q-1 5 -2 11t-3 11q-14 36 -43 53q-6 4 -13 6.5t-15 4.5q-5 2 -10.5 1.5
t-11.5 1.5q-7 2 -16 0.5t-15 -3.5q-39 -12 -58 -43q-9 -14 -14 -29.5t-10 -33.5q-3 -13 -3.5 -26.5t-11.5 -20.5q-5 -3 -13.5 -3.5t-17.5 -0.5h-51q-11 0 -19.5 0.5t-14.5 5.5q-5 3 -7 11t0 15v9q1 6 1.5 12.5t1.5 12.5q3 13 5 25.5t7 23.5q3 9 6 17l6 16q3 6 7 12.5l8 12.5
q20 33 47.5 54.5t65.5 37.5q14 5 28 7.5t29 6.5q5 0 10 0.5t10 1.5q2 0 5.5 -0.5t5.5 0.5z" />
    <glyph glyph-name="three" unicode="3" 
d="M269 713q50 2 88 -10.5t68 -31.5q6 -4 11.5 -8.5l11.5 -9.5q29 -21 45 -58q2 -6 5 -12t5 -13q6 -18 7 -45t-4 -47q-8 -29 -21 -49q-3 -4 -6 -7l-6 -6q-4 -6 -6 -8q-15 -10 -25 -20q-2 -2 -4 -4.5t-1 -6.5q0 -5 8 -11q7 -5 14 -9l15 -9q34 -25 51 -68q4 -9 6 -19.5
l4 -21.5q2 -5 0.5 -11t0.5 -12q1 -4 0.5 -11t-1.5 -11q0 -9 -1 -13q-2 -8 -3.5 -16t-3.5 -16q-19 -57 -53.5 -89t-88.5 -54q-11 -4 -22 -6.5l-23 -5.5q-5 -2 -10.5 -2t-10.5 -2q-8 0 -15.5 -0.5t-15.5 -1.5q-4 -1 -11.5 -0.5t-11.5 1.5h-17q-3 1 -7 0.5t-7 0.5q-8 2 -16 3
t-15 3q-4 2 -7.5 2t-6.5 1q-11 3 -20.5 6.5t-18.5 7.5q-38 17 -66 45.5t-45 66.5q-5 11 -8 23t-7 25q-2 5 -1.5 10.5t-1.5 10.5q-2 7 -2 16.5t2 16.5q6 13 27 13.5t40 0.5q7 0 15 0.5t14 -1.5h11q11 -2 15 -5q8 -5 9.5 -15.5t5.5 -21.5l9 -25.5t12 -22.5q18 -27 55 -41
q6 -2 12 -2.5t12 -2.5h5q10 -2 22 -1t20 4q10 2 17 4q20 8 35 21.5t23 33.5q3 6 4.5 13t3.5 15q2 5 2.5 16t-1.5 17q0 2 -0.5 4t-0.5 4l-2 10.5t-3 10.5q-10 23 -26.5 35.5t-42.5 20.5q-7 2 -14.5 2t-15.5 2q-3 1 -6.5 1h-5.5h-9q-3 1 -6.5 0.5t-5.5 0.5q-8 2 -13 5t-7 9
q-2 5 -2.5 12t-0.5 15q0 13 0.5 27t5.5 22q3 4 11.5 6t18.5 3t19.5 1.5t15.5 2.5q28 8 45.5 19.5t27.5 37.5q2 6 4 18t0 22l-4 16.5t-7 15.5q-18 31 -55 43q-5 2 -9.5 2t-9.5 2q-8 2 -19.5 1t-18.5 -3q-5 -2 -8.5 -2.5t-8.5 -2.5q-30 -12 -47 -38q-6 -9 -9.5 -19t-6.5 -21
t-5 -20.5t-10 -14.5q-3 -2 -13 -4h-11q-5 -1 -12 -0.5t-13 0.5q-16 0 -35.5 -1t-29.5 7q-4 3 -6 11.5t0 16.5q2 5 2 10t2 10l6 23.5t8 22.5q21 48 53 78.5t83 49.5q11 4 23.5 6l25.5 4q8 1 14.5 1.5t13.5 0.5z" />
    <glyph glyph-name="four" unicode="4" 
d="M522 277q16 -5 16.5 -22t0.5 -37v-28q-2 -10 -4.5 -16.5t-11.5 -8.5q-9 -3 -20 -2.5t-21 0.5t-19 -2.5t-13 -10.5q-2 -4 -4 -14v-11q-1 -5 -0.5 -12.5t0.5 -14.5v-52v-20.5t-5 -15.5q-3 -4 -7.5 -5.5t-9.5 -3.5h-5q-8 -2 -19 -1t-19 1q-10 0 -20.5 -0.5t-19.5 0.5t-16 4
t-10 10q-2 5 -2 12.5v15.5v48q0 5 0.5 12t-0.5 12v21q-2 8 -4 13t-7 9q-9 6 -28 5.5t-33 -0.5h-148q-8 0 -18.5 -0.5t-21 0t-19 2t-11.5 6.5q-6 7 -6 22v12q-2 7 -1.5 15t0.5 16v27.5t3 25.5q2 7 5.5 13t7.5 11q10 14 20 26t20 26q26 38 54.5 74.5l55.5 74.5q5 8 11.5 15
t11.5 15l36.5 49l36.5 49q5 8 11 15t12 15q3 5 6 9.5t8 8.5q4 2 7.5 4t8.5 3q2 1 5.5 0.5t5.5 1.5h65q11 0 20 -1t14 -8q4 -6 4.5 -15t0.5 -20v-326v-17t2 -16q3 -13 16 -16q12 -4 29 -1.5t29 -1.5zM313 325q1 5 0.5 12t-0.5 12v84q0 5 0.5 10t-0.5 10q-2 6 -0.5 12.5
t-0.5 12.5q-2 8 -2.5 14.5t-10.5 7.5q-2 -2 -4.5 -2.5t-4.5 -2.5q-5 -4 -9.5 -11t-9.5 -12q-7 -11 -14.5 -20t-15.5 -20q-3 -5 -7 -10l-8 -10l-54 -72q-4 -5 -7.5 -11t-8.5 -12q-2 -4 -5.5 -7.5t-5.5 -8.5t-1 -10.5t5 -7.5q6 -5 17.5 -5h21.5h59q7 0 15 -0.5t14 0.5h10
l12.5 3.5t8.5 6.5q4 5 5 11.5t1 14.5v11z" />
    <glyph glyph-name="five" unicode="5" 
d="M136 699h258h62q11 0 20.5 -0.5t15.5 -5.5q4 -3 6 -11.5t2.5 -18.5t0 -20.5t-0.5 -18.5v-13.5t-2 -11.5q-5 -12 -16.5 -13.5t-28.5 -1.5h-77h-108q-14 0 -28.5 -0.5t-22.5 -6.5q-5 -4 -8 -11.5t-4.5 -17t-2.5 -19.5t-3 -17q-2 -8 -3 -16t-3 -16q-1 -3 -1 -10
q-2 -5 -2 -11.5t2 -10.5q1 -2 2 -3l3 -3q9 -1 15 2t11 6q7 5 14 8t15 6q12 5 28.5 7.5t35 3.5t36 -1t30.5 -6l22.5 -8t21.5 -10q62 -36 91 -101q5 -12 8 -24.5t6 -26.5q3 -12 5 -29t2 -34t-2 -33.5t-6 -28.5l-11.5 -31t-13.5 -29q-6 -10 -12.5 -19t-13.5 -17q-1 -1 -2 -1.5
t-2 -1.5q-4 -5 -8 -9.5t-9 -8.5q-1 -1 -1.5 -2t-2.5 -2q-5 -4 -9.5 -8t-9.5 -8q-32 -23 -73 -36q-8 -3 -17 -4.5t-19 -3.5q-8 -2 -17 -2.5t-20 -1.5q-4 0 -8 -0.5t-8 0.5h-7q-5 1 -10.5 1h-10.5q-11 3 -22.5 3.5t-22.5 3.5q-23 7 -44 15t-39 19l-11.5 8t-11.5 9l-6 6
q-5 3 -8.5 7t-6.5 8q-4 5 -8 8.5t-7 8.5q-10 14 -17 30t-13 34q-2 8 -5 23.5t2 23.5t14.5 9.5t22.5 1.5h54h17.5t15.5 -3q10 -5 13.5 -15t7.5 -20q4 -8 8 -14.5t9 -13.5q3 -4 7 -7l8 -6q6 -7 14 -11q14 -8 39.5 -12.5t47.5 1.5q15 5 26.5 11.5t22.5 14.5q5 3 8 7t6 9
q9 11 15 22.5t11 26.5q2 12 4 19v9q2 6 2 18t-2 18q-2 7 -3.5 14.5t-3.5 13.5q-12 29 -30.5 48t-50.5 28q-5 2 -10 2t-10 2h-8q-6 2 -14.5 1t-13.5 -3q-5 -1 -8.5 -1t-7.5 -1q-11 -4 -20.5 -9t-17.5 -11q-9 -6 -15.5 -14.5t-17.5 -13.5t-28.5 -4t-32.5 1q-7 0 -14.5 -1
t-12.5 1h-9q-11 2 -15 5q-9 8 -6 25q3 14 5 27.5t5 27.5q1 4 1 7t1 7q2 10 3.5 20t3.5 20q2 8 3.5 17.5t3.5 17.5q1 5 1 11t2 11q6 22 9 45.5t8 45.5q1 3 1 6t1 5q2 11 3.5 21.5t4.5 21.5l3.5 19.5t7.5 16.5q4 5 14 7q2 1 4 0.5t4 0.5z" />
    <glyph glyph-name="six" unicode="6" 
d="M533 250q1 -5 0.5 -16.5t-1.5 -16.5t-1 -8.5t-1 -8.5q-2 -11 -3.5 -21t-5.5 -20q-17 -52 -48.5 -90t-79.5 -59q-9 -4 -18.5 -6.5t-20.5 -6.5q-8 -2 -17 -3t-18 -3q-5 -2 -10.5 -1t-10.5 0q-6 -2 -15.5 -2t-14.5 2h-7q-4 1 -8.5 1t-8.5 1q-5 2 -9.5 1.5t-9.5 1.5l-37 11.5
t-32 15.5q-42 25 -68 63t-43 88q-6 16 -9 33.5t-7 34.5q-2 8 -2.5 16.5t-2.5 17.5q0 9 -0.5 18.5t-1.5 19.5v13q-2 5 -1.5 10.5t0.5 10.5t-0.5 10.5t1.5 9.5v12l3 39q4 15 5 30.5t6 29.5q11 38 23.5 70.5t32.5 60.5q23 32 53.5 56t72.5 38q11 4 23 5.5t24 4.5q3 1 12 0.5
t11 0.5q38 1 69.5 -6.5t56 -21t44 -32.5t33.5 -42q8 -13 13.5 -27t10.5 -30q2 -5 1.5 -12.5t-3.5 -11.5q-3 -5 -7.5 -6t-10.5 -3h-11q-6 -2 -14 -1t-16 1t-16.5 -1t-16.5 1q-5 1 -15 1q-17 4 -22 15.5t-13 24.5q-19 30 -56 42q-6 2 -15.5 3.5t-17.5 -0.5q-11 -2 -20 -4.5
t-17 -7.5q-24 -15 -39 -37t-26 -51q-2 -5 -3 -9.5t-3 -9.5q-3 -8 -5 -17l-4 -18q0 -2 -0.5 -4.5t-0.5 -4.5q-1 -5 -1 -11t2 -10q1 -2 2 -3l3 -3q11 -2 18 5t14 12q11 9 24.5 15.5t28.5 11.5q8 2 16.5 3.5t16.5 3.5q5 1 8.5 0t8.5 1q5 1 12 1t12 -1q4 -1 12 -1q5 -1 10 -1.5
t10 -2.5q8 -2 15.5 -3.5t15.5 -4.5q32 -13 57 -31.5t44 -44.5q9 -13 16.5 -28.5t12.5 -32.5q3 -8 4.5 -16.5t3.5 -16.5q1 -7 1.5 -13t1.5 -13v-11zM385 183q7 21 7.5 49t-7.5 49q-11 35 -34 59t-69 24q-2 -1 -6 -0.5t-7 -0.5q-7 -2 -14 -3t-13 -3q-47 -20 -62 -71
q-2 -7 -3.5 -13.5l-3.5 -14.5v-8q-2 -9 -1.5 -21t2.5 -20q2 -5 2.5 -10t2.5 -10q14 -47 55 -71q12 -7 29 -12q6 0 9 -1q4 -1 9.5 -1.5t10.5 0.5q9 2 16.5 3.5t15.5 4.5q23 10 38 29t23 42z" />
    <glyph glyph-name="seven" unicode="7" 
d="M67 699h332h74q12 0 22 -1t15 -9q4 -5 4.5 -13.5t0.5 -17.5v-41v-19t-3 -17q-3 -6 -7.5 -11.5t-9.5 -10.5q-4 -4 -7 -6q-2 -4 -5.5 -7t-6.5 -6q-6 -8 -13 -16t-13 -16q-50 -70 -86 -152q-12 -28 -21.5 -57.5l-19.5 -59.5q-5 -14 -7.5 -27t-5.5 -26q-5 -16 -7 -32t-6 -33
q-1 -5 -1 -9.5t-2 -9.5q-1 -11 -2 -20.5t-3 -20.5q-1 -5 -0.5 -9t-0.5 -9v-12q-3 -11 -5.5 -18t-13.5 -11q-6 -2 -14 -1.5t-16 0.5h-62q-11 0 -20.5 1t-14.5 9q-3 5 -3.5 16t1.5 19q2 6 2 13t2 14q4 15 5.5 30.5t6.5 30.5q7 25 13 50t14 48q2 5 3.5 10.5t3.5 10.5l16 39
l16 39q14 33 31.5 64t36.5 61l24 36l25 36q2 4 9 12.5t5 15.5t-7 8.5l-12 3.5h-9q-4 2 -9.5 1.5t-10.5 -0.5h-39h-153q-14 0 -34.5 -0.5t-28.5 4.5q-7 4 -9 11q-2 5 -2 12v14v45v18t4 15q4 7 15 10q2 1 4.5 0.5t4.5 0.5z" />
    <glyph glyph-name="eight" unicode="8" 
d="M541 221q1 -5 1.5 -10.5t-0.5 -9.5q-1 -5 -1 -9v-9q-1 -3 -1 -7t-1 -8q-2 -6 -3 -12t-3 -11q-2 -8 -5 -16l-6 -16q-3 -7 -7.5 -13.5l-9.5 -13.5q-21 -30 -52 -50.5t-69 -33.5q-11 -3 -22 -5t-22 -5q-4 -2 -8 -1.5t-8 -1.5q-8 0 -16 -0.5t-16 -1.5h-9q-6 0 -13 -0.5
t-12 1.5q-6 2 -12 1t-11 0q-4 2 -8 1.5t-9 1.5q-9 2 -18 3.5t-17 4.5q-2 1 -4.5 1t-4.5 1q-20 6 -39 15q-22 10 -43.5 27t-35.5 35q-10 13 -18 29q-4 6 -6.5 13t-4.5 14q-3 8 -5 18l-4 20q-1 4 -1 8t-1 8v9q-1 4 -0.5 13.5t1.5 13.5q3 13 4 24.5t6 22.5q9 22 21 40t29 31
l31 19q4 3 8.5 6t6.5 8q1 4 -0.5 6.5t-3.5 4.5q-8 8 -21 16q-17 13 -28 31.5t-19 41.5q-8 22 -6 51.5t9 49.5q18 49 52 76.5t83 44.5q13 5 27 7t29 5q7 1 13.5 1.5t13.5 0.5q51 2 90 -9.5t68 -32.5q10 -7 18.5 -14t16.5 -16l3 -3l8 -10.5l8 -10.5q2 -3 3.5 -6l3.5 -7
q13 -21 19.5 -57t-3.5 -68q-8 -23 -19 -41.5t-28 -31.5q-5 -4 -11 -8t-10 -9q-2 -2 -4 -4.5t0 -7.5t5 -7.5t7 -4.5q7 -4 14 -7.5t14 -8.5q35 -24 53 -67q5 -11 7 -22t5 -24q0 -4 0.5 -7t0.5 -7zM180 546q-7 -15 -7 -36.5t7 -36.5q8 -18 22 -29.5t33 -19.5q5 -2 10 -2.5
t10 -1.5q11 -3 28 -3t28 3q26 8 44 21.5t26 39.5q2 7 4 19t0 21q-1 4 -1.5 7t-1.5 7q-2 8 -4.5 15t-6.5 14q-17 25 -53 38q-5 2 -10.5 2t-10.5 2q-6 2 -13 1t-14 -1q-2 -2 -5.5 -1t-6.5 0q-5 -2 -10.5 -2.5t-10.5 -2.5q-20 -8 -34.5 -21t-22.5 -33zM399 188q5 17 1 36.5
t-9 30.5q-14 32 -42.5 49.5t-73.5 18.5q-2 -2 -6 -1.5t-7 0.5q-7 -2 -13.5 -3t-12.5 -3q-25 -8 -43 -22.5t-28 -37.5q-2 -6 -3.5 -12.5l-3.5 -14.5q-2 -11 -1 -25.5t4 -22.5q3 -11 7 -21q8 -17 20.5 -30t27.5 -22q5 -2 9 -4t9 -4t11.5 -3t12.5 -3q4 -1 12 -1q3 -1 10.5 -1.5
t10.5 0.5q10 2 19 3t17 5q22 9 38.5 23.5t25.5 35.5q3 7 4.5 14t3.5 15z" />
    <glyph glyph-name="nine" unicode="9" 
d="M532 375q1 -5 1 -19t-1 -19v-12q-1 -5 -1 -11t-1 -11t-1 -9.5t-1 -9.5q-2 -12 -3 -24t-4 -23q-4 -11 -6 -22.5t-6 -22.5q-8 -22 -17 -42.5t-20 -38.5q-5 -8 -10 -15t-10 -15q-3 -4 -6.5 -7t-6.5 -8q-3 -3 -7 -8t-8 -7l-16.5 -14t-17.5 -12q-13 -8 -27.5 -14.5
t-29.5 -11.5q-11 -3 -22 -4.5t-23 -3.5q-5 -2 -10.5 -1t-10.5 0q-5 -2 -14 -1.5t-14 1.5q-4 0 -7.5 0.5t-8.5 0.5q-8 2 -16 3t-15 3q-11 4 -20.5 6.5t-18.5 6.5q-89 39 -115 142q-2 6 0 13q4 12 14 13.5t25 1.5h32q8 0 19 1t18 -1q18 -5 23 -16t13 -25q6 -9 16 -19
t23.5 -16.5t29.5 -9t33 2.5q22 6 37.5 17.5t26.5 27t18.5 35t14.5 41.5q2 6 3 13t3 14q1 4 1 7t1 6q1 5 1 11t-2 10q-1 2 -2.5 3t-2.5 2q-9 1 -14 -3l-10 -8q-8 -6 -17 -12t-19 -11q-14 -7 -33 -11.5t-39.5 -5.5t-41 1t-36.5 8q-45 14 -73.5 38t-51.5 61q-7 12 -11 26t-9 28
q-2 7 -3 15t-3 16q0 4 -0.5 7.5t-0.5 7.5q-1 5 -1.5 14t1.5 14q1 5 0 10.5t1 10.5q0 8 1 12q2 11 3.5 20.5t5.5 19.5q7 21 15.5 39.5t20.5 34.5q4 7 9 12.5l10 11.5q3 4 8.5 9t9.5 8l3 3l10 8t11 7q14 10 30.5 17t34.5 13q10 3 20 4.5t21 3.5q4 1 12.5 0.5t10.5 0.5
q51 1 89.5 -10.5t67.5 -33.5t50 -52t36 -65q5 -14 8.5 -27.5t7.5 -27.5q2 -7 3 -14t3 -14q3 -11 3.5 -21.5t2.5 -20.5q1 -5 0.5 -8.5t0.5 -7.5q1 -6 1 -11.5v-11.5q1 -3 0.5 -7t0.5 -7zM379 438q5 17 3 38.5t-7 35.5q-13 37 -38.5 61.5t-74.5 24.5q-2 -2 -6 -1t-6 0l-21 -6
q-26 -11 -40.5 -32.5t-22.5 -49.5q-4 -11 -5 -30.5t2 -31.5q2 -8 2 -14t2 -12q8 -25 20 -41.5t32 -28.5q6 -4 13.5 -6.5t15.5 -4.5q2 0 4.5 -0.5t5.5 -0.5q3 -1 7.5 -1.5t7.5 0.5q2 1 5.5 0.5t6.5 0.5q6 2 12 3t12 3q41 18 61 60q3 8 5 16t4 17z" />
    <glyph glyph-name="colon" unicode=":" horiz-adv-x="278" 
d="M61 461v19t4 15q4 7 15 11q2 0 4.5 -0.5t4.5 0.5h79h22.5t17.5 -5q6 -5 7 -14t1 -20v-72q0 -11 -1 -20.5t-6 -13.5q-7 -5 -17 -6t-21 -1h-67q-11 0 -21 1t-15 7t-6 15.5t-1 20.5v63zM61 108v19t4 15q4 7 15 11q2 0 4.5 -0.5t4.5 0.5h79h22.5t17.5 -5q6 -5 7 -14t1 -20
v-72q0 -11 -1 -20.5t-6 -13.5q-7 -5 -17 -6t-21 -1h-67q-11 0 -21 1t-15 7t-6 15.5t-1 20.5v63z" />
    <glyph glyph-name="semicolon" unicode=";" horiz-adv-x="278" 
d="M61 461v19t4 15q4 7 15 11q2 0 4.5 -0.5t4.5 0.5h79h22.5t17.5 -5q6 -5 7 -14t1 -20v-72q0 -11 -1 -20.5t-6 -13.5q-7 -5 -17 -6t-21 -1h-67q-11 0 -21 1t-15 7t-6 15.5t-1 20.5v63zM216 42q0 -17 0.5 -38t-3.5 -35q-9 -37 -26 -61.5t-46 -41.5q-19 -13 -41 -20
q-4 -2 -10 -4t-11 -1q-8 2 -12 6q-5 6 -5.5 22.5t3.5 25.5q4 10 12.5 15t16.5 11q16 11 28 34q2 4 5.5 12t1.5 15q-3 14 -17 17q-11 3 -22.5 2t-19.5 4q-6 5 -7.5 15t-1.5 21v66v18.5t4 15.5q5 8 16 11q2 0 5 -0.5t5 1.5h82q12 0 22.5 -1t15.5 -9q5 -6 5 -15v-19v-67z" />
    <glyph glyph-name="less" unicode="&#x3c;" horiz-adv-x="600" 
d="M90 178q-9 4 -19.5 7t-16.5 11q-8 11 -7.5 34.5t0.5 42.5q0 10 0.5 19t4.5 14q5 8 14.5 12l18.5 8q17 8 35 14t35 14q69 29 139 55.5t139 55.5l42.5 16t41.5 17q8 3 18 4.5t15 -6.5q3 -5 3 -12.5v-15.5q0 -17 1 -36.5t-7 -29.5q-4 -5 -10.5 -8.5t-14.5 -6.5
q-11 -5 -22.5 -9t-22.5 -9q-45 -19 -90.5 -36t-90.5 -36q-17 -8 -35 -14t-34 -14q-4 -2 -11 -6t-5 -12t9.5 -11l14.5 -6q14 -7 29.5 -12.5t30.5 -11.5q42 -18 83.5 -34l83.5 -33l26.5 -11l25.5 -10l15 -5.5t12 -7.5q12 -8 12 -27v-39q0 -8 0.5 -16t-1.5 -14q-2 -5 -4.5 -6
t-7.5 -4q-13 -1 -23 4t-20 9q-18 8 -36 14.5t-36 14.5l-27.5 10t-27.5 11l-100 39.5l-100 40.5l-40 16z" />
    <glyph glyph-name="equal" unicode="=" horiz-adv-x="600" 
d="M54 403q4 4 12 8q2 0 5 0.5t5 0.5h426q13 0 24 -0.5t18 -5.5q8 -6 8 -25v-33q0 -5 0.5 -11t-1.5 -11q-3 -11 -10 -15q-6 -4 -15 -4h-18h-414h-19.5t-15.5 4q-11 7 -10.5 25.5t0.5 35.5q0 9 0.5 17.5t4.5 13.5zM543 193q9 -7 9 -25v-33q0 -6 0.5 -12t-1.5 -11
q-5 -16 -18 -17.5t-33 -1.5h-400q-9 0 -19 -0.5t-18 2.5q-14 6 -14 23.5v36.5v19t5 15q3 5 8 6t12 3q4 1 9 -0.5t8 0.5h389q7 0 15 1t14 -1h11q17 0 23 -5z" />
    <glyph glyph-name="greater" unicode="&#x3e;" horiz-adv-x="600" 
d="M510 328q9 -4 19.5 -7t16.5 -11q8 -11 7.5 -34.5t-0.5 -42.5q0 -10 -0.5 -19t-4.5 -14q-5 -8 -14.5 -12l-18.5 -8q-17 -8 -35 -14t-35 -14q-69 -29 -139 -55.5t-139 -55.5l-42.5 -16t-41.5 -17q-8 -3 -18 -4.5t-15 6.5q-3 5 -3 12.5v15.5q0 17 -1 36.5t7 29.5
q4 5 10.5 8.5t14.5 6.5q11 5 22.5 9t22.5 9q45 19 90.5 36t90.5 36q17 8 35 14t34 14q4 2 11 6t5 12t-9.5 11l-14.5 6q-14 7 -29.5 12.5t-30.5 11.5q-42 18 -83.5 34l-83.5 33l-26.5 11l-25.5 10l-15 5.5t-12 7.5q-12 8 -12 27v39q0 8 -0.5 16t1.5 14q2 5 4.5 6t7.5 4
q13 1 23 -4t20 -9q18 -8 36 -14.5t36 -14.5l27.5 -10t27.5 -11l100 -39.5l100 -40.5l40 -16z" />
    <glyph glyph-name="question" unicode="?" 
d="M522 548q2 -5 2 -14t-2 -15q-1 -5 -0.5 -9.5t-0.5 -9.5l-5.5 -24.5t-7.5 -22.5q-8 -17 -19 -34t-25 -28l-5 -5q-8 -6 -15.5 -12.5t-15.5 -12.5l-27.5 -20t-25.5 -22q-20 -20 -29 -48q-4 -11 -4 -25.5t-6 -22.5q-4 -4 -9 -5t-11 -3h-25q-9 0 -21 -0.5t-23.5 0t-20.5 2.5
t-13 7t-4.5 12.5t-0.5 15.5v8q1 5 1.5 10t0.5 10q4 13 6.5 25.5t7.5 23.5q8 19 21 38t27 30l9 9q7 5 12.5 9.5l11.5 9.5q16 11 29 24t23 30q4 7 7 18t3.5 23t-1 24t-5.5 21q-2 6 -5.5 12t-7.5 11q-6 8 -16 13.5t-21 9.5q-4 1 -7 1t-8 1t-11.5 1.5t-11.5 -0.5q-5 -2 -10 -1.5
t-10 -1.5q-43 -15 -61 -55q-3 -8 -5.5 -16.5t-4.5 -17.5q-3 -11 -4.5 -19.5t-9.5 -13.5q-6 -4 -15 -4h-18h-59q-10 0 -19 0.5t-14 4.5t-7 13t0 18l2 11.5l2 11.5l6 21.5t7 20.5l4 10t5 10l19 31q14 20 33 35.5t41 29.5q7 5 15 8l16 6q13 5 26.5 7t28.5 5q6 1 12.5 1.5
t13.5 0.5q56 2 99.5 -10t75.5 -35l19 -15t17 -17l8.5 -10.5t7.5 -10.5q2 -4 4 -7t4 -7q7 -11 10.5 -24l7.5 -27q2 -5 1.5 -9.5t0.5 -9.5zM349 62q0 -7 1 -14t-1 -13v-10q-2 -6 -3 -11t-6 -8q-6 -4 -15 -4.5t-20 -0.5h-70q-11 0 -21 1t-15 8q-4 6 -4.5 15.5t-0.5 19.5v65
q0 9 0.5 18.5t4.5 15.5q5 6 14 8q2 1 4 0.5t4 0.5h80h22t17 -5q5 -3 6 -8t3 -11v-8q1 -5 0.5 -10t-0.5 -10v-39z" />
    <glyph glyph-name="at" unicode="@" horiz-adv-x="800" 
d="M761 456q2 -6 3 -19.5t-1 -21.5q-2 -6 -0.5 -11.5t-0.5 -10.5q-1 -4 -1 -8t-1 -8q-2 -8 -3 -15t-3 -14q-1 -3 -1.5 -6.5t-1.5 -6.5q-7 -21 -16 -42q-3 -8 -7 -14.5t-9 -13.5q-24 -38 -56 -66.5t-75 -46.5q-10 -5 -22.5 -8.5t-26 -4.5t-27 0.5t-23.5 7.5q-5 3 -9.5 6.5
t-8.5 7.5q-4 5 -8 9.5t-12 6.5q-6 1 -11 -4q-8 -5 -14 -9.5l-13 -9.5q-17 -11 -46.5 -16t-54.5 3q-46 14 -73 43t-42 74q-2 7 -3 14.5t-3 15.5v13q-2 8 0 16v9q0 4 0.5 7.5t0.5 7.5q2 11 3.5 21t4.5 20l15.5 41.5t18.5 36.5q7 10 14.5 19l15.5 18q2 3 8 7q2 2 3 3.5t3 3.5
q6 4 9 7q14 10 29 18.5t33 14.5q6 2 12.5 3.5t12.5 3.5h7q8 2 22 2.5t23 -1.5q6 -2 12 -2.5t11 -2.5q24 -8 42 -21q6 -5 12 -11.5t14 -8.5q5 -2 9 1.5t6 5.5q4 6 7 11.5t10 9.5q2 2 5.5 2t6.5 1h6q5 1 11.5 1t11.5 -1h6q6 -2 11 -4t7 -7t1 -11.5t-2 -10.5q-4 -12 -6 -24.5
t-6 -23.5q-2 -7 -3 -13.5t-3 -14.5q-7 -23 -12 -48t-12 -48q-2 -6 -3 -12.5t-3 -12.5q-4 -11 -6 -23t-5 -24q-1 -4 -2 -9.5t0 -10.5q2 -11 6 -16t15 -7q8 -2 14 1q5 0 10 3q20 8 35 24t26 34q8 14 13 30.5l10 33.5q2 7 2.5 13.5t2.5 14.5v5q1 7 1 14.5v15.5q0 34 -9 60
q-2 6 -2.5 11t-2.5 10q-20 48 -51 81t-79 53q-20 8 -46 15q-5 2 -9.5 2t-9.5 1q-14 4 -29 5t-32 1h-16.5t-15.5 -2t-13.5 -1.5t-12.5 -1.5q-15 -4 -29.5 -7.5t-28.5 -8.5q-42 -18 -73 -45.5t-54 -64.5q-12 -20 -19.5 -42.5l-15.5 -47.5q-1 -5 -1 -9t-2 -9q-3 -14 -4 -31.5
t-0.5 -35.5t3 -35t5.5 -29q4 -14 7 -26.5t9 -25.5q22 -51 59.5 -87t88.5 -58q16 -6 32.5 -9.5t34.5 -8.5q9 -2 18.5 -2t18.5 -2h14q4 -1 11.5 -1t12.5 2h7q5 1 11 1t11 2q8 2 14 2t13 2q11 3 21 5t19 6l12 6t12 5q10 3 16 7l15 9t14 9t13.5 10.5t14.5 10.5q8 4 24 6t28 -1
q6 -2 11 -3t7 -6q2 -2 1 -5.5t-2 -5.5q-3 -6 -6.5 -10l-7.5 -9t-8 -9l-9 -9q-5 -4 -8.5 -8.5t-8.5 -8.5l-22 -15.5l-23 -15.5q-35 -23 -78 -36q-8 -3 -16 -5l-16 -4q-11 -3 -21.5 -3.5t-21.5 -3.5h-9t-9 -1t-17.5 -1.5t-18.5 1.5h-19q-9 2 -19 2.5t-19 2.5q-14 4 -27 6
t-25 7q-54 18 -98 46q-10 6 -19 13t-18 15l-3.5 3.5l-3.5 3.5q-20 16 -38 40q-6 8 -13 16.5t-12 17.5q-14 20 -24 43t-18 49q-5 13 -6.5 26.5t-5.5 27.5q0 6 -0.5 11.5t-1.5 11.5v7q-2 6 -2 17t2 17v18q2 9 2.5 19t2.5 18q1 4 1 6.5t1 6.5q4 12 6.5 24.5t7.5 23.5
q11 26 22.5 48t26.5 43q5 8 12 16l14 16l8 8q3 4 7 7.5l9 7.5l5 5t6 5q14 11 27.5 20.5l27.5 18.5q20 12 41.5 20l44.5 16q14 5 29.5 6.5t31.5 5.5q8 1 16.5 1.5t16.5 0.5q73 2 127 -16t99 -46q8 -5 15.5 -11.5t15.5 -11.5l4 -4l4 -4q12 -9 21 -21q3 -5 7 -8.5t8 -8.5
l17.5 -26.5t15.5 -27.5q7 -15 11.5 -31.5l9.5 -33.5q2 -6 1.5 -11.5t0.5 -12.5zM492 365q2 8 1 19t-3 18q-7 25 -20.5 40t-38.5 23q-5 2 -12 1.5t-14 -0.5q-2 -1 -3.5 -0.5t-3.5 -0.5q-5 -1 -9 -2t-9 -3q-19 -8 -37 -23q-5 -4 -10 -10l-9 -11q-17 -25 -27 -53q-1 -9 -5 -22
q-2 -12 -0.5 -30.5t5.5 -27.5q8 -20 20.5 -32t33.5 -18q17 -5 36.5 -0.5t30.5 11.5q28 17 44 41.5t26 59.5l2 10z" />
    <glyph glyph-name="A" unicode="A" horiz-adv-x="685" 
d="M673 48q1 -4 3.5 -10t4 -12.5t0.5 -12.5t-7 -9q-8 -5 -26.5 -4t-30.5 1h-47q-8 0 -14.5 -0.5t-12.5 1.5q-11 3 -16 12q-5 8 -7.5 17t-6.5 18l-10.5 32t-11.5 31l-5.5 16.5t-5.5 13.5t-9 10.5t-16 6.5q-5 0 -9.5 0.5t-9.5 0.5h-158q-17 0 -36.5 0.5t-30.5 -7.5
q-8 -6 -11 -16t-7 -20q-8 -17 -13.5 -35.5t-12.5 -36.5q-4 -10 -7.5 -21t-11.5 -17q-5 -4 -14.5 -5.5t-21 -1.5t-23.5 0.5t-21 0.5q-13 0 -31.5 -0.5t-26.5 4.5q-5 3 -5.5 9t1 12.5t3.5 12.5t4 10q10 23 18.5 47t17.5 47q4 8 6 16t6 16l16 43l16 43q8 20 15 39.5t15 39.5
q23 55 42.5 111t42.5 111q2 5 3 9t3 9l16 43t17 43q5 11 8.5 22.5t12.5 18.5q5 3 13 5q2 1 4 0.5t4 0.5h88q11 0 22.5 0.5t18.5 -4.5q11 -6 14.5 -17.5t8.5 -23.5q7 -17 13 -33.5t13 -33.5l4 -12l4 -12q8 -20 15 -39.5t15 -39.5q20 -50 37.5 -101t38.5 -101q2 -4 2.5 -7.5
t2.5 -7.5l12 -32l12 -32q4 -8 6 -15.5t5 -15.5q13 -32 24 -64t24 -63q2 -3 2 -5.5t2 -5.5zM414 277q13 5 12 17t-6 23q-2 4 -2 7.5t-2 7.5q-13 34 -24 69t-25 70q-2 5 -4 12.5t-5 14t-7 11.5t-10 5q-2 -2 -4 -3t-4 -3q-8 -10 -11.5 -24t-8.5 -27q-12 -28 -21.5 -57
t-20.5 -58q-4 -10 -7 -19.5t-6 -20.5q-3 -8 1 -18q5 -7 16.5 -8t23.5 -1h76h20t19 2z" />
    <glyph glyph-name="B" unicode="B" horiz-adv-x="704" 
d="M665 224q2 -11 0.5 -29t-3.5 -28t-4 -19t-5 -17q-21 -50 -65 -82q-17 -12 -36.5 -20.5t-41.5 -15.5q-11 -4 -23 -5.5t-23 -3.5q-5 -1 -9.5 -1t-9.5 -1q-4 -1 -8.5 0t-9.5 -1q-4 -1 -8.5 -0.5t-9.5 0.5h-292q-17 0 -28.5 1.5t-16.5 13.5q-3 8 -2.5 24.5t0.5 27.5v587
q0 12 -0.5 25.5t4.5 21.5q4 7 15 10q2 1 4 0.5t4 0.5h298q7 0 14 0.5t13 -0.5q5 -2 10 -1t10 0h6q6 -2 12.5 -1.5t13.5 -1.5q8 -2 15.5 -3t15.5 -3l36 -13.5t31 -16.5q20 -14 33 -35t21 -48q2 -7 2.5 -14t2.5 -15q1 -4 0.5 -8t0.5 -8q1 -3 0.5 -7.5t-1.5 -6.5v-9
q0 -3 -0.5 -7t-0.5 -6q-2 -7 -2.5 -12.5t-2.5 -10.5q-13 -36 -34 -59q-7 -7 -15 -12t-14 -13q-2 -2 -4.5 -5.5t-0.5 -8.5q2 -8 13 -13.5t19 -10.5q27 -18 44 -42q16 -23 25 -54q3 -8 4 -16.5t3 -16.5v-11zM230 582q-5 -7 -5 -17.5v-21.5v-54q0 -7 -0.5 -14.5t0.5 -12.5v-10
q2 -6 3 -10.5t3 -8.5q4 -5 12.5 -7t19 -2.5t21.5 0t20 0.5q15 0 31.5 -0.5t33 -0.5t31.5 1.5t26 5.5q30 10 45 35q7 13 9 34q2 34 -10 53.5t-35 30.5q-6 2 -13 3.5t-15 3.5q-4 1 -12 1q-12 3 -27.5 2.5t-29.5 -0.5h-85q-2 -1 -4.5 -1t-4.5 -1q-10 -3 -14 -9zM510 208
q2 14 -1.5 30t-7.5 24q-14 36 -55 50q-17 5 -37.5 6t-42.5 1h-113q-2 -2 -3.5 -1.5t-3.5 0.5q-12 -3 -16 -10q-5 -8 -5 -20.5v-23.5v-89q0 -12 0.5 -24.5t5.5 -19.5q4 -5 13 -7.5t20.5 -3t23.5 0t21 0.5q30 0 58 -0.5t53 3t44.5 12t31.5 26.5q5 8 8 18.5l6 21.5v6z" />
    <glyph glyph-name="C" unicode="C" horiz-adv-x="741" 
d="M375 730q105 2 173 -36t108 -101q11 -17 18 -34.5t13 -38.5q2 -7 4 -16t-1 -17q-2 -6 -7.5 -7.5l-12.5 -3.5h-8q-6 -2 -13.5 -1.5t-14.5 0.5q-9 0 -21.5 -0.5t-24.5 0t-22 2t-15 4.5q-8 7 -12 19t-10 21q-19 33 -50 52q-21 13 -47 21q-17 6 -42.5 6t-44.5 -5l-14.5 -3.5
t-13.5 -4.5q-68 -29 -96 -96q-5 -12 -9 -25t-9 -27q-1 -7 -2 -13t-2 -13q-2 -6 -1.5 -12.5t-1.5 -13.5q-2 -8 -1.5 -16.5t0.5 -16.5q0 -4 -0.5 -8t0.5 -8v-9q2 -5 1.5 -10t1.5 -10q0 -6 2 -16q2 -11 4 -20.5t5 -18.5q14 -42 36 -71.5t58 -48.5q11 -5 23 -8.5l26 -7.5
q5 -1 9.5 -1.5t9.5 -0.5h8q5 -2 13 -1.5t13 1.5q6 0 9 1q12 2 22.5 4t20.5 7q23 10 39.5 26.5t29.5 37.5q6 10 10 22t9 24q3 11 6 20t13 14q6 2 15 2h17h61h18.5t15.5 -4q7 -5 7.5 -16t-2.5 -21l-6 -27l-9.5 -29t-11.5 -27q-5 -8 -8 -15.5t-8 -14.5q-55 -86 -160 -120
q-11 -4 -22 -6l-22 -4q-5 -2 -9.5 -1.5t-9.5 -1.5q-7 0 -13.5 -0.5t-13.5 -1.5h-16h-18t-17 2q-3 1 -10 1l-14 2t-15 2q-10 3 -19.5 5t-19.5 5q-9 3 -18 6.5t-17 7.5q-60 26 -101.5 69.5t-67.5 103.5q-6 15 -10 30t-9 31q-2 5 -2 8.5t-1 7.5q-2 9 -3 19t-3 19q-2 5 -1.5 8.5
t-0.5 7.5v19q-2 5 -2 15t2 15q1 3 0.5 6.5t-0.5 5.5v9q2 8 2.5 17t1.5 18q2 8 3 15.5t3 15.5q4 14 7 27.5t8 25.5l10.5 26t12.5 24q16 28 33 50q5 7 11 13l12 12q25 25 52.5 42.5t62.5 31.5q12 5 25 8.5t27 6.5q6 2 12 2t11 2q8 1 15.5 1.5t15.5 1.5q2 1 5 0t5 0z" />
    <glyph glyph-name="D" unicode="D" horiz-adv-x="741" 
d="M699 380q0 -3 0.5 -8t0.5 -11t-0.5 -11t-0.5 -7q0 -7 -0.5 -13.5t-0.5 -12.5q-2 -5 -1.5 -10t-0.5 -10q-2 -11 -3 -22t-4 -22q-5 -17 -9 -32.5t-10 -30.5q-17 -42 -42 -76t-60 -58q-20 -14 -41.5 -24t-46.5 -18q-10 -3 -20.5 -4.5t-21.5 -4.5q-5 -1 -9.5 -1t-9.5 -1
q-4 -1 -8 -0.5t-9 -0.5q-2 -1 -6 -0.5t-6 -0.5q-8 -2 -20 -1t-21 1h-233q-17 0 -28.5 1.5t-16.5 13.5q-3 8 -2.5 24.5t0.5 27.5v587q0 12 -0.5 25.5t4.5 21.5q4 6 15 10q2 1 4 0.5t4 0.5h269q6 0 12.5 0.5t11.5 -0.5h12q5 -2 11 -1.5t11 -1.5q6 -2 11.5 -1.5t11.5 -1.5
q14 -3 27 -5.5t25 -7.5q11 -5 22 -9t21 -10q25 -16 46 -31l6 -6q10 -8 18 -18l9 -8q5 -8 11.5 -15.5t11.5 -15.5q13 -21 23 -44.5t18 -49.5q5 -13 6.5 -27t4.5 -28q0 -5 0.5 -8.5t0.5 -7.5q2 -6 1.5 -13t1.5 -12v-11zM543 332q2 5 2 16t-2 16v19q-2 9 -2.5 19t-2.5 18
q-2 5 -1.5 9.5t-1.5 9.5l-9.5 30.5t-12.5 27.5q-15 24 -34.5 41.5t-47.5 29.5q-9 3 -18 5.5t-18 4.5q-8 1 -14.5 1.5t-14.5 2.5q-4 1 -8 0.5t-7 0.5h-22q-5 1 -11 0.5t-12 -0.5h-45q-2 -2 -6.5 -1t-7.5 0q-5 -2 -10 -3.5t-8 -6.5q-4 -5 -4 -14v-20q0 -13 -0.5 -27t-0.5 -28
v-279q0 -6 -0.5 -13t1.5 -12v-10q0 -7 0.5 -13.5t2.5 -11.5q6 -12 23 -12.5t35 -0.5q39 0 79 0.5t68 11.5q37 15 58.5 40t36.5 62q4 8 6 18t5 20v8q2 7 2 15t2 16v10z" />
    <glyph glyph-name="E" unicode="E" horiz-adv-x="648" 
d="M96 713h374h87q12 0 23 -1t16 -8q2 -3 2.5 -7t2.5 -8v-11q1 -7 0.5 -15t-0.5 -15q0 -8 0.5 -15.5t-0.5 -14.5q-1 -5 -1 -15q-3 -12 -10 -16q-6 -4 -15 -4h-19h-69h-181q-8 0 -18.5 0.5t-21 0t-19.5 -2t-13 -4.5q-7 -5 -8.5 -14.5t-1.5 -21.5v-57v-29q2 -8 4 -13.5t7 -8.5
q6 -4 14 -4.5t17 -0.5h54h172q7 0 17.5 0.5t20.5 0t18.5 -1.5t12.5 -4q5 -3 7 -12t2.5 -19.5t0 -21.5t-0.5 -19v-14t-2 -12q-2 -8 -8 -13q-5 -3 -13.5 -4t-19 -1t-21 0.5t-17.5 0.5h-195q-12 0 -23 0.5t-20.5 -1t-16 -6t-9.5 -13.5q-1 -5 -1 -10.5v-10.5v-38v-56
q0 -12 1.5 -21.5t8.5 -14.5q3 -3 7.5 -3.5t9.5 -2.5h10q5 -1 11 -0.5t11 0.5h42h188h53h15.5t13.5 -3q8 -3 11 -11q2 -5 2.5 -12t0.5 -15v-46q0 -12 -1 -22.5t-9 -15.5q-6 -5 -15.5 -5h-20.5h-75h-296h-79q-14 0 -24.5 1.5t-15.5 9.5q-4 6 -4 15.5v18.5v72v272v218v62v18
t4 14q4 7 15 10q2 1 4 0.5t4 0.5z" />
    <glyph glyph-name="F" unicode="F" horiz-adv-x="593" 
d="M96 712h350h81q11 0 21 -1t15 -7q4 -5 5.5 -13.5t1.5 -19t-0.5 -21t-0.5 -19.5q0 -7 0.5 -14t-0.5 -13q-2 -5 -3.5 -9.5t-5.5 -7.5q-8 -6 -27.5 -5.5t-33.5 0.5h-193q-16 0 -38.5 0.5t-32.5 -5.5q-6 -4 -10 -15q-2 -7 -1.5 -18t0.5 -19v-48q0 -5 -0.5 -12t0.5 -12v-11
q2 -9 4.5 -15t10.5 -9q5 -2 12 -2.5t15 -0.5h38h139q8 0 18.5 0.5t21 0t19 -1.5t12.5 -4q10 -7 9.5 -26.5t-0.5 -35.5q0 -8 0.5 -17.5t-1.5 -17.5q-4 -11 -11 -15t-27 -3.5t-33 0.5h-164q-19 0 -37 -1t-23 -14q-2 -3 -2 -6.5t-1 -6.5v-10v-15v-27v-141q0 -14 0.5 -34.5
t-4.5 -29.5q-3 -5 -8 -6.5t-10 -3.5q-7 -2 -15 -1t-16 1h-58q-11 0 -20.5 0.5t-15.5 5.5q-7 5 -7.5 15.5t-0.5 21.5v86v366v146q0 14 -0.5 33t4.5 27q4 7 15 10q2 1 4 0.5t4 0.5z" />
    <glyph glyph-name="G" unicode="G" horiz-adv-x="759" 
d="M375 731q101 2 169 -36t106 -98q19 -32 31 -74q2 -7 3 -17.5t-4 -15.5q-5 -7 -14 -8t-20 -1h-65q-11 0 -20.5 0.5t-15.5 5.5q-9 6 -12.5 17t-8.5 21q-9 14 -19 26.5t-24 22.5q-19 13 -46 21q-5 2 -11 2.5t-11 1.5q-3 1 -9 1q-12 2 -30 0.5t-28 -3.5q-7 -2 -13 -3t-12 -4
q-26 -11 -46.5 -26t-35.5 -38q-14 -19 -22 -41t-15 -47q-3 -11 -4 -22t-3 -22v-13q-2 -6 -1.5 -13t0.5 -14q0 -17 1 -34t5 -32q1 -4 1 -7t1 -7q14 -51 38 -86.5t69 -55.5q9 -4 18.5 -7t20.5 -6q6 -1 11.5 -0.5t10.5 -1.5q6 -2 15 -2t16 2q5 1 9 0.5t8 0.5q5 1 8.5 0.5
t7.5 1.5l26 7.5t23 9.5q25 15 40 34.5t26 48.5q4 11 5.5 26t-9.5 21q-6 4 -15.5 4h-18.5h-51q-6 0 -13 -0.5t-13 1.5h-9q-4 1 -8 1.5t-7 2.5q-5 4 -7 12t-2.5 17.5t0 20t0.5 19.5q0 8 0.5 15t2.5 12q4 9 11 12q6 2 10 2h11q3 1 7.5 1h8.5h29h146h38.5t28.5 -9q5 -8 5 -21
v-25v-104v-164q0 -19 -0.5 -36.5t-13.5 -22.5q-6 -3 -14.5 -3h-16.5q-20 0 -34.5 1.5t-20.5 15.5q-4 9 -6 20t-7 19q-2 2 -5 4.5t-8 1.5q-8 -2 -13.5 -8t-11.5 -11q-10 -8 -19 -14.5t-20 -13.5q-13 -8 -27.5 -13l-29.5 -10q-5 -2 -10.5 -2.5t-10.5 -1.5q-8 -2 -17 -2t-18 -2
q-4 -1 -11.5 -0.5t-10.5 1.5h-10q-5 1 -9.5 1t-9.5 1h-8q-8 2 -16 3t-16 3q-7 2 -14 3.5t-14 3.5q-30 9 -53 21q-59 31 -96 73.5t-63 105.5q-6 14 -9 28t-8 28q-1 5 -1 8.5t-2 8.5q-2 7 -2 14.5t-2 15.5q-2 5 -1.5 8.5t-0.5 8.5v18q-2 5 -2 15.5t2 15.5v11q1 6 0.5 12.5
t1.5 11.5q2 9 2 18t2 17q3 11 5 21.5t6 21.5l9.5 27.5t10.5 26.5q6 14 14 27.5t16 25.5q30 42 68 71.5t92 49.5q11 5 24 7.5t26 5.5q5 2 10.5 2t10.5 2q7 2 13.5 1t13.5 1q2 1 5.5 0t5.5 0z" />
    <glyph glyph-name="H" unicode="H" horiz-adv-x="741" 
d="M97 713h80q17 0 29.5 -1.5t17.5 -15.5q2 -5 2 -10.5v-10.5v-35v-121q0 -17 -1 -38.5t7 -32.5q5 -6 11.5 -6.5t14.5 -2.5h192q18 0 37 0.5t26 12.5q5 9 4 27t-1 32v130q0 15 -0.5 35t6.5 28q3 5 12.5 7t21.5 2.5t24 0t21 -0.5q17 0 35.5 0.5t27.5 -7.5q7 -5 7 -16.5v-22.5
v-98v-409v-109v-25t-7 -18q-9 -8 -28.5 -7.5t-36.5 0.5q-9 0 -20.5 -0.5t-23 0t-21 2t-12.5 6.5q-3 4 -4.5 13.5t-2 20t0 21t0.5 18.5v145v29q0 4 0.5 8t-0.5 8v10q-1 3 -1 6t-1 6q-7 14 -26 14h-39h-197q-8 -2 -13 -3.5t-9 -7.5q-2 -5 -4 -15v-10q-1 -5 -0.5 -11.5
t0.5 -11.5v-44v-138v-32t-6 -26q-3 -5 -12.5 -6.5t-21 -2t-23.5 0t-21 0.5q-14 0 -34 -0.5t-28 5.5t-9 19t-1 27v115v400v93v23t4 19t14 10q2 0 4.5 0.5t4.5 0.5z" />
    <glyph glyph-name="I" unicode="I" horiz-adv-x="295" 
d="M95 712h86q11 0 21 -0.5t15 -7.5t5.5 -18t0.5 -24v-87v-347v-164q0 -13 0.5 -29t-4.5 -24q-4 -7 -18 -11q-7 -2 -15 -1t-16 1h-59q-11 0 -20.5 1t-15.5 6q-5 5 -6 15t-1 21v87v365v146q0 14 -0.5 33t4.5 27q4 6 13 10q3 0 5.5 0.5t4.5 0.5z" />
    <glyph glyph-name="J" unicode="J" 
d="M358 713h85q11 0 21 -1t15 -6q4 -5 5.5 -14.5t2 -20.5t0 -22t-0.5 -20v-201v-170q0 -23 0.5 -47.5t-4.5 -44.5q-2 -5 -1.5 -9.5t-1.5 -9.5q-3 -9 -5 -18.5t-6 -18.5q-22 -55 -63 -84q-14 -10 -30.5 -17t-34.5 -13q-8 -2 -15.5 -3.5t-15.5 -3.5t-17.5 -2t-18.5 -2h-11
q-6 -2 -16.5 -1.5t-16.5 2.5q-11 0 -16 1q-10 2 -19.5 3t-17.5 3q-11 4 -22 7t-21 8q-32 14 -58 38.5t-40 56.5q-4 10 -7 20l-6 21q-2 8 -2 12q-2 5 -1.5 9t-1.5 9q-1 2 -1 5.5v5.5v10q-1 5 -1 10.5v10.5q0 14 1 26.5t9 17.5t21.5 5h25.5q9 0 21 0.5t23.5 0t21 -2.5t12.5 -7
q7 -10 5.5 -26t1.5 -30q2 -6 2.5 -11.5t2.5 -11.5q4 -14 10 -25.5t17 -19.5q12 -9 33 -15t43 -1q5 2 9 2t8 2q30 12 40 41q4 9 5 18.5t3 20.5v11.5t1 11.5q1 5 0.5 11.5t-0.5 12.5v48v268v96q0 11 -0.5 23t4.5 20q4 6 15 10q6 0 8 1z" />
    <glyph glyph-name="K" unicode="K" horiz-adv-x="722" 
d="M97 713h77q19 0 32 -1.5t18 -17.5q1 -5 1 -10.5v-11.5v-40v-130v-22v-18t3 -16q1 -2 3.5 -4t4.5 -2q7 -2 13.5 4t9.5 9l16 16t15 17q3 2 8 7q4 4 8 8.5t7 9.5q2 2 4 3t4 3q5 8 12 13.5t12 12.5q6 8 11 13q2 1 5 4q12 16 27 29t27 29l5 5l6 6t6 7q1 2 2 2.5t3 2.5
q6 4 9 11q2 2 5 4t5 4q3 5 7 9t8 9q2 2 3.5 3t3.5 3q7 10 16 17.5t23 10.5q8 2 18.5 1.5t19.5 -0.5h77q11 0 23.5 0.5t19.5 -4.5q6 -5 3 -11.5l-5 -10.5q-5 -5 -10 -9.5t-10 -9.5l-13.5 -15t-14.5 -14l-70 -71l-70 -71q-16 -18 -34 -34l-13 -13.5t-8 -17.5q-2 -8 3 -15.5
t8 -12.5l20.5 -29.5l20.5 -29.5l84 -118.5l84 -118.5l36 -51q4 -6 8.5 -11.5t8.5 -11.5q3 -5 7 -14t-3 -14t-20 -5h-24h-79q-11 0 -22 -0.5t-20 1.5q-11 4 -17.5 11.5t-12.5 16.5q-6 8 -11.5 16.5l-11.5 17.5l-55 82l-56 82l-21.5 33l-21.5 32q-4 5 -10 11.5t-16 4.5
q-10 -3 -20 -13.5l-17 -17.5l-10 -10.5l-10 -10.5l-13 -13.5t-10 -15.5q-3 -6 -3.5 -13t-0.5 -15v-13q-1 -5 -0.5 -11.5t0.5 -11.5v-47v-71q0 -11 -0.5 -21t-5.5 -16t-15 -7t-21 -1h-68q-11 0 -21 0.5t-17 5.5t-7 18.5v26.5v116v399v93q0 11 -0.5 23t3.5 19q6 7 16 10
q2 1 4 0.5t4 0.5z" />
    <glyph glyph-name="L" unicode="L" horiz-adv-x="593" 
d="M97 713h85q11 0 21.5 -0.5t15.5 -7.5t5 -18.5v-24.5v-91v-303v-59q0 -8 -0.5 -15.5t1.5 -14.5v-10q0 -7 0.5 -13.5t2.5 -11.5q7 -13 28 -13h41h194q8 0 20 0.5t23 0t20.5 -2.5t12.5 -6q5 -6 5 -15v-19v-46q0 -8 0.5 -15t-1.5 -12q-4 -8 -10 -11q-5 -4 -15 -4h-19h-71
h-271h-72q-14 0 -24.5 1.5t-15.5 9.5q-4 6 -4 15.5v18.5v70v265v226v63q0 9 0.5 18t3.5 14q4 7 16 10q2 1 4 0.5t4 0.5z" />
    <glyph glyph-name="M" unicode="M" horiz-adv-x="907" 
d="M98 713h131h32.5t25.5 -7q7 -5 10 -14.5l6 -18.5q6 -16 11.5 -32.5l11.5 -33.5q23 -63 43.5 -128t44.5 -129q8 -20 14 -41t14 -41l4 -10t7 -8l4 -2t4 1q8 2 11 12t6 18q8 23 14.5 45.5t14.5 45.5l40 122.5l40 123.5l10 31.5l10 31.5l6 16t11 13q6 5 15.5 5h19.5h65h69
h18.5t14.5 -4q11 -6 11 -22.5v-33.5v-150v-372v-87q0 -11 -0.5 -21.5t-6.5 -15.5t-15 -5.5t-20 -0.5h-48h-27q-8 2 -13.5 3t-9.5 7q-4 5 -4 13v17v51v257q-1 14 -1 26.5v25.5q0 8 0.5 16.5t-1.5 16.5q-2 7 -2 15t-6 10q-3 1 -4.5 -1t-2.5 -3q-4 -4 -6.5 -9.5t-4.5 -10.5
q-6 -15 -11.5 -31l-11.5 -32q-2 -6 -3.5 -12t-4.5 -12q-5 -13 -9 -26t-9 -26q-2 -3 -2 -6.5t-2 -6.5q-4 -9 -6.5 -19t-7.5 -20q-4 -9 -6.5 -19t-6.5 -20q-12 -29 -21 -58.5t-20 -58.5q-2 -3 -2 -6t-2 -6q-5 -11 -8 -22.5t-8 -22.5l-5.5 -13t-7.5 -10t-10 -4.5t-12 -2.5h-23
q-7 0 -16.5 -0.5t-19 -0.5t-17.5 1t-12 4q-8 5 -11 11.5l-7 15.5q-5 12 -8.5 24.5t-8.5 24.5l-3 9q-5 12 -9 25.5t-9 25.5q-1 3 -1.5 5.5t-1.5 5.5q-5 9 -8 19t-7 20q-1 2 -1.5 5t-1.5 5q-4 10 -6.5 20t-7.5 20q-8 20 -15 42t-15 43q-9 25 -17 51t-19 50q-5 14 -11 23
q-2 2 -4 3.5t-5 -0.5q-5 -3 -5 -10t-2 -14t-1.5 -14.5t0.5 -15.5v-22t-1 -22v-266v-49v-16t-4 -13q-4 -7 -15 -9q-7 -2 -15 -1.5t-16 0.5h-52q-11 0 -20 0.5t-15 5.5t-7 15.5t-1 21.5v88v372v140v14.5v16.5t1 15.5t3 11.5q4 7 16 10q2 1 4 0.5t4 0.5z" />
    <glyph glyph-name="N" unicode="N" horiz-adv-x="741" 
d="M97 713h81q11 0 21.5 0.5t18.5 -3.5q10 -4 15.5 -12l10.5 -16l36 -57l70.5 -113.5l70.5 -113.5l33.5 -54.5t34.5 -53.5q4 -6 7.5 -12t9.5 -11q2 -2 5 -4t6 0q7 2 7 9t2 15q1 7 0.5 15.5t-0.5 16.5v63v232v38q0 5 -0.5 10t0.5 9v11q0 14 6 22q5 7 13.5 8t19.5 1h61h16
t14 -2q13 -5 14 -17.5t1 -29.5v-110v-419v-84q0 -11 0.5 -22t-3.5 -17t-9.5 -7.5t-13.5 -3.5h-35h-55h-17.5t-14.5 3q-11 5 -17 13.5t-12 18.5l-17.5 28.5l-17.5 28.5l-150 240l-27.5 44.5l-27.5 44.5q-5 7 -11.5 17.5t-17.5 10.5q-8 -7 -8.5 -16t-0.5 -23v-70v-239v-39
q0 -5 0.5 -10t-1.5 -10v-11q0 -16 -5 -23q-5 -6 -13.5 -7t-19.5 -1h-61h-16t-14 2q-13 5 -14.5 18t-1.5 30v115v401v93v23t4 19t14 10q2 0 4.5 0.5t4.5 0.5z" />
    <glyph glyph-name="O" unicode="O" horiz-adv-x="778" 
d="M738 381q2 -6 2.5 -20.5t-1.5 -20.5v-13q-2 -10 -2 -21t-2 -22q-2 -7 -3 -14t-3 -14l-9.5 -35t-11.5 -33q-30 -70 -81 -116.5t-126 -71.5q-11 -4 -22 -6l-22 -4q-5 -2 -10.5 -2t-10.5 -1l-33 -3q-4 -1 -14 -0.5t-13 1.5q-5 1 -9.5 0.5t-9.5 0.5h-11q-8 2 -15 2.5t-15 2.5
t-16 3.5t-16 3.5l-22.5 8t-22.5 9q-60 26 -101.5 69.5t-67.5 103.5q-6 14 -10 29.5t-9 31.5q-2 5 -2 8.5t-1 7.5q-2 7 -3 14.5t-3 15.5q-1 5 -0.5 9.5t-1.5 8.5q-1 6 0 12.5t0 12.5q-2 5 -2 15.5t2 15.5q1 5 0 9.5t0 9.5v6q2 7 1.5 13.5t1.5 12.5q2 5 2 10.5t2 10.5
q5 17 8 33.5t9 32.5q8 17 15 34t17 32q30 48 69 80t95 55q13 5 27.5 8t28.5 7q5 2 9.5 2t9.5 1l30 3q2 1 5.5 0t5.5 0q71 2 123 -14.5t93 -45.5q13 -9 27 -20.5t23 -23.5l10 -10.5t9 -10.5l22 -32.5t19 -35.5q6 -14 10.5 -27l9.5 -28q3 -10 5 -20.5t5 -21.5q2 -7 2 -13.5
t2 -12.5t1.5 -12.5t0.5 -11.5v-8zM583 339q2 5 2 14.5t-2 14.5v17q-1 4 -0.5 7.5t-1.5 7.5q-2 8 -2.5 15.5t-2.5 14.5q0 5 -2 11l-6 22t-8 22q-22 51 -63.5 82.5t-115.5 31.5q-2 -1 -4.5 -0.5t-4.5 -0.5q-4 -1 -8 -0.5t-9 -1.5q-11 -2 -21.5 -4.5t-19.5 -6.5
q-42 -18 -66.5 -50t-39.5 -77q-3 -11 -4.5 -21.5t-4.5 -21.5q-1 -4 -1 -7.5t-1 -7.5q-2 -5 -1 -11t0 -11q-2 -5 -2.5 -18.5t1.5 -18.5v-11q1 -4 1 -8.5t1 -8.5q0 -4 0.5 -7.5t0.5 -7.5q3 -11 4.5 -22t5.5 -21q11 -32 27 -59.5t40 -44.5q5 -5 10.5 -8l11.5 -6q11 -7 23.5 -11
t26.5 -8q5 -2 9.5 -1.5t9.5 -0.5q6 -2 12 -2h13h8q5 1 9 0.5t9 1.5q10 2 20 3.5t19 5.5q43 17 67.5 44t41.5 70q5 11 7.5 24t6.5 26l3 24q1 4 1 8.5v9.5v8z" />
    <glyph glyph-name="P" unicode="P" horiz-adv-x="667" 
d="M594 624q23 -32 33.5 -71t7.5 -94q-2 -22 -7 -40.5t-12 -34.5q-2 -4 -3.5 -7.5t-3.5 -7.5l-7.5 -13.5t-8.5 -12.5q-20 -28 -48.5 -45.5t-64.5 -29.5q-11 -4 -23 -5t-24 -4q-6 -1 -12 -1t-12 -1h-41h-84h-27.5t-22.5 -6q-10 -7 -10 -24.5v-34.5v-132q0 -12 0.5 -26
t-4.5 -22q-4 -7 -18 -11q-7 -2 -15 -1t-16 1h-58q-11 0 -20.5 0.5t-15.5 5.5t-7 15.5t-1 21.5v598q0 14 -0.5 33t4.5 27q4 6 15 10q2 1 4.5 0.5t4.5 0.5h289q9 0 18 0.5t17 -1.5h5q5 -2 11 -2t11 -2q5 -1 9 -1t9 -2q16 -5 32 -9.5t30 -12.5q5 -4 11 -7t12 -8q5 -3 8.5 -6.5
t8.5 -7.5l6 -6q12 -12 20 -24zM484 460q2 11 1.5 27.5t-3.5 27.5q-6 22 -15 35t-27 24q-15 9 -37 13.5t-47.5 5.5t-52.5 0.5t-51 -0.5q-3 -1 -5.5 -1.5t-5.5 -0.5q-10 -4 -13 -12q-4 -8 -4 -21.5v-24.5v-95v-26.5t5 -22.5q4 -6 12 -9t18 -3.5t21.5 0t21.5 0.5q53 0 97 5
t67 35q6 9 10 19.5t8 23.5z" />
    <glyph glyph-name="Q" unicode="Q" horiz-adv-x="778" 
d="M738 382q2 -6 2.5 -20.5t-1.5 -20.5v-10.5t-1 -10.5q-2 -11 -2 -21.5t-3 -21.5q-2 -8 -3.5 -17t-3.5 -17l-13 -38t-15 -35q-2 -3 -3 -6.5t-3 -6.5q-5 -8 -9.5 -16t-9.5 -16l-9.5 -11.5t-6.5 -13.5q-3 -9 1 -14.5t7 -10.5q8 -10 20 -18q1 -2 4 -5q12 -9 23 -20l10 -12
t2 -18q-5 -10 -13.5 -18l-16.5 -16l-11 -11.5t-14 -9.5q-11 -5 -19.5 2l-13.5 11q-11 9 -21.5 19.5t-22.5 19.5q-7 5 -13 11.5t-17 8.5q-8 2 -14 -0.5t-10 -4.5q-11 -5 -22 -8.5t-22 -7.5q-13 -4 -27.5 -5.5t-28.5 -4.5q-6 -1 -12 -1t-13 -1q-5 -1 -17.5 -1.5t-17.5 1.5h-12
q-9 2 -19 2t-19 2q-7 2 -14 2.5t-14 2.5l-33 9.5t-31 11.5q-53 23 -95 66t-65 95q-6 14 -11 28l-10 29q-3 11 -5.5 22.5t-4.5 22.5q-2 6 -2 12.5t-2 12.5q-1 6 -0.5 12t-0.5 12v11q-2 5 -2 15.5t2 15.5q0 3 -0.5 6t0.5 5q0 5 0.5 10t0.5 10l2 16.5l2 16.5q4 14 6 28t7 27
q28 82 76 135t126 85q13 5 27.5 8t28.5 7q5 2 9.5 2t9.5 1l30 3q2 1 5.5 0t5.5 0q64 2 113.5 -11.5t87.5 -38.5q16 -9 34 -24q4 -2 7 -6t7 -6q7 -6 13.5 -12.5t11.5 -14.5q2 -3 5.5 -6t5.5 -6l22 -33t19 -35q6 -14 10.5 -27l9.5 -28q3 -10 5 -20.5t5 -21.5q2 -7 2 -13.5
t2 -12.5t1.5 -12.5t0.5 -11.5v-8zM583 338q2 5 2 15.5t-2 15.5v17q-1 4 -0.5 7.5t-1.5 7.5q-2 7 -2 14t-2 14q-4 14 -6.5 26t-7.5 23q-11 27 -26.5 49.5t-37.5 38.5t-51 25t-67 9q-6 -1 -11.5 -1t-10.5 -1q-11 -3 -22 -5t-21 -6q-42 -18 -67.5 -50.5t-40.5 -77.5
q-3 -11 -4.5 -21.5t-4.5 -21.5q-1 -4 -1 -7.5t-1 -7.5q-2 -5 -1 -11t-1 -11v-11q-1 -5 -1 -13t1 -13v-11q2 -7 1.5 -14.5t1.5 -14.5q1 -3 1 -6t1 -6l4 -18l4 -18q14 -42 37.5 -73.5t61.5 -48.5l15 -6q7 -3 13.5 -4.5l14.5 -3.5q5 -1 11 -1.5t11 -0.5h7q5 -2 11.5 -1.5
t11.5 0.5h9q5 1 9 1t8 2q17 9 5 24q-6 9 -14.5 15.5t-15.5 15.5q-2 3 -5 7t-1 11q2 10 9 15.5t12 13.5q2 3 4.5 5.5t4.5 5.5q2 1 5 4q2 3 5 6.5t7 5.5q5 5 12.5 6.5t15.5 -3.5q11 -7 19 -16t19 -17l6 -6q4 -3 10.5 -7t14.5 -2q5 2 11 10l4.5 6.5t4.5 7.5q5 12 8.5 25l7.5 27
l2 12l2 12q1 7 1.5 13.5t0.5 13.5v9z" />
    <glyph glyph-name="R" unicode="R" horiz-adv-x="722" 
d="M670 23q2 -6 -0.5 -11t-5.5 -7q-6 -5 -16.5 -4.5t-21.5 0.5h-55q-16 0 -28 1.5t-18 11.5q-8 13 -9 32t-5 36q0 4 -0.5 7.5t-0.5 6.5q-3 12 -3 25.5t-2 24.5q-1 3 -1 9q-2 11 -3.5 22.5t-4.5 22.5q-8 23 -19 41t-31 27q-5 2 -10 3t-11 3q-18 6 -41.5 6h-46.5h-82
q-8 -2 -14 -3t-10 -6q-8 -10 -7 -31t1 -38v-128q0 -8 -0.5 -16.5t-0.5 -16.5v-14.5t-2 -11.5q-3 -9 -12 -12q-5 -2 -12 -2h-15h-45q-16 0 -34 -0.5t-27 6.5q-8 5 -8 18.5v26.5v608q0 11 -0.5 23t4.5 19q4 6 15 10q2 1 4.5 0.5t4.5 0.5h340q16 0 30.5 -0.5t27.5 -3.5
q5 -2 10.5 -2t10.5 -2l14 -4t14 -5q25 -11 46 -27t35 -37q4 -5 6.5 -10.5t6.5 -10.5q8 -14 12 -29l9 -33q1 -4 0.5 -8t1.5 -8v-9q2 -8 1 -19.5t-3 -18.5q-2 -8 -2 -14.5t-2 -13.5q-5 -15 -10 -28.5t-13 -25.5q-2 -3 -5 -6.5t-5 -6.5q-3 -4 -6.5 -8t-7.5 -7l-12 -10t-13 -10
q-4 -3 -8 -6.5t-6 -8.5q-2 -6 2 -10t7 -6l20 -16t17 -19q12 -17 19 -35t13 -41q2 -9 2.5 -19t2.5 -19q0 -6 0.5 -11.5t0.5 -11.5q1 -4 0.5 -8.5t0.5 -9.5q1 -4 0.5 -8t0.5 -9q2 -10 2 -21t2 -21l3 -18l4 -18t4 -17zM505 474q2 11 0.5 27t-3.5 24q-2 4 -2 7t-2 6
q-12 31 -44 45q-17 8 -39 9t-46 1h-116q-2 -2 -4 -1.5t-4 0.5q-12 -3 -16 -10q-5 -8 -4.5 -20.5t0.5 -24.5v-93v-24t5 -19q4 -6 13 -8t20 -3t23 -0.5t21 0.5h59q7 0 15 -0.5t14 1.5h13q8 2 15.5 2t14.5 2q17 5 30 13t22 21q6 9 9 20t6 25z" />
    <glyph glyph-name="S" unicode="S" horiz-adv-x="649" 
d="M304 728q194 3 267 -115q10 -16 15.5 -33t10.5 -37q2 -8 1.5 -18.5t-4.5 -15.5q-5 -6 -14 -7.5t-20 -1.5h-63h-18t-15 2q-12 5 -15 16t-8 22q-4 10 -11 21t-15 17q-14 10 -27 17q-12 5 -29.5 8.5t-36 4.5t-36.5 -1t-32 -8q-23 -10 -35.5 -23.5t-17.5 -40.5
q-2 -7 -1 -15.5t3 -13.5q8 -21 22.5 -29.5t34.5 -16.5q11 -5 22.5 -7.5t23.5 -6.5q27 -9 55.5 -15.5t56.5 -14.5q5 -2 10 -2t10 -2q20 -7 41.5 -13t38.5 -17q27 -17 46.5 -34t36.5 -44q5 -8 8.5 -18t7.5 -20q1 -3 1 -5.5t1 -4.5q4 -16 4 -40q2 -5 0 -10v-18q-2 -11 -3.5 -21
t-4.5 -20q-6 -18 -13 -33t-17 -29q-4 -5 -8 -8.5t-7 -8.5q-5 -6 -11 -11.5t-13 -10.5l-10.5 -8l-11.5 -8q-17 -11 -35.5 -18l-38.5 -14q-14 -5 -29 -6.5t-30 -4.5q-7 -2 -13.5 -1.5t-12.5 -1.5h-8q-2 0 -5.5 0.5t-5.5 -0.5q-5 -1 -17 -1t-17 1h-10q-7 2 -14.5 1.5t-13.5 1.5
q-5 0 -9 0.5t-9 1.5q-12 3 -25 5t-24 6q-49 16 -86 40.5t-62 64.5q-16 24 -25 57q-2 6 -2.5 12t-2.5 13q-2 8 -3 19.5t4 17.5q5 8 14.5 9.5t21.5 1.5h63h17t16 -3q11 -5 13 -16.5t7 -23.5q4 -12 10 -22t13 -19q5 -6 11 -11t12 -9q22 -14 54 -23q7 -2 13.5 -2t14.5 -2h5
q8 -2 22 -2t22 2q3 1 10 1q5 1 10.5 1.5t10.5 2.5q34 9 54 24t28 50q2 7 0.5 16t-3.5 14q-10 27 -34 42q-3 2 -11 6q-15 9 -33.5 14.5t-36.5 11.5q-7 2 -13.5 3.5l-14.5 3.5q-16 5 -32.5 8.5t-31.5 8.5q-5 2 -8 2t-7 2q-8 2 -14.5 4t-14.5 4q-23 8 -44 16.5t-39 19.5
q-23 15 -42 35t-30 46q-4 9 -6 18.5t-5 20.5q-2 9 -3 26t1 28q1 4 1 12q3 11 5 21t6 20q15 35 38.5 59.5t54.5 44.5q20 12 43 19t49 13q10 2 19.5 2.5t19.5 2.5q3 1 9.5 0t8.5 1z" />
    <glyph glyph-name="T" unicode="T" horiz-adv-x="611" 
d="M41 713h400h102q13 0 25.5 -0.5t20.5 -5.5q3 -2 4.5 -6.5t2.5 -9.5v-5q1 -4 1 -9v-10v-39q0 -7 0.5 -13.5t-1.5 -12.5q-5 -17 -20 -18t-36 -1h-102q-20 0 -34.5 -1.5t-19.5 -18.5q-1 -5 0 -9t-1 -9q-1 -6 -0.5 -13.5t0.5 -13.5v-89v-288v-94q0 -16 -1.5 -27.5
t-12.5 -16.5q-7 -2 -16 -2h-17h-68q-11 0 -20.5 1t-14.5 7q-5 8 -5 20.5v25.5v100v278v85q0 7 0.5 14.5t-1.5 13.5q-1 5 0 9t-1 8q-5 17 -20.5 18.5t-36.5 1.5h-93q-11 0 -24.5 -0.5t-21.5 1.5q-8 3 -12 9q-3 5 -3.5 13t-0.5 16v49q0 13 1.5 23t9.5 15q3 2 11 4h5z" />
    <glyph glyph-name="U" unicode="U" horiz-adv-x="741" 
d="M93 714h85q11 0 21.5 -1t15.5 -7q5 -8 5.5 -20.5t0.5 -25.5v-101v-206v-35q0 -4 -0.5 -8.5t0.5 -8.5v-16q0 -9 -0.5 -19t1.5 -18q0 -7 1 -11q2 -11 3.5 -22t5.5 -22q11 -26 28.5 -43t46.5 -27q8 -2 16 -3t16 -3q5 -2 9 -1.5t9 -0.5q4 -1 13 -0.5t12 1.5h15q8 2 16 3t15 3
q14 3 22 7q18 8 31.5 21.5t21.5 30.5q11 26 13 61.5t2 73.5v199v134q0 14 -0.5 31t5.5 25q5 6 14 7.5t20 1.5h64q8 0 15.5 0.5t14.5 -1.5q14 -3 18 -10q5 -8 4.5 -22.5t-0.5 -26.5v-134v-202q0 -38 -1 -74t-9 -65q-14 -47 -35.5 -81.5t-56.5 -58.5q-31 -22 -73 -36
q-9 -3 -18.5 -5l-18.5 -4q-6 -2 -11.5 -2t-11.5 -2q-12 -2 -27 -3t-29 -1q-95 -1 -162 23.5t-105 79.5q-13 18 -21.5 37.5t-15.5 42.5q-2 5 -2 8.5t-2 8.5q-8 28 -8 63v70v279v70v19.5t3 15.5q6 7 16 10h4t4 1z" />
    <glyph glyph-name="V" unicode="V" horiz-adv-x="630" 
d="M26 713h81h22.5t18.5 -5q9 -5 12 -16t7 -22q7 -19 12.5 -38t12.5 -39l39.5 -124l39.5 -124l10.5 -34l10.5 -34l6 -18t8 -16q1 -2 2.5 -2.5t3.5 -2.5q11 0 14.5 9.5l6.5 17.5q8 21 14 43t14 45l42.5 131.5l42.5 131.5l10 31.5l10 31.5q4 8 6.5 16t10.5 13q7 5 16.5 5h19.5
h67h20t16 -4q10 -5 7 -18.5t-6 -22.5q-9 -23 -16.5 -47.5l-15.5 -48.5q-3 -6 -4.5 -12t-3.5 -12q-8 -21 -14.5 -43t-14.5 -44l-54 -162.5l-54 -162.5q-9 -23 -16 -46.5t-15 -46.5q-5 -14 -10 -25.5t-20 -15.5q-8 -2 -18 -1.5t-19 0.5h-72q-11 0 -23.5 -0.5t-20.5 4.5
q-11 6 -14.5 18.5t-7.5 24.5q-7 21 -13.5 42.5t-13.5 42.5q-22 63 -42 127l-42 128l-17.5 57.5t-18.5 56.5q-4 9 -6 18t-6 18l-17.5 55.5t-18.5 55.5q-2 9 -5 17.5l-6 17.5q-1 5 -1.5 10t1.5 9q3 7 13 9q2 1 4.5 0.5t4.5 0.5z" />
    <glyph glyph-name="W" unicode="W" horiz-adv-x="944" 
d="M33 713h79h22t17 -5q8 -6 10.5 -16.5t5.5 -21.5q4 -14 7 -28.5t7 -28.5q2 -5 2 -8.5t1 -8.5q4 -14 6.5 -28t6.5 -28q4 -11 6 -23t5 -24q10 -33 16.5 -67t15.5 -67q5 -15 7.5 -30t6.5 -30q4 -12 6 -20.5t10 -16.5q2 0 2.5 -0.5t2.5 0.5q6 2 9 11l5 15q4 13 6.5 26.5
t7.5 26.5q1 5 2 9.5t2 9.5q5 13 7.5 26.5t6.5 26.5l2 8t2 9q3 9 5 18.5t5 18.5q2 8 2 12l4 14l4 14q9 28 15 56.5t14 56.5q5 14 7.5 28t6.5 28q4 11 7 20.5t14 14.5q7 2 16 2h18h59q11 0 20.5 -0.5t16.5 -5.5t9 -14.5t5 -19.5q5 -18 9 -36.5t9 -36.5q4 -13 6.5 -26t6.5 -26
q3 -11 5 -21.5t6 -21.5q11 -37 19 -75.5t19 -75.5q5 -15 7.5 -31t7.5 -30q3 -10 5 -18.5t7 -15.5q1 -1 5 -3h4q1 1 2 1.5t2 1.5q6 8 8 17.5t5 19.5q5 16 7.5 32t7.5 32q13 44 21.5 88t21.5 88q5 16 7.5 32t7.5 32q2 5 2 8.5t1 8.5q4 14 7 28t7 28l4.5 18t8.5 15q7 5 17 6
t23 1h57h19.5t16.5 -3q10 -5 9 -17t-4 -22q-8 -23 -13.5 -48.5t-13.5 -49.5q-2 -6 -3 -11.5t-3 -11.5q-5 -17 -9.5 -35.5t-9.5 -35.5q-2 -5 -2.5 -10t-2.5 -10q-5 -13 -7.5 -26t-7.5 -26q-2 -5 -2 -9t-2 -9q-5 -14 -7.5 -28.5t-7.5 -28.5q-3 -10 -5.5 -19.5t-5.5 -19.5
q-12 -38 -20.5 -77t-21.5 -76q-2 -7 -3 -13t-3 -13q-5 -17 -9.5 -35.5t-10.5 -35.5q-4 -13 -7 -24t-15 -16q-7 -2 -17 -2h-19h-65q-11 0 -21 0.5t-17 5.5q-6 5 -8 12.5t-5 15.5q-6 20 -10 39.5t-9 39.5q-4 12 -6.5 24.5t-6.5 25.5q-3 9 -4.5 18.5t-4.5 18.5q-8 24 -13 49.5
t-12 50.5q-5 14 -7.5 27t-6.5 27q-5 17 -8 33t-8 32q-3 8 -4.5 15t-5.5 13q-2 2 -6 4q-3 1 -4 0q-7 -2 -10 -12l-5 -17q-7 -21 -11 -43.5t-10 -44.5q-13 -45 -22.5 -90t-22.5 -90q-5 -16 -7.5 -31.5t-7.5 -31.5q-5 -14 -7.5 -28t-6.5 -28l-5.5 -18t-10.5 -13q-7 -4 -17 -4
h-21h-87q-7 2 -12 2.5t-10 4.5q-8 5 -10 16.5t-5 22.5q-5 16 -9.5 33t-9.5 34q-2 6 -2.5 11.5t-2.5 12.5q-6 17 -10 34t-9 34q-2 4 -2 7.5t-1 7.5q-5 14 -8.5 29.5t-8.5 30.5q-1 3 -1 6t-2 7q-5 14 -7.5 28.5t-7.5 29.5q-3 10 -5.5 20.5t-5.5 20.5t-5 20t-6 20
q-9 29 -15.5 59t-15.5 59q-2 6 -3 12t-3 12q-7 21 -12 43t-12 44q-2 7 -5.5 21t1.5 21q5 6 14 8q2 1 4 0.5t4 0.5z" />
    <glyph glyph-name="X" unicode="X" horiz-adv-x="667" 
d="M53 713h95q15 0 28.5 -0.5t21.5 -7.5q4 -2 6.5 -6t5.5 -8q5 -8 9.5 -16t9.5 -16l32.5 -51.5l32.5 -51.5l11.5 -19.5t11.5 -18.5q4 -5 7.5 -10t10.5 -7q6 -1 10 2.5t6 5.5q9 9 15 20.5t14 22.5l35.5 56l35.5 56q8 12 17 27t24 20q8 2 18 2h20h72q11 0 22 -1t13 -9
q3 -7 -1.5 -13t-6.5 -10l-18 -27.5l-18 -27.5l-62.5 -93l-62.5 -93l-15 -23.5l-15 -23.5q-2 -4 -5.5 -10t-1.5 -14q2 -9 6.5 -15.5l9.5 -13.5q17 -27 38 -56l58.5 -89.5l59.5 -89.5l22 -33l22 -33q2 -4 7.5 -12t3.5 -15q-3 -9 -15 -9.5t-24 -0.5h-80q-10 0 -21 -0.5t-19 1.5
q-17 5 -26 20.5t-18 29.5l-39.5 62l-39.5 62q-5 7 -8.5 13.5t-8.5 13.5l-6 10t-7 10l-7 7t-11 2t-10.5 -7t-7.5 -10l-11.5 -18l-11.5 -18l-42 -63.5l-41 -63.5l-17.5 -29t-26.5 -21q-8 -2 -18 -1.5t-19 0.5h-66q-10 0 -21 -0.5t-18 3.5q-2 2 -3 3.5t-3 3.5q-1 11 4.5 18.5
t10.5 15.5l21 31l21 31l58 87.5l58 88.5q8 13 17 25.5t17 25.5q5 8 11 16t8 19q2 8 -1 14.5t-6 10.5l-14 23t-15 22q-5 8 -10 15t-10 15l-41.5 61.5l-42.5 61.5l-9.5 15l-9.5 15q-7 9 -12.5 18t-11.5 17q-5 6 -9 12l-8 12q-2 5 -5.5 12t0.5 13q3 4 12 6q2 1 4 0.5t4 0.5z
" />
    <glyph glyph-name="Y" unicode="Y" horiz-adv-x="667" 
d="M29 714h88h25t21 -4q11 -5 18.5 -19t14.5 -24q17 -27 32 -54t32 -54q13 -20 24 -40.5t24 -40.5q5 -8 10 -17.5t16 -11.5q7 -1 12 5t8 10q9 14 16.5 28t16.5 28l41 68.5l41 69.5q8 13 17 30t23 23q9 5 28.5 4t33.5 -1h56q8 0 16.5 -0.5t13.5 -3.5q8 -5 4 -15.5t-7 -15.5
l-23.5 -39.5l-23.5 -39.5l-65.5 -108l-64.5 -108q-11 -16 -20.5 -32.5l-19.5 -33.5q-8 -11 -14.5 -22t-10.5 -25q-1 -5 -0.5 -9.5t-0.5 -9.5q-1 -3 -1 -7v-8v-31v-130q0 -19 0.5 -41t-11.5 -29q-6 -4 -15.5 -4h-18.5h-70q-11 0 -20 1t-14 7t-5 14t-1 19v39v130v38v12.5
t-2 11.5q-4 15 -11 27t-15 23l-18 31.5l-19 31.5q-8 11 -14 23.5t-14 23.5l-50 82l-49 82l-23 38.5l-22 38.5q-3 4 -8.5 13.5t-1.5 16.5q2 4 5.5 5.5t7.5 2.5q2 1 4 0.5t4 0.5z" />
    <glyph glyph-name="Z" unicode="Z" horiz-adv-x="648" 
d="M81 713h401h87q15 0 26.5 -1.5t15.5 -12.5q3 -7 3 -21v-24q0 -7 1 -14.5t-1 -12.5v-12q0 -13 -3 -23q-4 -10 -10.5 -17t-12.5 -15q-8 -11 -17 -21t-17 -21q-2 -2 -4.5 -5t-4.5 -5q-7 -9 -14 -17t-14 -17q-2 -2 -3.5 -4t-3.5 -4q-7 -9 -14.5 -17.5t-14.5 -17.5
q-23 -29 -47.5 -57t-47.5 -57q-2 -3 -5 -6l-5 -5l-22 -27l-22 -27q-3 -4 -6.5 -7t-5.5 -7q-11 -14 -23.5 -28t-23.5 -28q-6 -8 -13.5 -15t-9.5 -18q-2 -8 2 -11t9 -5q3 0 9 -2h13q3 -1 7.5 -0.5t8.5 0.5h33h204h48q10 0 18 -0.5t13 -4.5q6 -5 7.5 -14t1.5 -20v-54
q0 -9 -1.5 -18t-6.5 -13q-7 -5 -18 -5.5t-23 -0.5h-84h-336h-82q-10 0 -21 -0.5t-17 4.5q-7 4 -11 17q-2 7 -1 15t1 16q0 17 -0.5 38t4.5 34q5 11 12.5 19l14.5 16q10 14 20.5 25.5t20.5 25.5q3 4 6.5 7t5.5 6l15 18.5l15 17.5q2 2 3.5 4.5t3.5 4.5q19 24 39.5 46.5
t38.5 47.5q6 8 12.5 14.5t12.5 14.5q2 3 5 5.5t5 5.5q8 11 18 22t18 23q4 5 8 8.5t7 7.5q14 19 29.5 36t29.5 36q5 5 9.5 10.5t7.5 12.5q2 2 3.5 5.5t-0.5 7.5q-2 8 -11 9t-19 2h-61h-166q-7 0 -17 -0.5t-19.5 -0.5t-18 1t-12.5 4q-6 4 -8 14t-2.5 22.5t0 25.5t0.5 22
t0.5 18t4.5 15q3 6 14 8q2 1 4 0.5t4 0.5z" />
    <glyph glyph-name="bracketleft" unicode="[" horiz-adv-x="333" 
d="M327 -81q4 -6 4 -15.5v-18.5q0 -21 -0.5 -40t-16.5 -24q-5 -2 -10.5 -1.5t-11.5 0.5h-158q-15 0 -34 -0.5t-25 8.5q-6 8 -6 21v27v812v17.5t4 14.5q4 5 13 9q7 0 9 1h161q7 0 16.5 0.5t19 0.5t17.5 -1t12 -4q11 -8 10.5 -27.5t-0.5 -36.5v-14.5t-2 -12.5
q-5 -13 -22 -14.5t-36.5 -0.5t-37 -1t-22.5 -15q-2 -7 -2 -16.5v-17.5v-594q0 -10 0.5 -20t4.5 -16q8 -11 28 -10.5t38 0.5q4 0 8.5 0.5t7.5 -0.5h11q7 -2 12 -4t8 -7z" />
    <glyph glyph-name="backslash" unicode="\" horiz-adv-x="371" 
d="M362 36q2 -5 4.5 -12t4 -14.5t0 -13.5t-8.5 -9t-16.5 -3h-18.5h-29t-24 5q-8 5 -11.5 13.5l-7.5 18.5q-7 17 -12.5 35t-13.5 36q-9 21 -16.5 43.5t-16.5 43.5q-2 5 -3.5 10t-3.5 10q-7 16 -12.5 33t-12.5 33q-2 5 -3 8.5t-3 7.5q-7 17 -12.5 35.5t-13.5 35.5
q-20 48 -36.5 97.5t-36.5 97.5q-2 5 -3.5 10.5t-3.5 10.5q-8 19 -15 39t-15 39l-4 12.5t-5 12.5q-3 8 -5.5 15.5t-5.5 15.5q-1 2 -2 7t1 9q3 9 12 10q2 1 4 0.5t4 1.5q10 0 21.5 0.5t22.5 0t20.5 -2.5t15.5 -6q8 -5 12 -19.5t9 -25.5l16 -42l16 -42q2 -5 3.5 -10t3.5 -10
q7 -17 12.5 -34t12.5 -34q6 -14 10.5 -27.5t10.5 -27.5q19 -46 35 -92.5t35 -92.5l4 -12.5l4 -12.5l11.5 -30l11.5 -30q3 -8 5.5 -15.5t5.5 -15.5l21.5 -56.5z" />
    <glyph glyph-name="bracketright" unicode="]" horiz-adv-x="333" 
d="M6 631q-4 6 -4 15.5v18.5q0 10 -0.5 20.5t0.5 19.5t5 15t12 9q5 2 10.5 1.5t11.5 -0.5h158q15 0 34 0.5t25 -8.5q6 -8 6 -21v-27v-812v-17.5t-4 -14.5q-4 -5 -13 -9q-7 0 -9 -1h-161q-7 0 -16.5 -0.5t-19 -0.5t-17.5 1t-12 4q-11 8 -10.5 27.5t0.5 36.5v14.5t2 12.5
q5 13 22 14.5t36.5 0.5t37 0.5t22.5 15.5q2 7 2 16.5v17.5v594q0 10 -0.5 20t-4.5 16q-8 11 -28 10.5t-38 -0.5q-4 0 -8.5 -0.5t-7.5 0.5h-11q-7 2 -12 4t-8 7z" />
    <glyph glyph-name="asciicircum" unicode="^" horiz-adv-x="600" 
d="M81 319q-7 4 -7 12t3 15l15.5 35.5l15.5 35.5l44.5 97.5l44.5 98.5q5 13 11 25t11 24q3 8 7 16.5t11 13.5q4 4 13 6q3 1 6 0t5 1h65q11 0 21 -0.5t17 -5.5q7 -4 10.5 -11.5l7.5 -15.5q5 -10 9 -20t9 -21l40 -89.5l40 -89.5l21 -45.5l21 -45.5q2 -6 5.5 -17.5t-3.5 -16.5
q-3 -3 -13 -5h-7q-5 -2 -11 -1.5t-11 0.5q-13 0 -27 -0.5t-24 4.5q-12 5 -19 22t-13 30l-29.5 66.5l-29.5 66.5l-11.5 26t-12.5 25q-2 4 -6 9.5t-10 3.5t-9 -5.5t-5 -8.5q-7 -11 -11.5 -22.5t-9.5 -22.5q-14 -34 -29.5 -67l-30.5 -66l-13 -31.5t-19 -24.5q-8 -5 -24 -5h-29
q-5 0 -11 -0.5t-11 1.5h-6q-3 1 -6 1t-5 2z" />
    <glyph glyph-name="underscore" unicode="_" horiz-adv-x="500" 
d="M488 -79q3 -2 6.5 -8.5t1.5 -12.5q-2 -14 -9 -18q-6 -4 -16 -4.5t-20 -0.5h-401h-19.5t-17.5 3q-11 5 -13 19.5t9 21.5q2 2 5.5 2.5t6.5 1.5q4 0 5 1h428h19t15 -5z" />
    <glyph glyph-name="grave" unicode="`" horiz-adv-x="259" 
d="M-1 721h67h19.5t16.5 -3q11 -4 17 -12.5t11 -16.5q8 -11 15.5 -22.5t15.5 -22.5q6 -9 13 -18t12 -20q2 -4 2.5 -9t-1.5 -9q-4 -5 -14 -7h-6q-4 -1 -9 -0.5t-10 0.5h-20.5t-17.5 3q-10 4 -16.5 10t-14.5 12l-5 5q-15 11 -27.5 25t-27.5 25l-6 6t-6 7q-5 4 -9.5 8.5
l-9.5 9.5l-7.5 7.5t-3.5 11.5q2 3 3.5 4.5t4.5 3.5q4 1 7 1t7 1z" />
    <glyph glyph-name="a" unicode="a" horiz-adv-x="574" 
d="M522 40q2 -11 2.5 -22t-10.5 -15q-6 -3 -14 -3h-16h-54q-9 0 -17.5 0.5t-13.5 4.5q-7 4 -10.5 11.5t-9.5 12.5q-2 2 -5 3.5t-8 0.5q-5 -2 -9.5 -5t-9.5 -5q-5 -4 -11 -7l-12 -6q-13 -6 -27 -9.5l-29 -7.5q-7 -2 -13.5 -2.5t-13.5 -1.5q-3 0 -6 -0.5t-6 -0.5h-11
q-10 -2 -20 0h-9q-7 2 -13.5 1.5t-12.5 1.5q-10 2 -19 3.5t-17 5.5q-29 11 -49.5 28.5t-32.5 46.5q-3 7 -5.5 15t-4.5 17q-2 5 -1.5 10t-0.5 10q-1 3 -1.5 12.5t0.5 13.5q2 10 2 17l6 22.5t8 20.5q17 29 39 44t56 26q13 5 27 7t28 5q8 2 17 2.5t18 2.5q7 2 14 1.5t15 1.5
q7 2 14 2t15 2q21 5 38.5 8.5t31.5 17.5q9 9 12 20q1 3 0.5 5t0.5 4t1 6v6q-1 4 -1.5 8t-1.5 7q-10 30 -42 41q-9 3 -21.5 4.5t-25.5 1t-25 -2.5t-21 -5q-6 -2 -11.5 -5.5t-10.5 -7.5t-10.5 -11t-7.5 -13q-5 -10 -8.5 -19t-14.5 -12q-8 -2 -17 -2h-18h-38q-5 0 -10 -0.5
t-9 0.5h-9q-2 1 -5 1t-5 2q-8 2 -11 13q-1 5 0 10t2 9q3 11 6.5 20.5t8.5 17.5l6 10l6 10q8 11 20 21q2 1 6 5l9 7t9 6q17 11 36 17.5t39 12.5q12 3 25 4t26 4q4 1 12.5 0t10.5 1q41 1 78.5 -3t68 -15t52.5 -29.5t34 -47.5q7 -17 8 -39t1 -45v-223v-38.5t4 -35.5
q1 -3 1 -6.5t1 -6.5zM375 194q1 5 1 11.5t-1 11.5q-2 6 -2 11t-4 8q-5 4 -15 4q-4 -1 -7 -1.5t-7 -1.5q-7 -2 -15 -3t-16 -3q-3 -1 -9 -1q-13 -3 -26 -4t-25 -5q-8 -2 -15 -3.5t-14 -4.5q-21 -9 -35.5 -27t-10.5 -50q2 -17 11 -28q7 -11 21 -17.5t30.5 -9.5t35 -1.5
t34.5 6.5q26 8 41 25.5t23 43.5q2 7 2.5 14.5t2.5 15.5v9z" />
    <glyph glyph-name="b" unicode="b" horiz-adv-x="611" 
d="M572 284q2 -6 2 -20.5t-1 -20.5q0 -5 -0.5 -8.5t-0.5 -8.5q-2 -8 -2 -15.5t-2 -15.5q0 -4 -2 -14q-3 -12 -5.5 -24.5t-7.5 -23.5q-18 -45 -45 -78t-71 -52q-9 -4 -18.5 -6.5l-20.5 -5.5q-6 -2 -12.5 -2t-12.5 -1h-9q-6 -2 -16 -1.5t-16 2.5h-6q-5 1 -11 1.5t-12 1.5
q-19 5 -35 10t-30 14l-11.5 8t-10.5 9l-6 4t-6 3q-9 3 -11 -4q-5 -7 -6.5 -16.5t-7.5 -14.5q-6 -4 -14 -4.5t-18 -0.5h-48q-7 0 -14.5 -0.5t-13.5 1.5q-14 5 -15.5 18.5t-1.5 30.5v610v23t5 19q4 7 14 9q2 1 4.5 0.5t4.5 0.5h63q18 0 31 -1.5t17 -15.5q3 -10 2 -26.5
t-1 -28.5v-109v-22t2 -19q1 -5 2 -8.5t5 -4.5q2 -2 5.5 -2t5.5 1q7 4 13 8.5l13 9.5q13 9 27 15.5t31 11.5q8 3 16 3.5t16 2.5q7 2 15 2h16h10q3 -1 7 -0.5t8 -0.5q11 -3 20.5 -4.5t18.5 -5.5q46 -19 75 -49t49 -75q5 -12 8.5 -25l7.5 -27q2 -7 2.5 -13.5t2.5 -14.5
q2 -5 1.5 -11t0.5 -12v-7zM424 190q3 10 5.5 25t3 30.5t0 31t-3.5 26.5q-3 10 -4 19t-5 17q-14 35 -39.5 59.5t-74.5 24.5q-4 0 -7 -0.5t-7 -0.5q-7 -2 -13 -3.5t-12 -3.5q-29 -13 -44 -36.5t-25 -53.5q-3 -8 -3.5 -16.5t-2.5 -16.5q-1 -3 -1 -10q-1 -4 -0.5 -8t-0.5 -8
q-2 -8 -1 -22t3 -20q2 -9 2.5 -17t3.5 -16q9 -28 21.5 -48.5t35.5 -34.5q16 -10 33 -14q2 0 4.5 -0.5t5.5 -0.5q3 -1 10 -1.5t12 0.5q10 2 18.5 3.5t16.5 4.5q28 13 43.5 36t25.5 54z" />
    <glyph glyph-name="c" unicode="c" horiz-adv-x="574" 
d="M290 530q81 2 135.5 -24t86.5 -74q16 -24 24 -55q2 -5 3.5 -13t-0.5 -14q-4 -11 -14 -12.5t-24 -1.5h-52h-18.5t-15.5 4q-8 4 -11 12.5t-8 17.5q-6 11 -13 20t-16 16q-14 9 -31 14q-6 2 -12 2t-11 2h-10q-20 0 -32 -4q-29 -9 -47 -27.5t-29 -44.5q-5 -11 -7.5 -23.5
l-5.5 -26.5q-1 -4 -1 -8t-1 -8q-2 -10 -1.5 -28t2.5 -28q0 -8 1 -11q2 -7 2.5 -14t2.5 -14q8 -23 19 -42t28 -32q4 -3 12 -7q11 -7 22.5 -9t28.5 -4h6t6 1h9q7 2 13.5 3.5t12.5 3.5q30 13 46 38q4 5 7 11.5t5 11.5l7 19.5t14 13.5q9 4 29 3.5t33 -0.5q7 0 14.5 0.5
t12.5 -1.5h8q4 -1 8 -1.5t6 -2.5q5 -4 6.5 -11.5t-0.5 -15.5q-9 -33 -22 -59q-41 -77 -131 -107q-10 -3 -21 -4.5t-22 -4.5q-6 -1 -12 -1t-12 -1h-11q-5 -2 -15 -1.5t-15 1.5q-8 2 -14.5 1.5t-13.5 1.5q-5 1 -10 1.5t-10 1.5l-21 6t-19 7q-47 20 -79 51.5t-52 78.5
q-5 9 -8 19.5l-6 21.5q-1 4 -1 7.5t-2 8.5q-2 7 -2 14.5t-2 14.5v17q-2 5 -2 11.5t2 11.5q1 5 0 9t0 8q2 7 1.5 13t1.5 12q5 18 8 34.5t9 32.5q22 51 55.5 85t85.5 55q14 6 29 8.5t31 6.5q8 1 15 1t15 1z" />
    <glyph glyph-name="d" unicode="d" horiz-adv-x="611" 
d="M558 57v-27.5t-6 -21.5q-5 -5 -13 -6.5t-18 -1.5h-55q-10 0 -18.5 0.5t-13.5 4.5q-7 5 -8 13t-4 16l-3.5 3.5l-3.5 3.5q-11 0 -16 -5l-10 -10q-7 -5 -13 -8.5t-13 -8.5q-4 -2 -8.5 -4t-9.5 -4q-14 -5 -30 -9q-5 -2 -9 -2t-8 -1q-5 0 -8.5 -0.5t-8.5 -0.5h-9
q-6 -2 -18 -1.5t-17 2.5q-7 2 -12.5 1.5t-11.5 1.5l-23.5 7.5t-22.5 8.5q-35 15 -62.5 46.5t-43.5 66.5q-5 11 -8 21.5t-7 21.5q-1 4 -1 7.5t-2 8.5q-2 8 -3.5 17.5t-3.5 19.5q-1 3 -0.5 7t-0.5 7v9.5t-1 9.5t-1 11.5t1 10.5q1 5 1 9.5v9.5q1 5 0.5 9.5t1.5 9.5q2 11 3.5 21
t4.5 20q4 12 7 23t8 22q14 30 35 57q2 3 5.5 5.5t5.5 5.5q4 5 8 9t9 8q4 2 7 5.5t7 5.5q25 17 58 28q7 2 14.5 3t15.5 3q7 2 18 2.5t22 0.5t21.5 -1t17.5 -3q15 -5 29 -9t26 -11l13 -9.5l13 -9.5q4 -3 11.5 -8t14.5 0q4 2 4 7t2 10v10q1 3 1 7v8v136q0 11 -0.5 24.5
t4.5 20.5q4 8 15 10q2 1 4 0.5t4 0.5h71q12 0 22 -1t15 -8q5 -8 5 -20.5v-24.5v-601zM422 253q1 4 0.5 8.5t-0.5 8.5q0 10 -1 20t-3 18l-3.5 20t-5.5 17q-14 36 -40.5 57t-76.5 21q-6 0 -16 -2l-14.5 -3.5t-12.5 -4.5q-27 -11 -42 -34t-24 -52q-3 -10 -4 -20t-4 -21v-14
q-2 -9 -1 -24.5t3 -22.5q0 -3 0.5 -5.5t0.5 -4.5q2 -8 3.5 -15t3.5 -15q17 -52 58 -77q13 -9 36 -14q4 -1 12 -1q3 -1 9.5 -1.5t10.5 0.5q8 2 16 3t16 4q25 11 40 28t26 43q4 9 6 18.5t4 20.5q1 5 0.5 9.5t1.5 9.5q1 3 1 7v9v9z" />
    <glyph glyph-name="e" unicode="e" horiz-adv-x="574" 
d="M543 263q2 -8 0 -18t-7 -13q-5 -4 -14.5 -5.5t-21 -2t-23 0t-20.5 0.5h-244h-13.5t-11.5 -2q-8 -4 -10 -8q-2 -2 -4 -7.5t-1 -10.5q2 -6 2.5 -11.5t2.5 -11.5q8 -24 19.5 -39.5t31.5 -27.5q8 -5 16.5 -6.5t17.5 -4.5q8 -2 22 -3t24 1h9q10 2 18.5 4.5t16.5 5.5
q10 5 22.5 13t18.5 16q5 7 10.5 13.5t13.5 9.5q10 5 25.5 4.5t28.5 -0.5q6 0 12.5 0.5t11.5 -1.5h10q10 -2 14 -5q4 -2 4.5 -9t-1.5 -12q-5 -14 -11 -25t-14 -22q-22 -33 -50 -53t-70 -34q-11 -4 -22 -5t-23 -4q-4 -1 -8.5 -0.5t-8.5 -0.5h-11q-5 -2 -11.5 -1.5t-11.5 1.5
q-8 1 -14 0t-13 1q-5 2 -11 2t-11 2q-11 2 -22 4.5t-20 7.5l-20.5 7.5t-17.5 8.5q-32 20 -57 46.5t-41 61.5q-5 11 -8 22.5t-8 23.5q-1 4 -1 7.5t-1 7.5q-4 12 -5 26l-2 28q0 5 -0.5 11t0.5 11v12l3 24q4 17 7 33t9 30q43 104 146 147q14 6 28.5 8.5t30.5 6.5q8 1 15 1t15 1
q51 1 87.5 -11.5t65.5 -32.5q9 -6 18 -13.5t16 -15.5q3 -5 8 -8q8 -11 15 -22.5l15 -23.5q5 -9 8.5 -18.5l7.5 -20.5q5 -13 8 -27t7 -28q2 -8 1.5 -17.5t1.5 -17.5v-11zM393 322q7 10 1.5 24.5t-8.5 21.5q-14 27 -37 41.5t-64 15.5q-3 -2 -7 -1t-7 0q-5 -2 -11 -2.5
t-11 -2.5q-44 -14 -65 -55q-2 -4 -4.5 -10.5t-3.5 -13t0.5 -12.5t6.5 -10q8 -5 22 -5h27h111q14 0 29.5 0.5t20.5 8.5z" />
    <glyph glyph-name="f" unicode="f" horiz-adv-x="333" 
d="M250 713h20.5t23 -1t20.5 -3.5t12 -7.5q6 -8 6 -22.5v-27.5q0 -10 -0.5 -20t-4.5 -15q-4 -6 -10 -7.5t-13.5 -1.5t-15 0.5t-14.5 -0.5q-18 -4 -28 -9.5t-16 -22.5q-2 -3 -1.5 -5.5t-0.5 -5.5q-1 -4 -2 -12t0 -13q2 -7 5 -12t9 -8q10 -5 24 -3t26 0q5 -1 8.5 -0.5
t7.5 -0.5q9 -4 13 -9q2 -3 3 -9.5t2 -14t0.5 -15t-1.5 -11.5t0 -7.5t-1 -7.5q-2 -12 -12 -15q-8 -4 -19 -3.5t-22 0.5h-7t-7 -1h-8q-17 -4 -21 -22q-2 -6 -1 -14t1 -16v-61v-195v-47q0 -6 0.5 -12.5t-1.5 -11.5v-11q0 -16 -5 -23q-2 -3 -7 -4.5t-10 -3.5h-5q-5 -1 -11 -0.5
t-11 0.5h-44q-7 0 -14.5 -0.5t-12.5 1.5q-12 3 -16 10q-3 5 -3.5 13t-0.5 16v52v280q0 17 -2 29.5t-14 17.5q-11 5 -27 2.5t-27 2.5t-14 17q-2 5 -1.5 12t0.5 14q0 18 2 30t17 17q8 2 17 2h17.5t15.5 1.5t11 7.5q7 10 5.5 25.5t1.5 29.5q1 4 1.5 8t1.5 9q4 14 8 25.5
t11 21.5q14 24 37 38.5t52 22.5q8 3 17 3.5t18 2.5q3 1 9 0t8 1z" />
    <glyph glyph-name="g" unicode="g" horiz-adv-x="611" 
d="M542 510q7 -5 7.5 -16.5t0.5 -23.5v-427q0 -8 -0.5 -15.5t-0.5 -15.5q-1 -8 -1.5 -14.5t-1.5 -14.5q-4 -14 -6.5 -26.5t-7.5 -23.5q-17 -38 -43.5 -63t-64.5 -41q-11 -5 -22 -8l-23 -6q-11 -3 -22 -4t-22 -3q-4 0 -8 -0.5t-9 -0.5q-4 -1 -9 -0.5t-10 -0.5t-13 -1t-13 1
h-9t-8 1q-8 2 -16.5 2t-15.5 2q-2 1 -5 1t-5 1q-10 2 -19.5 4.5t-18.5 6.5q-38 16 -68 40.5t-44 65.5q-2 3 -2 6t-1 5q-3 13 2.5 19.5t15.5 8.5t22.5 1.5t23.5 -0.5h34q5 0 8.5 -0.5t8.5 -0.5q16 -4 20 -10.5t12 -17.5q3 -4 9 -10q1 -2 2 -3t2 -3q8 -6 17 -11t20 -9
q7 -2 14 -2.5t15 -2.5h11q7 -2 18 -0.5t17 3.5q5 2 8.5 2t7.5 2q21 9 35 24t23 35q2 6 3 12t3 13q2 9 2.5 19.5t0.5 21.5q0 4 0.5 8t-0.5 7q-2 5 -1.5 9t-1.5 8q-1 2 -2.5 3t-3.5 3q-9 1 -14.5 -4t-10.5 -9q-9 -7 -18 -13t-20 -11t-22 -8l-23 -6q-6 -1 -11.5 -1.5
t-10.5 -1.5t-16 -1t-16 1h-8q-3 1 -6.5 1t-7.5 1q-14 3 -27 5.5t-24 7.5q-43 17 -69.5 47.5t-44.5 73.5q-5 11 -7 23t-6 24q0 5 -1 8q-2 8 -2 17.5t-2 17.5q-1 5 -1 9.5v9.5q-1 5 -1 12.5t1 12.5v10q1 4 0.5 8t1.5 8q2 10 3 19.5t3 19.5q6 20 12.5 38t16.5 34
q5 10 11.5 18.5l13.5 17.5q3 5 8.5 10t10.5 9l6 6q5 4 10 7.5t10 6.5q13 8 27 14t31 11q8 3 16.5 3.5t16.5 2.5q4 1 11 0t9 1q32 1 57.5 -6t45.5 -20q3 -2 6 -4.5t7 -5.5q6 -5 11 -10t12 -9q2 -1 5.5 -2t5.5 1q5 2 6 7t3 10t3.5 10.5t5.5 9.5q6 4 14.5 4.5t17.5 0.5h51
q11 0 19.5 -0.5t14.5 -5.5zM405 201q4 9 7 23t4 29.5t0.5 30.5t-3.5 27q-2 4 -1.5 6.5t-0.5 6.5l-4 14t-5 13q-14 35 -40 54t-76 19q-2 -2 -5.5 -1.5t-6.5 -0.5q-7 -2 -13 -3.5t-12 -3.5q-26 -11 -40 -33t-23 -49q-2 -5 -2 -8t-1 -8q-3 -11 -4 -32t2 -34v-10q2 -8 3 -15.5
t3 -15.5q9 -26 22 -45.5t36 -31.5q10 -5 28 -10q7 0 11 -1q2 0 6 -0.5t6 0.5h10q9 2 17 3t16 5q25 10 40.5 28t25.5 43z" />
    <glyph glyph-name="h" unicode="h" horiz-adv-x="593" 
d="M82 712h68h19.5t15.5 -5q7 -4 9 -17q0 -5 0.5 -9.5t0.5 -9.5v-36v-115q0 -7 -0.5 -16t0.5 -17.5t4.5 -14t10.5 -5.5q2 2 4 2t4 2q7 5 13 11.5t14 11.5q11 8 23 14t26 12q4 2 8 2t9 2q10 3 21 4t24 1h9.5t9.5 -1h6l13.5 -2l13.5 -2q17 -5 31.5 -10.5t28.5 -13.5
q22 -14 35.5 -35.5t22.5 -47.5q2 -8 3.5 -16.5t3.5 -16.5q2 -9 2 -19t2 -20v-11q2 -8 1 -17.5t-1 -17.5v-71v-156q0 -17 1 -36t-7 -29q-5 -6 -16 -6.5t-22 -0.5h-50q-16 0 -27 1.5t-16 12.5q-3 6 -3 14.5v16.5v57v160q0 42 -4 77.5t-25 55.5q-14 14 -34 20q-4 1 -6.5 1
t-6.5 1t-10.5 2t-10.5 -1q-6 -1 -12.5 -1t-12.5 -2q-23 -6 -40 -18q-18 -14 -26.5 -37.5t-11.5 -53t-2.5 -62.5t0.5 -64v-121v-27.5t-5 -22.5q-3 -4 -8 -5.5t-10 -3.5q-6 -2 -13.5 -1t-14.5 1q-9 0 -21 -0.5t-24 -0.5t-22 1.5t-15 5.5q-6 5 -6.5 15.5t-0.5 21.5v89v376v136
q0 13 -1 31t4 26q6 7 16 10q2 1 4 0.5t4 0.5z" />
    <glyph glyph-name="i" unicode="i" horiz-adv-x="258" 
d="M192 706q7 -8 7 -24v-31v-27t-7 -19q-6 -5 -15.5 -6t-20.5 -1h-56q-11 0 -19.5 1t-14.5 6q-4 3 -5.5 11.5t-2 19t0 21.5t0.5 19t0.5 14.5t3.5 11.5q2 4 5.5 6t7.5 4q2 0 5 0.5t5 0.5h73q10 0 19 -1t14 -6zM199 55q0 -20 -1 -34t-18 -19q-6 -2 -13 -1.5t-15 0.5h-56
q-9 0 -17.5 1t-12.5 6q-6 7 -6.5 17.5t-0.5 22.5v422v20t4 16q6 7 17 9q2 1 5.5 0.5t5.5 0.5h50q6 0 13.5 0.5t12.5 -0.5h8q6 -2 11 -3t8 -6q4 -5 4.5 -14t0.5 -19v-419z" />
    <glyph glyph-name="j" unicode="j" horiz-adv-x="278" 
d="M107 598q-10 0 -19 1t-14 7q-4 4 -5.5 12.5t-1.5 18t0.5 19.5t0.5 18t0.5 16t3.5 13q2 3 5.5 5t6.5 4q2 0 4.5 0.5t4.5 0.5h70h20.5t15.5 -5q9 -7 9 -25.5v-34.5q0 -5 0.5 -11t-1.5 -11v-6q-2 -11 -7 -16q-6 -5 -15.5 -5.5t-20.5 -0.5h-57zM208 20q0 -39 -1.5 -75.5
t-16.5 -60.5q-13 -20 -30 -33t-42 -21q-9 -3 -18 -4t-18 -3q-7 -1 -14 -1t-14 -1h-11q-6 -2 -18.5 -2t-17.5 2q-15 3 -21 12q-2 5 -2.5 12t-0.5 15q0 7 -0.5 16t-0.5 18t1 17t3 13q5 11 18 10.5t26 3.5q29 7 36 38q1 4 0.5 8t0.5 9q2 6 1.5 13t-0.5 14v442q0 11 -0.5 23.5
t4.5 20.5q4 7 16 10q2 0 6 -0.5t6 1.5h50q6 0 13 0.5t12 -1.5h9q5 -2 10.5 -3t7.5 -6q3 -5 4.5 -13t2 -18t0 -20t-0.5 -18v-418z" />
    <glyph glyph-name="k" unicode="k" horiz-adv-x="574" 
d="M93 713h73q11 0 20 -1t14 -6q8 -9 7.5 -29t-0.5 -37v-169v-61q0 -7 -1 -15t1 -15v-9q2 -5 3 -10.5t6 -7.5q3 -2 8 -0.5t7 3.5q10 7 17.5 16t15.5 17l17 16.5t16 18.5q3 2 7 6l10 10.5l10 10.5l23 23q2 4 5.5 6.5t6.5 6.5q8 10 17.5 17.5t23.5 10.5q5 1 14 1q4 1 8 0.5
t9 -0.5h33q8 0 19.5 1t19.5 -1h11q5 -2 10 -2.5t7 -4.5q2 -3 0.5 -8t-3.5 -7q-6 -10 -15 -17.5t-17 -15.5l-13.5 -14t-14.5 -13q-5 -4 -8.5 -8.5t-8.5 -8.5q-5 -3 -9 -8t-9 -9l-38 -38q-7 -6 -12.5 -11.5t-10.5 -13.5q-2 -3 -4 -7.5t0 -9.5q2 -11 7.5 -18t10.5 -15
q8 -11 14.5 -22t14.5 -22l105 -159l19.5 -28t17.5 -28q3 -5 3.5 -12t-4.5 -11q-4 -2 -8 -2t-9 -2q-4 -1 -9 -0.5t-10 0.5h-39q-16 0 -38 -0.5t-33 4.5t-19 18.5l-15 24.5l-34 54.5l-34 54.5l-15.5 26t-16.5 25q-2 3 -7 8t-11 3q-9 -2 -13.5 -6t-9.5 -9q-8 -6 -15 -14
t-11 -19q-2 -8 -2 -17.5v-18.5v-62q0 -7 0.5 -15.5t0.5 -17.5t-1 -16.5t-4 -11.5q-4 -6 -12.5 -8.5t-19.5 -3t-23 0t-21 0.5q-11 0 -24 -0.5t-21 2.5q-13 5 -14 18t-1 30v115v401v93q0 11 -0.5 23t3.5 19t14 10q2 0 4.5 0.5t4.5 0.5z" />
    <glyph glyph-name="l" unicode="l" horiz-adv-x="258" 
d="M86 713h73q10 0 19 -1t14 -6q6 -7 6.5 -18.5t0.5 -23.5v-89v-359v-153q0 -12 0.5 -27.5t-4.5 -23.5t-18 -11q-6 -2 -13.5 -1t-14.5 1h-48q-11 0 -20 1t-15 6t-6.5 15.5t-0.5 21.5v89v375v136q0 13 -0.5 31t4.5 26q2 4 5.5 6t7.5 4q2 0 5 0.5t5 0.5z" />
    <glyph glyph-name="m" unicode="m" horiz-adv-x="906" 
d="M349 529q37 1 65 -8t49 -25q8 -6 14.5 -14t14.5 -16q2 -2 6.5 -5.5t9.5 -1.5q11 3 21 14.5t19 17.5q14 11 30 18.5t36 14.5q8 2 19.5 3.5t24 2t24 -0.5t20.5 -3q5 -1 9 -1t9 -2l27 -8t24 -11q42 -26 63 -76q4 -9 6 -18.5l4 -18.5q1 -7 1.5 -13t1.5 -12v-10q1 -6 0.5 -14
t-0.5 -15v-58v-195q0 -8 0.5 -18.5t0 -20t-2.5 -18t-6 -11.5q-6 -5 -15.5 -5.5t-20.5 -0.5h-53q-14 0 -25 2t-15 11q-3 7 -3 15.5v16.5v56v135v42q0 5 0.5 11t-1.5 11v8v12t-1 12q-1 4 -1 8.5t-1 8.5q-4 15 -8.5 26.5t-13.5 20.5q-14 14 -34 20q-4 1 -7 0.5t-7 1.5
q-4 1 -9.5 1.5t-10.5 -0.5q-6 -2 -12 -2t-12 -2q-29 -10 -42 -30q-17 -23 -20.5 -57.5t-3.5 -75.5v-132v-74v-20t-5 -16q-5 -7 -14.5 -8.5t-21.5 -1.5h-54q-9 0 -17.5 0.5t-14.5 2.5q-10 5 -11.5 16t-1.5 25v85v157q0 29 -2 55t-13 43q-8 14 -20.5 21t-30.5 12q-4 1 -8 0.5
t-9 0.5q-11 2 -21 -2q-2 0 -4 -0.5t-4 -0.5q-16 -5 -31 -17q-16 -12 -24.5 -27.5t-12 -35t-4 -42.5t-0.5 -50v-135v-61v-18t-3 -16q-4 -9 -15 -11t-25 -2h-52q-10 0 -19.5 0.5t-15.5 4.5q-9 5 -9.5 18.5t-0.5 28.5v117v244v60q0 11 0.5 19.5t4.5 14.5q5 6 16 8h6q5 1 10.5 1
h10.5h41q8 0 15.5 -0.5t13.5 -2.5q8 -3 10.5 -10t4.5 -16q1 -3 0.5 -5.5t1.5 -4.5q1 -3 2.5 -4.5l3.5 -3.5q12 -1 20 7.5t15 13.5q14 10 28.5 18t31.5 13q9 3 18 4t19 3q3 1 9 0.5t8 0.5z" />
    <glyph glyph-name="n" unicode="n" horiz-adv-x="593" 
d="M347 529q60 2 100 -17t63 -56q7 -11 11 -23.5l8 -25.5q2 -8 2.5 -15t2.5 -14q0 -6 1 -8q2 -14 2 -29v-29v-89v-162q0 -19 -0.5 -36.5t-14.5 -22.5q-6 -2 -14 -2h-16h-54q-12 0 -21.5 1.5t-14.5 8.5q-4 6 -4.5 15.5t-0.5 20.5v70v149q0 37 -3 68.5t-18 53.5q-14 20 -41 28
q-5 2 -10.5 2t-11.5 2q-5 1 -12.5 0.5t-11.5 -1.5t-7 -1t-6 -1q-23 -6 -37 -16q-32 -23 -38 -67t-6 -99v-125v-61v-18t-3 -15q-5 -11 -16 -13t-27 -2h-50q-11 0 -22 1t-16 7q-7 9 -6.5 26t0.5 32v136v220v51q0 11 0.5 20t5.5 15q2 3 6.5 4.5t9.5 2.5h5q5 1 10.5 1h10.5h42
q8 0 15.5 -0.5t13.5 -2.5q7 -3 9.5 -9t4.5 -14q1 -4 0.5 -7t1.5 -6q2 -5 3.5 -6l4.5 -3q11 -1 18 7.5t15 13.5q27 20 60 32q9 3 18.5 4t20.5 3q3 1 9 0.5t8 0.5z" />
    <glyph glyph-name="o" unicode="o" horiz-adv-x="611" 
d="M570 279q2 -6 2 -17t-2 -17v-10q-2 -8 -1.5 -16t-1.5 -16q-2 -7 -3 -13t-2 -13q-4 -11 -7 -22.5t-8 -21.5q-21 -48 -55 -78t-82 -50q-12 -5 -24.5 -7.5t-25.5 -5.5q-5 -2 -11 -2t-11 -1q-3 0 -6.5 -0.5t-6.5 -0.5q-5 -1 -16 -1.5t-17 1.5h-10q-5 1 -10.5 0.5t-10.5 1.5
q-4 1 -7.5 1t-8.5 1q-10 3 -20 5t-19 6q-12 4 -22.5 8t-21.5 10q-35 21 -60 49t-42 67q-5 9 -7.5 19l-5.5 21q-2 5 -2 9t-2 9q-2 8 -2 16.5t-2 16.5q-1 5 -1 9v9q-2 6 -1.5 17t2.5 17v7q1 5 0.5 10.5t1.5 10.5q1 5 1 9.5t2 9.5q4 13 7 25.5t8 24.5q18 41 43 68.5t61 50.5
q10 5 21 9t22 9q13 5 27 7t29 6q8 1 15 1t14 1q58 1 100.5 -12t75.5 -36q11 -8 22.5 -17.5t19.5 -20.5q8 -10 14.5 -20l13.5 -21t11 -23.5t9 -26.5q3 -8 5 -17l4 -18q1 -4 1 -8t1 -8q2 -5 1 -11t1 -11zM430 243q1 5 1 14.5t-1 14.5v8q-2 5 -2 11t-1 11q0 4 -1 6
q-2 8 -3.5 16.5t-4.5 16.5q-11 26 -26 44.5t-40 29.5q-6 2 -12 3.5t-13 3.5q-8 2 -17 1.5t-18 -0.5q-3 -2 -7 -1.5t-7 -0.5q-7 -2 -13.5 -3.5t-11.5 -4.5q-25 -11 -40.5 -31.5t-24.5 -47.5q-3 -10 -4.5 -21t-3.5 -22q-1 -5 -1 -10v-10q-2 -7 -1.5 -21t2.5 -21v-9
q2 -8 3 -15.5t3 -15.5q10 -30 21.5 -48.5t36.5 -33.5q7 -5 15.5 -8t17.5 -5q4 -1 7 -0.5t7 -0.5t8.5 -1.5t8.5 0.5h8q8 2 16 3t15 4q26 10 42 27t27 42q4 10 6 20t5 21q1 4 1 7.5t1 7.5v9.5t1 9.5z" />
    <glyph glyph-name="p" unicode="p" horiz-adv-x="611" 
d="M578 264q1 -6 1 -18t-2 -17v-13q-3 -11 -3.5 -21t-3.5 -20l-4 -18.5t-6 -18.5q-7 -17 -14 -31.5t-16 -28.5q-6 -9 -12.5 -16.5t-14.5 -15.5l-7 -7q-5 -5 -10.5 -9l-10.5 -8q-8 -6 -17.5 -10.5l-19.5 -9.5t-20.5 -7l-21.5 -4q-6 -2 -12.5 -2t-13.5 -2h-9q-8 -2 -15 0h-10
q-6 2 -12.5 1.5t-12.5 1.5q-16 5 -30.5 9t-26.5 12q-7 4 -13 8.5l-13 9.5l-12 9t-14 1q-5 -3 -5 -7.5t-2 -10.5q-2 -10 -1.5 -23t0.5 -24v-102q0 -13 -0.5 -25.5t-5.5 -20.5q-3 -4 -11 -6t-18 -2.5t-20 0t-17 0.5h-27h-7t-7 1h-8q-17 5 -18 19.5t-1 34.5v587q0 11 -0.5 23.5
t4.5 19.5q4 7 11 9q5 2 12.5 2h14.5h48h19t15 -5q7 -5 7.5 -12.5t4.5 -15.5q1 -3 2.5 -4.5l3.5 -3.5q11 -1 18 6t14 12q13 9 27 16.5t31 12.5q8 3 17.5 4t18.5 3q4 1 8.5 0t7.5 1q57 2 96.5 -15.5t67.5 -45.5q5 -5 9 -9.5t8 -9.5q7 -9 12.5 -18l10.5 -18q2 -2 2.5 -5t2.5 -7
q6 -10 11 -24l4 -12.5l4 -13.5q4 -12 5.5 -25t4.5 -27q0 -5 0.5 -11t1.5 -12v-11zM437 241q1 5 1 13.5t-1 13.5v9q-2 6 -2 13t-2 14l-4 19.5t-6 17.5q-12 32 -31 51t-54 28q-8 2 -17.5 2h-18.5q-4 -1 -7 -1t-7 -1q-7 -2 -13.5 -3.5t-12.5 -4.5q-26 -11 -40.5 -34t-23.5 -51
q-2 -8 -3 -16.5t-3 -16.5q-1 -4 -1 -13q-2 -4 -1 -9.5t0 -10.5q-2 -6 0 -11v-12v-9t2 -8q0 -7 1 -11l2 -12t3 -12q9 -29 21.5 -47.5t35.5 -32.5q14 -8 33 -13q4 -1 7 -0.5t7 -0.5t12 -1.5t13 0.5q8 2 16.5 3.5t16.5 4.5q24 10 39 28t25 42q5 12 7 25t5 27q0 5 0.5 10t0.5 10
z" />
    <glyph glyph-name="q" unicode="q" horiz-adv-x="611" 
d="M556 -123q0 -16 -0.5 -31.5t-10.5 -21.5q-8 -5 -23 -4.5t-28 0.5q-9 0 -20.5 -0.5t-22 0t-19 3t-12.5 8.5q-5 8 -4.5 22.5t0.5 26.5v109v25t-3 21l-3.5 3.5l-3.5 3.5q-9 1 -14 -3.5t-11 -8.5q-9 -7 -18.5 -13t-20.5 -11q-18 -8 -40 -12.5t-45 -5t-45.5 3.5t-40.5 12
q-45 20 -73 51.5t-47 77.5q-5 11 -7 22.5t-5 22.5q-2 4 -1.5 7.5t-0.5 7.5q-2 8 -2.5 17.5t-2.5 18.5v13q-1 5 -1 12.5t1 12.5t1 9v9q1 5 0.5 10t1.5 10q2 9 3 18.5t3 18.5q5 17 10.5 32t11.5 29t15 27l18 25q9 11 20 20q3 3 4 5q5 3 9 6.5t8 6.5q14 10 29.5 16.5t32.5 12.5
q9 3 18 4t18 3q3 1 11 0t10 1q32 1 60 -5.5t48 -18.5l12 -8t11 -8q6 -5 10.5 -9.5t15.5 -4.5l3.5 3.5l3.5 3.5q3 8 4 15.5t8 12.5q5 4 14.5 4.5t19.5 0.5h48h14t13 -2q7 -2 11 -9q5 -7 4.5 -19t-0.5 -23v-586zM420 251q1 2 0.5 5t-0.5 5q-1 10 -1 19t-2 17q-1 3 -0.5 5.5
t-0.5 5.5l-3.5 14.5t-3.5 13.5q-10 29 -27 50t-44 32q-11 5 -23.5 5.5t-26.5 0.5q-3 -2 -7 -1.5t-8 -0.5q-6 -2 -12 -3.5t-11 -3.5q-29 -13 -45.5 -38t-25.5 -58q-2 -8 -2.5 -14.5t-2.5 -14.5q0 -7 -1 -10q-1 -5 -1.5 -17.5t1.5 -17.5v-9q1 -4 1 -8t1 -7q0 -2 0.5 -5t0.5 -5
q2 -8 3 -15t4 -14q8 -25 21 -43t33 -31q14 -8 31 -12q3 -1 5.5 -1t6.5 -1q3 -1 9.5 -1.5t11.5 0.5q2 1 5.5 0.5t6.5 0.5q7 2 13.5 3t13.5 3q26 11 41.5 29t26.5 44q3 8 5 17l4 18q0 4 0.5 7t0.5 7q2 10 2 17v12z" />
    <glyph glyph-name="r" unicode="r" horiz-adv-x="389" 
d="M347 529q11 0 19.5 -2t13.5 -9q6 -8 6 -27.5v-34.5q0 -11 0.5 -25t-3.5 -22q-4 -7 -11.5 -9t-17 -2t-20 1t-19.5 -1q-7 -2 -14 -2.5t-13 -2.5q-16 -5 -32 -14.5t-25 -21.5l-10.5 -16.5t-10.5 -17.5q-3 -8 -5.5 -16.5t-4.5 -16.5q-2 -7 -2 -14.5t-2 -14.5q-1 -4 -0.5 -7.5
t-0.5 -6.5v-16q-2 -7 -1 -15.5t1 -16.5v-64v-85q0 -13 -1 -24t-6 -18q-2 -3 -6.5 -4.5t-9.5 -2.5h-5q-5 -1 -11 -1h-11h-43q-6 1 -12.5 1h-13.5q-5 2 -10 3.5t-7 6.5q-4 5 -4.5 14.5t-0.5 19.5v68v282v74v19.5t4 15.5q5 8 15 10t24 2h51q12 0 21 -1.5t14 -9.5q3 -5 3.5 -14
t1.5 -17.5t3.5 -15.5t9.5 -7q2 2 4 2t4 2q6 5 10.5 11.5t11.5 11.5q4 3 7 6.5t7 6.5l18.5 12t19.5 11q10 4 20.5 7l21.5 6q3 1 11.5 0.5t10.5 1.5z" />
    <glyph glyph-name="s" unicode="s" horiz-adv-x="537" 
d="M250 530q75 2 130.5 -16.5t84.5 -63.5q7 -11 12.5 -22.5t9.5 -25.5q2 -6 2 -13t-2 -12q-4 -6 -11 -8q-5 -2 -12 -2h-14h-44q-7 0 -14 -0.5t-13 1.5q-10 2 -15 8t-9 12.5t-7.5 14t-10.5 12.5q-10 8 -19.5 12t-23.5 7q-7 2 -20.5 3t-20.5 -1h-7q-5 -1 -9.5 -1.5t-9.5 -1.5
q-17 -5 -27.5 -13.5t-14.5 -25.5q-2 -7 0 -13t4 -10q7 -12 16.5 -19t22.5 -12q19 -8 41.5 -13.5t46 -10t46 -10t42.5 -13.5q9 -4 17.5 -6.5t16.5 -7.5q19 -12 34.5 -26t24.5 -35q3 -7 5 -14t4 -15q1 -6 1.5 -18.5t-0.5 -19.5v-5q-2 -6 -2.5 -11.5t-1.5 -10.5q-7 -30 -22 -53
q-16 -24 -39 -39t-52 -26q-11 -5 -23.5 -7t-24.5 -5q-9 -2 -18.5 -2.5t-18.5 -2.5h-18q-6 -2 -20.5 -2t-20.5 2q-3 0 -6.5 0.5t-7.5 0.5q-12 2 -24 3t-23 4q-39 11 -69 25.5t-51 43.5q-14 19 -24 44q-2 6 -4 16q-2 5 -3 14t1 15q3 7 10 10q5 2 12 2h15h47h16t14 -2
q11 -4 14.5 -13t8.5 -19q2 -5 7.5 -13t9.5 -10q12 -10 23 -15.5t28 -10.5q5 -2 10 -1.5t10 -0.5q8 -2 17.5 -1.5t16.5 2.5q5 1 9.5 1t9.5 2q14 5 25.5 12t18.5 18q5 8 8 25q2 7 0 13t-4 10q-7 14 -17.5 21t-24.5 13q-19 8 -40 13t-42 11q-8 2 -16.5 3t-16.5 3l-61 17.5
t-53 25.5q-28 20 -41 54q-2 7 -4 19q-2 7 -3 17t1 18q2 5 1 8.5t1 8.5q2 11 4.5 20.5t6.5 18.5q13 29 36 47t52 29q11 5 23 7.5t25 5.5q6 2 12 2.5t12 1.5q8 1 17 1t17 1z" />
    <glyph glyph-name="t" unicode="t" horiz-adv-x="352" 
d="M122 670h67q15 0 26.5 -1.5t16.5 -12.5q2 -5 2 -12v-14v-45q0 -5 -0.5 -11.5t0.5 -11.5v-11q0 -8 1 -14.5t5 -11.5q7 -9 25.5 -9.5t35.5 -0.5h12t11 -2q11 -5 12.5 -18t1.5 -29q0 -7 0.5 -14t-1.5 -12q-5 -16 -21 -17t-36 -1q-4 0 -8.5 0.5t-7.5 -0.5q-4 -1 -7 -0.5
t-6 -1.5q-8 -2 -11.5 -8.5t-5.5 -15.5q-1 -5 0 -11t0 -11v-62v-117q0 -25 1.5 -43.5t12.5 -32.5q5 -6 13.5 -8.5t17.5 -4.5q3 -1 6.5 -0.5t5.5 -0.5h11q11 0 19 -1t13 -8q4 -6 4 -15.5v-19.5q0 -21 -0.5 -38.5t-16.5 -23.5q-5 -2 -9 -1.5t-9 -1.5h-10q-2 0 -6 0.5t-7 -0.5
q-5 -1 -10.5 -0.5t-10.5 0.5t-10 -0.5t-9 0.5h-11q-5 1 -11 1t-11 1q-7 1 -13 2l-12 2q-11 3 -21 7t-19 9q-3 2 -6 4.5t-7 5.5q-2 2 -5 4.5t-5 4.5q-14 19 -21 42q-2 4 -1.5 7.5t-0.5 8.5q-1 2 -1 5t-1 5v10q-1 4 -0.5 9t0.5 10v38v149v53q0 7 0.5 14t-1.5 13q-4 14 -14 18
q-11 5 -28 3t-29 3q-8 3 -10 9t-4 15v21q0 18 2 29t17 15q4 2 8 1.5t9 -0.5q15 0 28 1.5t18 11.5q3 7 3.5 16t0.5 18v62v17t2 15q5 10 15 13q2 1 5.5 0.5t5.5 0.5z" />
    <glyph glyph-name="u" unicode="u" horiz-adv-x="593" 
d="M80 515h75q11 0 20 -1t13 -7q5 -6 6 -16.5t1 -21.5v-70v-149q0 -36 3 -68t18 -53q14 -21 45 -30q5 -1 8.5 -1t8.5 -1t11 -1t9 1q5 2 8.5 1t7.5 1q21 5 33 13q18 11 28.5 28.5t15 39t5.5 48t1 55.5v121v65v18.5t4 15.5q5 9 15 10.5t24 1.5h53h19t15 -4q8 -5 9 -15t1 -23
v-76v-281v-71v-20t-4 -15q-5 -8 -15 -9t-21 -1h-54q-11 0 -19.5 1t-13.5 8q-2 3 -3.5 9l-3 12t-3.5 11t-6 6q-2 2 -5 1t-5 -2q-7 -4 -12 -9t-11 -9q-4 -3 -7.5 -6.5t-8.5 -6.5q-23 -14 -54 -22q-7 -2 -14 -2.5t-15 -2.5q-4 -1 -8.5 -0.5t-8.5 -0.5q-3 -1 -12.5 -0.5
t-12.5 1.5q-5 0 -10 0.5t-10 0.5q-12 3 -23 5t-22 6l-8.5 3.5l-8.5 3.5q-35 19 -56 53q-13 21 -19 50.5t-7.5 63t-1 69t0.5 70.5v136q0 13 -0.5 30.5t4.5 25.5q3 5 12 9q6 0 9 1z" />
    <glyph glyph-name="v" unicode="v" horiz-adv-x="520" 
d="M35 516h73q11 0 21 -0.5t17 -4.5q11 -7 15.5 -25.5t9.5 -32.5q11 -33 21 -67.5t21 -68.5q8 -24 15 -49t16 -48l6.5 -19t14.5 -10q2 2 3 2.5t3 2.5q3 5 5 10t4 11q5 11 7.5 23t6.5 23q14 42 26.5 84.5t26.5 84.5q5 12 8 24.5t7 23.5q2 8 5 16t9 13q3 2 13 6q6 2 13 1.5
t13 -0.5h49q11 0 20.5 -0.5t14.5 -5.5q6 -5 4.5 -14.5t-3.5 -15.5q-5 -14 -10 -29.5t-10 -29.5q-3 -7 -4.5 -13.5t-3.5 -12.5q-5 -11 -8.5 -22t-7.5 -22q-1 -3 -1.5 -6.5t-2.5 -6.5q-6 -15 -10.5 -30.5t-9.5 -30.5q-11 -30 -21 -61.5t-22 -61.5q-5 -14 -9 -27.5t-9 -27.5
q-2 -5 -3 -8.5t-3 -8.5q-4 -11 -7.5 -22.5t-7.5 -22.5l-9 -20.5t-15 -13.5q-8 -3 -17 -2.5t-18 0.5h-65h-21.5t-18.5 4q-7 5 -10 12.5t-6 16.5q-5 12 -9 25t-9 25q-2 4 -2.5 7.5t-2.5 8.5q-5 12 -9 25t-9 26q-2 5 -3 9.5t-3 9.5q-4 9 -7 18.5l-6 18.5q-2 3 -2 6.5t-2 6.5
q-4 9 -6.5 18t-6.5 19q-9 23 -17 47.5l-16 48.5q-11 27 -19 54.5t-18 54.5l-9 27q-1 3 -1.5 7.5t1.5 8.5q3 7 14 10q5 0 7 1z" />
    <glyph glyph-name="w" unicode="w" horiz-adv-x="814" 
d="M38 517h74q11 0 21 -0.5t16 -4.5t9.5 -10.5t5.5 -15l4 -17t4 -15.5q12 -35 20.5 -72t19.5 -73q2 -6 3 -11.5t3 -11.5q5 -15 8.5 -30.5t8.5 -30.5q2 -7 5 -16t11 -11q5 -1 8 5.5t5 9.5q5 14 7.5 29t7.5 29q3 9 5 18.5l4 18.5q7 24 12.5 49t12.5 49q3 11 5 21t5 20
q4 15 8 36t15 29q7 4 16 4.5t20 0.5h52q12 0 22 -1t17 -6q5 -4 7 -10.5l4 -12.5q4 -14 6.5 -27.5t7.5 -27.5q12 -39 20.5 -80t19.5 -80q4 -12 6.5 -24.5t6.5 -23.5q4 -14 8 -21q1 -1 2.5 -1.5t2.5 -2.5q9 1 11.5 6.5l5.5 12.5q6 16 10 33.5t9 34.5q3 10 5 19.5t5 19.5
q11 31 18 63t17 62q5 14 9 33.5t13 26.5q7 5 16 6t20 1h53h17t15 -2q10 -4 11 -13t-3 -20l-13.5 -44.5t-14.5 -44.5l-46.5 -146.5l-46.5 -146.5l-9.5 -31.5l-9.5 -31.5q-4 -11 -7.5 -19.5t-13.5 -12.5q-10 -5 -26 -4t-29 1q-16 0 -40 -0.5t-34 4.5q-6 5 -9 11.5t-5 14.5
q-5 14 -7.5 27.5t-6.5 27.5q-3 9 -5 18.5t-6 19.5q-9 29 -15.5 60t-16.5 61q-6 18 -10 38t-16 32q-10 0 -12.5 -7.5t-5.5 -15.5q-7 -20 -10.5 -40t-10.5 -40q-11 -36 -18.5 -73.5t-18.5 -73.5q-2 -7 -4 -16t-4 -17t-5.5 -15t-8.5 -11t-14 -4.5t-20 -0.5h-53h-29q-6 1 -11 2
t-9 3q-7 5 -10 14l-6 18l-10 31l-10 32q-25 74 -47.5 148l-46.5 148q-7 20 -13 39l-12 38q-2 6 -4.5 16.5t1.5 16.5q3 4 13 8q6 0 8 1z" />
    <glyph glyph-name="x" unicode="x" horiz-adv-x="537" 
d="M53 516h80q14 0 26.5 -1t20.5 -7q7 -5 12.5 -13.5l10.5 -16.5q8 -13 17 -25.5l18 -25.5l11.5 -18t16.5 -13q4 -1 7.5 0.5t5.5 3.5q7 5 11 12t9 14q8 13 17 25.5l18 25.5q8 14 15.5 24t25.5 14q7 2 15 1.5t16 -0.5h62q10 0 19.5 -1.5t11.5 -9.5q2 -5 -0.5 -9.5t-4.5 -7.5
q-5 -10 -12 -18.5t-13 -18.5l-45 -64l-45 -64l-12 -16t-11 -18q-2 -3 -3.5 -8t-0.5 -10q3 -11 8.5 -18.5t10.5 -15.5l12 -16.5t11 -16.5l43 -62l43 -63q8 -12 17 -24t17 -25q2 -3 5 -8.5t0 -11.5q-2 -7 -11 -8t-19 -1h-92q-5 1 -10 1.5t-10 2.5q-11 8 -18 20t-15 23
q-11 15 -21 30.5l-20 30.5l-14.5 22.5t-19.5 16.5q-7 2 -12 -2.5t-7 -8.5q-8 -11 -15.5 -22.5l-15.5 -23.5l-39 -57l-10.5 -16t-14.5 -13q-11 -5 -31.5 -4.5t-36.5 0.5h-33q-4 0 -8.5 -0.5t-7.5 0.5q-4 1 -7.5 0.5t-6.5 1.5t-4.5 3.5l-3.5 3.5q-1 10 3 16.5l8 12.5l15.5 22
l15.5 22l40 59l40 60q7 9 13 18l12 18q5 7 9.5 14t6.5 17q2 5 0 9l-3 6q-5 11 -11.5 19.5t-12.5 17.5l-46.5 67.5l-46.5 67.5q-5 8 -11 16t-11 17l-4.5 7t-0.5 9t5 6.5t8 3.5q6 0 8 1z" />
    <glyph glyph-name="y" unicode="y" horiz-adv-x="519" 
d="M26 518h76h20t17 -4q12 -8 16.5 -25t9.5 -31q5 -12 8.5 -25t8.5 -25q8 -23 15 -45.5t15 -44.5l21 -63q3 -9 5.5 -18.5t6.5 -18.5l6.5 -18t14.5 -9q2 2 3.5 2.5t3.5 2.5q3 5 5 10l4 10q5 11 8 23.5t7 24.5l27 83l27 83q5 14 8.5 27.5t8.5 26.5q3 8 5.5 15.5t9.5 12.5
q6 5 15 5.5t20 0.5h61q10 0 19 -1t14 -6q6 -7 2 -18q-2 -8 -5 -16l-6 -16q-14 -35 -27 -71.5t-27 -71.5q-6 -15 -11 -30.5t-11 -30.5l-10 -27l-10 -27q-20 -50 -37.5 -100.5t-37.5 -99.5q-3 -7 -4.5 -13t-4.5 -12l-15 -37t-15 -34.5t-19 -30.5t-27 -25q-13 -9 -28.5 -14.5
t-33.5 -10.5q-8 -2 -16 -2t-16 -2h-26h-19t-21.5 1t-19 2.5t-12.5 4.5q-5 4 -6.5 9.5l-3.5 13.5v24v36t12 24q5 2 13.5 2.5t14.5 -1.5h25h12q4 1 8 1t8 2q31 9 40 41q2 4 4 12t0 14q-2 5 -2 10t-2 10q-6 20 -13 39.5t-15 38.5t-14.5 38t-14.5 38q-5 12 -8.5 24t-8.5 24
q-16 38 -29.5 78t-29.5 78q-2 4 -2 6.5t-2 5.5q-8 18 -13.5 36.5t-13.5 35.5q-2 6 -6.5 17.5t-1.5 19.5t13 10q2 1 3.5 0.5t3.5 0.5z" />
    <glyph glyph-name="z" unicode="z" horiz-adv-x="519" 
d="M69 516h307h58q9 0 18 -0.5t14 -4.5q6 -4 10 -15v-15q2 -5 1.5 -11.5t-0.5 -11.5v-26t-4 -22q-4 -8 -9 -13.5l-10 -11.5q-6 -8 -13 -15.5t-13 -15.5q-2 -2 -4 -3.5t-4 -3.5q-5 -7 -11.5 -13t-11.5 -13q-16 -21 -34 -39t-34 -39l-8 -8q-5 -7 -11.5 -13t-11.5 -13
t-11.5 -13t-11.5 -12l-9.5 -11l-9.5 -11q-4 -5 -8 -9.5t-8 -9.5q-4 -4 -7 -8t-5 -9q-1 -2 -1.5 -5t1.5 -5q2 -6 7 -6.5t11 -2.5q10 -2 22.5 -1.5t23.5 0.5h147q18 0 34 -1t21 -15q2 -5 2 -11v-13v-34t-9 -26q-6 -5 -15 -5h-20h-62h-255h-68h-20.5t-16.5 5q-6 5 -7 16t-1 22
q0 14 -0.5 30.5t3.5 27.5q2 6 5 11.5t7 10.5l16 17.5t16 18.5q5 5 8 7q14 19 30 35t30 34q4 5 8 9t7 9q5 7 11.5 12.5t11.5 13.5q2 2 4 3.5t4 3.5q5 8 11.5 14t11.5 13q2 3 5.5 6t6.5 6q8 11 17 20t17 19q5 7 11.5 13t8.5 15q2 6 -1.5 9t-6.5 5q-11 5 -26.5 4.5t-29.5 -0.5
h-108q-12 0 -25.5 -0.5t-21.5 4.5q-9 5 -10 19t-1 28q0 5 -0.5 11t0.5 11v8q1 3 1.5 7t2.5 6q6 8 13 9q2 1 5 0.5t5 1.5z" />
    <glyph glyph-name="braceleft" unicode="{" horiz-adv-x="333" 
d="M209 731h81q11 0 21 -1t15 -7q6 -8 5.5 -24.5t-0.5 -30.5v-20.5t-4 -16.5q-4 -6 -10.5 -7.5t-14.5 -2t-16.5 -0.5t-16.5 -2q-32 -8 -42 -41q-4 -12 -3.5 -27.5t0.5 -30.5v-72q0 -8 0.5 -17.5t-1.5 -17.5v-25q-2 -8 -2 -16.5t-2 -16.5q-5 -14 -12.5 -28.5t-18.5 -22.5
q-6 -5 -13 -9t-14 -9q-2 -2 -2.5 -3.5t-2.5 -3.5q0 -2 -0.5 -4.5t1.5 -4.5q3 -5 13.5 -11.5t15.5 -11.5q14 -10 22 -25t13 -34q2 -7 2 -14.5v-15.5v-14q2 -8 1.5 -18.5t-0.5 -18.5v-77q0 -23 1.5 -42t9.5 -33q8 -11 17.5 -15.5t24.5 -7.5h6q3 -1 7 -0.5t8 -0.5h9
q16 -3 20 -10q4 -6 4 -15.5v-19.5v-39t-15 -24q-5 -2 -12.5 -2h-15.5h-49q-12 0 -25 -0.5t-24 2.5q-38 9 -61.5 30.5t-37.5 54.5q-2 7 -3 14t-3 15q0 3 -0.5 5.5t-0.5 5.5q-2 10 -1.5 23.5t0.5 24.5v112q0 8 1 17.5t-1 17.5q-2 5 -1 10t-1 10q-5 20 -15 33t-26 23
q-8 4 -15.5 6.5t-13.5 5t-11 7.5t-7 16v20v18.5t3 16.5q6 10 21.5 14.5t25.5 11.5q11 7 20 17.5t14 22.5q6 16 6 38v44v100q0 33 2.5 60t15.5 47q25 42 69 59q5 2 11 3.5t12 3.5q3 0 8.5 -0.5t7.5 1.5z" />
    <glyph glyph-name="bar" unicode="|" horiz-adv-x="223" 
d="M59 -174v696v176q0 21 -0.5 43t5.5 35q3 5 10.5 7t16.5 2t18 -0.5t15 -0.5h21q9 -3 15 -9q5 -12 4.5 -31t-0.5 -37v-160v-508v-155v-38q0 -5 0.5 -11t-0.5 -11q-1 -3 -0.5 -6t-0.5 -8q-2 -11 -8 -17q-3 -3 -10 -4t-15 -1t-16 0.5t-14 0.5q-8 0 -17.5 -0.5t-14.5 4.5
q-6 8 -9 22v11z" />
    <glyph glyph-name="braceright" unicode="}" horiz-adv-x="333" 
d="M123 -180h-81q-11 0 -21 1t-15 7q-6 8 -5.5 24.5t0.5 30.5v20.5t4 16.5q4 6 10.5 7.5t14.5 2t16.5 0.5t16.5 2q32 8 42 41q4 12 3.5 27.5t-0.5 30.5v72q0 8 -0.5 17.5t1.5 17.5v25q2 8 2 16.5t2 16.5q5 14 12.5 28.5t18.5 22.5q6 5 13 9t14 9q2 2 2.5 3.5t2.5 3.5
q0 2 0.5 4.5t-1.5 4.5q-3 5 -13.5 11.5t-15.5 11.5q-14 10 -22 25t-13 34q-2 7 -2 14.5v15.5v14q-2 8 -1.5 18.5t0.5 18.5v77q0 23 -1.5 42t-9.5 33q-8 11 -17.5 15.5t-24.5 7.5h-6q-3 1 -7 0.5t-8 0.5h-9q-16 3 -20 10q-4 6 -4 15.5v19.5v39t15 24q5 2 12.5 2h15.5h49
q12 0 25 0.5t24 -2.5q38 -9 61.5 -30.5t37.5 -54.5q2 -7 3 -14t3 -15q0 -3 0.5 -5.5t0.5 -5.5q2 -10 1.5 -23.5t-0.5 -24.5v-112q0 -8 -1 -17.5t1 -17.5q2 -5 1 -10t1 -10q5 -20 15 -33t26 -23q8 -5 15.5 -7t13.5 -4.5t11 -8t7 -15.5v-20v-18.5t-3 -16.5q-6 -10 -21.5 -14.5
t-25.5 -11.5q-11 -7 -20 -17.5t-14 -22.5q-6 -16 -6 -38v-44v-100q0 -33 -2.5 -60t-15.5 -47q-25 -42 -69 -59q-5 -2 -11 -3.5t-12 -3.5q-3 0 -8.5 0.5t-7.5 -1.5z" />
    <glyph glyph-name="asciitilde" unicode="~" horiz-adv-x="600" 
d="M188 339q27 1 48.5 -6t40.5 -15q17 -6 32 -13q17 -7 33.5 -14.5t34.5 -13.5q8 -2 22 -4q6 -2 12.5 -1t10.5 3q27 9 43 29l3 3q3 4 6.5 8t8.5 7q2 1 4 2.5t5 0.5q7 -2 10 -6.5t6 -9.5q5 -10 9.5 -20.5t8.5 -21.5q4 -10 1 -20t-9 -16.5t-11 -14.5q-25 -33 -68 -46
q-5 -2 -16.5 -3.5t-16.5 0.5h-10q-4 1 -7.5 0.5t-6.5 0.5l-16 4t-16 6q-23 9 -43.5 21t-43.5 21q-9 4 -18.5 6t-20.5 5q-4 1 -8 1t-8 1q-5 1 -13 0.5t-12 -1.5q-3 -1 -5.5 -1t-5.5 -1q-11 -4 -21.5 -11t-17.5 -15q-2 -2 -5 -6.5t-6.5 -8t-8 -6t-8.5 -0.5q-8 4 -12.5 14.5
t-7.5 18.5q-4 8 -7 15.5t-5 17.5q-2 8 3 16.5t8 12.5q11 17 25.5 30.5t34.5 21.5q6 2 13 3.5t15 3.5q3 1 8.5 0.5t7.5 1.5z" />
    <glyph glyph-name="Adieresis" unicode="&#xc4;" horiz-adv-x="685" 
d="M673 48q1 -4 3.5 -10t4 -12.5t0.5 -12.5t-7 -9q-8 -5 -26.5 -4t-30.5 1h-47q-8 0 -14.5 -0.5t-12.5 1.5q-11 3 -16 12q-5 8 -7.5 17t-6.5 18l-10.5 32t-11.5 31l-5.5 16.5t-5.5 13.5t-9 10.5t-16 6.5q-5 0 -9.5 0.5t-9.5 0.5h-158q-17 0 -36.5 0.5t-30.5 -7.5
q-8 -6 -11 -16t-7 -20q-8 -17 -13.5 -35.5t-12.5 -36.5q-4 -10 -7.5 -21t-11.5 -17q-5 -4 -14.5 -5.5t-21 -1.5t-23.5 0.5t-21 0.5q-13 0 -31.5 -0.5t-26.5 4.5q-5 3 -5.5 9t1 12.5t3.5 12.5t4 10q10 23 18.5 47t17.5 47q4 8 6 16t6 16l16 43l16 43q8 20 15 39.5t15 39.5
q23 55 42.5 111t42.5 111q2 5 3 9t3 9l16 43t17 43q5 11 8.5 22.5t12.5 18.5q5 3 13 5q2 1 4 0.5t4 0.5h88q11 0 22.5 0.5t18.5 -4.5q11 -6 14.5 -17.5t8.5 -23.5q7 -17 13 -33.5t13 -33.5l4 -12l4 -12q8 -20 15 -39.5t15 -39.5q20 -50 37.5 -101t38.5 -101q2 -4 2.5 -7.5
t2.5 -7.5l12 -32l12 -32q4 -8 6 -15.5t5 -15.5q13 -32 24 -64t24 -63q2 -3 2 -5.5t2 -5.5zM414 277q13 5 12 17t-6 23q-2 4 -2 7.5t-2 7.5q-13 34 -24 69t-25 70q-2 5 -4 12.5t-5 14t-7 11.5t-10 5q-2 -2 -4 -3t-4 -3q-8 -10 -11.5 -24t-8.5 -27q-12 -28 -21.5 -57
t-20.5 -58q-4 -10 -7 -19.5t-6 -20.5q-3 -8 1 -18q5 -7 16.5 -8t23.5 -1h76h20t19 2zM296 905q9 -7 8.5 -26.5t-0.5 -35.5q0 -5 0.5 -11t-0.5 -11q-2 -7 -2.5 -12t-5.5 -8q-6 -5 -14.5 -5.5t-19.5 -0.5h-53q-9 0 -17.5 1.5t-13.5 6.5q-7 10 -6.5 30.5t0.5 37.5q0 8 0.5 16
t3.5 13q4 6 15 10q7 0 8 1h62q11 0 20 -0.5t15 -5.5zM502 904q8 -6 8 -26v-35q0 -5 0.5 -10.5t-1.5 -10.5v-5q-1 -4 -2.5 -8.5t-4.5 -6.5q-6 -5 -15 -6t-20 -1h-52q-10 0 -19 1.5t-13 7.5q-7 9 -6.5 30.5t0.5 37.5q0 8 0.5 15.5t3.5 12.5q4 6 15 10q7 0 8 1h62q11 0 20.5 -1
t15.5 -6z" />
    <glyph glyph-name="Aring" unicode="&#xc5;" horiz-adv-x="685" 
d="M673 48q1 -4 3.5 -10t4 -12.5t0.5 -12.5t-7 -9q-8 -5 -26.5 -4t-30.5 1h-47q-8 0 -14.5 -0.5t-12.5 1.5q-11 3 -16 12q-5 8 -7.5 17t-6.5 18l-10.5 32t-11.5 31l-5.5 16.5t-5.5 13.5t-9 10.5t-16 6.5q-5 0 -9.5 0.5t-9.5 0.5h-158q-17 0 -36.5 0.5t-30.5 -7.5
q-8 -6 -11 -16t-7 -20q-8 -17 -13.5 -35.5t-12.5 -36.5q-4 -10 -7.5 -21t-11.5 -17q-5 -4 -14.5 -5.5t-21 -1.5t-23.5 0.5t-21 0.5q-13 0 -31.5 -0.5t-26.5 4.5q-5 3 -5.5 9t1 12.5t3.5 12.5t4 10q10 23 18.5 47t17.5 47q4 8 6 16t6 16l16 43l16 43q8 20 15 39.5t15 39.5
q23 55 42.5 111t42.5 111q2 5 3 9t3 9l16 43t17 43q5 11 8.5 22.5t12.5 18.5q5 3 13 5q2 1 4 0.5t4 0.5h88q11 0 22.5 0.5t18.5 -4.5q11 -6 14.5 -17.5t8.5 -23.5q7 -17 13 -33.5t13 -33.5l4 -12l4 -12q8 -20 15 -39.5t15 -39.5q20 -50 37.5 -101t38.5 -101q2 -4 2.5 -7.5
t2.5 -7.5l12 -32l12 -32q4 -8 6 -15.5t5 -15.5q13 -32 24 -64t24 -63q2 -3 2 -5.5t2 -5.5zM414 277q13 5 12 17t-6 23q-2 4 -2 7.5t-2 7.5q-13 34 -24 69t-25 70q-2 5 -4 12.5t-5 14t-7 11.5t-10 5q-2 -2 -4 -3t-4 -3q-8 -10 -11.5 -24t-8.5 -27q-12 -28 -21.5 -57
t-20.5 -58q-4 -10 -7 -19.5t-6 -20.5q-3 -8 1 -18q5 -7 16.5 -8t23.5 -1h76h20t19 2zM454 897q8 -20 8 -45.5t-8 -45.5q-21 -47 -69 -66q-6 -2 -12 -3t-12 -3q-3 -1 -6.5 -1t-6.5 -1t-7.5 -0.5t-6.5 1.5q-4 1 -7 0t-6 1q-14 3 -28 8q-27 12 -42.5 30.5t-26.5 47.5
q-3 8 -6 21t1 26q2 6 3 12t3 12q11 26 27.5 44.5t42.5 29.5q6 2 12.5 3.5t13.5 3.5q2 1 7 0.5t7 1.5q48 1 76.5 -22t42.5 -55zM404 839q2 11 0.5 22.5t-4.5 19.5q-8 20 -23 30.5t-43 10.5q-1 -1 -2.5 -0.5t-3.5 -0.5q-3 -1 -11 -3q-13 -5 -21.5 -15.5t-13.5 -24.5
q-1 -5 -3 -13q-2 -7 -1.5 -15.5t2.5 -13.5q5 -17 12.5 -27.5t21.5 -18.5q5 -3 15.5 -5.5t18.5 -0.5q38 8 51 37q2 4 2.5 8.5t2.5 9.5z" />
    <glyph glyph-name="Ccedilla" unicode="&#xc7;" horiz-adv-x="741" 
d="M382 737q11 0 20 -1.5t18 -3.5q3 -1 8 -1q8 -2 16.5 -3.5t16.5 -3.5q5 -2 10 -2.5t10 -2.5q11 -4 22 -7t22 -8q84 -35 131 -111q11 -17 18.5 -36t14.5 -41q2 -9 2 -20t-7 -16q-2 -2 -6 -3l-8 -2h-11q-7 -2 -15 -1t-15 1h-33q-5 0 -9.5 -0.5t-7.5 0.5h-11q-3 1 -6.5 1.5
t-5.5 1.5q-11 5 -17 20.5t-13 26.5q-16 26 -39.5 42.5t-56.5 26.5q-17 5 -36 5q-2 0 -5.5 1t-6.5 0q-2 -1 -4.5 -0.5t-5.5 -0.5q-7 -2 -13.5 -2t-13.5 -2q-38 -10 -67 -29q-24 -18 -40.5 -45t-27.5 -59q-4 -12 -6 -24t-5 -25l-2 -16l-2 -16v-9q-1 -5 -1 -17t1 -17v-9
q2 -8 2.5 -17t1.5 -17q2 -5 2 -10t2 -10q5 -18 10.5 -35t13.5 -32q18 -29 39 -48.5t55 -33.5q9 -4 22.5 -6.5t28.5 -4t30 -0.5t27 4q17 5 29.5 10.5t26.5 15.5q5 3 10 6.5t8 8.5q5 7 10 12.5t9 12.5q5 8 9 17.5l8 18.5q5 11 7.5 26t11.5 21q6 5 15.5 5.5t20.5 0.5h66
q13 0 23 -1.5t14 -10.5q2 -6 1.5 -14.5t-2.5 -14.5q-2 -4 -1.5 -7.5t-1.5 -7.5q-7 -26 -15 -46q-7 -18 -13 -31l-9.5 -15l-9.5 -15q-34 -49 -84 -80q-13 -8 -27 -14l-29 -13q-12 -5 -25 -7.5t-26 -5.5q-7 -1 -13 -2t-13 -2q-8 0 -12 -1q-12 -2 -22 -6t-10 -18l3.5 -3.5
l3.5 -3.5q5 -2 9 -1.5t9 -1.5q7 -2 13.5 -2t12.5 -2q23 -8 36.5 -20t19.5 -37v-4q3 -13 -1 -26.5t-7 -21.5q-8 -17 -21 -28t-30 -18q-5 -2 -11 -3.5t-12 -3.5q-16 -5 -37.5 -6t-38.5 4q-8 2 -18 3.5t-20 4t-18 6t-12 9.5q-7 10 -1 22t14 15q5 3 10 1q11 -2 25.5 -5.5t29 -4
t27 2t19.5 12.5q3 5 5.5 13t-0.5 16q-6 16 -25 21q-4 1 -12 1q-8 1 -15 -1q-11 -2 -20 1t-13 9q-2 3 -3 8.5t1 10.5t5 9.5t6 9.5l4 6t4 7q3 5 4.5 11.5t-2.5 11.5t-10.5 6.5t-13.5 3.5q-13 4 -25.5 6.5t-24.5 7.5q-20 8 -38 18t-35 21q-9 6 -16.5 13l-15.5 14q-4 2 -7 5.5
t-6 7.5q-6 6 -9 10l-10 12t-10 13l-16.5 25t-14.5 27l-7.5 19.5t-7.5 18.5q-4 10 -6.5 20l-5.5 21q-3 10 -4 21t-3 22q-1 3 -1 6.5v6.5q-2 5 -1.5 10t-0.5 10v11q-2 5 -2 15t2 15v11q1 5 0.5 10t1.5 9q0 9 1 14q2 11 3 21.5t4 20.5l4 16.5l4 16.5l15.5 40t18.5 38
q6 10 12.5 19l13.5 18q3 5 6.5 8.5t6.5 8.5q3 3 5 4q5 8 12 14.5t15 12.5q2 1 3.5 2.5l3.5 3.5l13.5 10t14.5 10q20 13 42 22t47 17q16 5 33 7.5t34 7.5q12 2 20 4q6 0 8 1z" />
    <glyph glyph-name="Eacute" unicode="&#xc9;" horiz-adv-x="648" 
d="M96 713h374h87q12 0 23 -1t16 -8q2 -3 2.5 -7t2.5 -8v-11q1 -7 0.5 -15t-0.5 -15q0 -8 0.5 -15.5t-0.5 -14.5q-1 -5 -1 -15q-3 -12 -10 -16q-6 -4 -15 -4h-19h-69h-181q-8 0 -18.5 0.5t-21 0t-19.5 -2t-13 -4.5q-7 -5 -8.5 -14.5t-1.5 -21.5v-57v-29q2 -8 4 -13.5t7 -8.5
q6 -4 14 -4.5t17 -0.5h54h172q7 0 17.5 0.5t20.5 0t18.5 -1.5t12.5 -4q5 -3 7 -12t2.5 -19.5t0 -21.5t-0.5 -19v-14t-2 -12q-2 -8 -8 -13q-5 -3 -13.5 -4t-19 -1t-21 0.5t-17.5 0.5h-195q-12 0 -23 0.5t-20.5 -1t-16 -6t-9.5 -13.5q-1 -5 -1 -10.5v-10.5v-38v-56
q0 -12 1.5 -21.5t8.5 -14.5q3 -3 7.5 -3.5t9.5 -2.5h10q5 -1 11 -0.5t11 0.5h42h188h53h15.5t13.5 -3q8 -3 11 -11q2 -5 2.5 -12t0.5 -15v-46q0 -12 -1 -22.5t-9 -15.5q-6 -5 -15.5 -5h-20.5h-75h-296h-79q-14 0 -24.5 1.5t-15.5 9.5q-4 6 -4 15.5v18.5v72v272v218v62v18
t4 14q4 7 15 10q2 1 4 0.5t4 0.5zM368 920h71h19t16 -3q2 -1 2.5 -2.5t2.5 -2.5q1 -12 -9.5 -21t-17.5 -16q-8 -7 -15.5 -14.5t-15.5 -13.5q-4 -3 -6.5 -6.5t-6.5 -5.5q-2 -3 -5 -5q-5 -5 -10 -9.5t-10 -8.5q-2 -2 -2.5 -3t-2.5 -3q-8 -6 -15.5 -13t-18.5 -11q-4 -1 -7.5 -1
t-8.5 -1q-3 -1 -8 -0.5t-9 0.5h-23t-18 5q-6 4 -3 14q2 8 7 14.5t9 13.5l19 27l18 27l10.5 17t12.5 14q4 3 14 7q2 1 5.5 0.5t5.5 0.5z" />
    <glyph glyph-name="Ntilde" unicode="&#xd1;" horiz-adv-x="741" 
d="M97 713h81q11 0 21.5 0.5t18.5 -3.5q10 -4 15.5 -12l10.5 -16l36 -57l70.5 -113.5l70.5 -113.5l33.5 -54.5t34.5 -53.5q4 -6 7.5 -12t9.5 -11q2 -2 5 -4t6 0q7 2 7 9t2 15q1 7 0.5 15.5t-0.5 16.5v63v232v38q0 5 -0.5 10t0.5 9v11q0 14 6 22q5 7 13.5 8t19.5 1h61h16
t14 -2q13 -5 14 -17.5t1 -29.5v-110v-419v-84q0 -11 0.5 -22t-3.5 -17t-9.5 -7.5t-13.5 -3.5h-35h-55h-17.5t-14.5 3q-11 5 -17 13.5t-12 18.5l-17.5 28.5l-17.5 28.5l-150 240l-27.5 44.5l-27.5 44.5q-5 7 -11.5 17.5t-17.5 10.5q-8 -7 -8.5 -16t-0.5 -23v-70v-239v-39
q0 -5 0.5 -10t-1.5 -10v-11q0 -16 -5 -23q-5 -6 -13.5 -7t-19.5 -1h-61h-16t-14 2q-13 5 -14.5 18t-1.5 30v115v401v93v23t4 19t14 10q2 0 4.5 0.5t4.5 0.5zM511 910q17 1 27.5 -4.5t5.5 -23.5q-2 -3 -2.5 -6t-1.5 -5q-8 -17 -18 -32.5t-25 -25.5q-11 -7 -30 -12
q-9 -3 -25 -3t-26 3q-8 2 -14.5 2.5t-14.5 2.5q-14 5 -28.5 9.5t-28.5 9.5q-7 2 -13.5 2.5t-13.5 2.5q-8 2 -16 0q-2 -1 -7 -1q-5 -2 -8 -4.5t-7 -4.5l-3 -3q-5 -6 -10.5 -13.5t-13.5 -10.5q-11 -5 -24 -2.5t-17 10.5q-2 5 -1 11t3 10q4 11 8 20.5t10 18.5q19 28 49 41
q5 2 10.5 2.5t10.5 2.5q10 2 24 2.5t24 -2.5q19 -5 35.5 -12t33.5 -12q8 -3 15 -4t15 -3q6 -1 13 1t11.5 2.5t9.5 3.5q7 4 11.5 10t11.5 11q5 3 12 5q2 1 4 0.5t4 0.5z" />
    <glyph glyph-name="Odieresis" unicode="&#xd6;" horiz-adv-x="778" 
d="M738 381q2 -6 2.5 -20.5t-1.5 -20.5v-13q-2 -10 -2 -21t-2 -22q-2 -7 -3 -14t-3 -14l-9.5 -35t-11.5 -33q-30 -70 -81 -116.5t-126 -71.5q-11 -4 -22 -6l-22 -4q-5 -2 -10.5 -2t-10.5 -1l-33 -3q-4 -1 -14 -0.5t-13 1.5q-5 1 -9.5 0.5t-9.5 0.5h-11q-8 2 -15 2.5t-15 2.5
t-16 3.5t-16 3.5l-22.5 8t-22.5 9q-60 26 -101.5 69.5t-67.5 103.5q-6 14 -10 29.5t-9 31.5q-2 5 -2 8.5t-1 7.5q-2 7 -3 14.5t-3 15.5q-1 5 -0.5 9.5t-1.5 8.5q-1 6 0 12.5t0 12.5q-2 5 -2 15.5t2 15.5q1 5 0 9.5t0 9.5v6q2 7 1.5 13.5t1.5 12.5q2 5 2 10.5t2 10.5
q5 17 8 33.5t9 32.5q8 17 15 34t17 32q30 48 69 80t95 55q13 5 27.5 8t28.5 7q5 2 9.5 2t9.5 1l30 3q2 1 5.5 0t5.5 0q71 2 123 -14.5t93 -45.5q13 -9 27 -20.5t23 -23.5l10 -10.5t9 -10.5l22 -32.5t19 -35.5q6 -14 10.5 -27l9.5 -28q3 -10 5 -20.5t5 -21.5q2 -7 2 -13.5
t2 -12.5t1.5 -12.5t0.5 -11.5v-8zM583 339q2 5 2 14.5t-2 14.5v17q-1 4 -0.5 7.5t-1.5 7.5q-2 8 -2.5 15.5t-2.5 14.5q0 5 -2 11l-6 22t-8 22q-22 51 -63.5 82.5t-115.5 31.5q-2 -1 -4.5 -0.5t-4.5 -0.5q-4 -1 -8 -0.5t-9 -1.5q-11 -2 -21.5 -4.5t-19.5 -6.5
q-42 -18 -66.5 -50t-39.5 -77q-3 -11 -4.5 -21.5t-4.5 -21.5q-1 -4 -1 -7.5t-1 -7.5q-2 -5 -1 -11t0 -11q-2 -5 -2.5 -18.5t1.5 -18.5v-11q1 -4 1 -8.5t1 -8.5q0 -4 0.5 -7.5t0.5 -7.5q3 -11 4.5 -22t5.5 -21q11 -32 27 -59.5t40 -44.5q5 -5 10.5 -8l11.5 -6q11 -7 23.5 -11
t26.5 -8q5 -2 9.5 -1.5t9.5 -0.5q6 -2 12 -2h13h8q5 1 9 0.5t9 1.5q10 2 20 3.5t19 5.5q43 17 67.5 44t41.5 70q5 11 7.5 24t6.5 26l3 24q1 4 1 8.5v9.5v8zM345 905q9 -7 8.5 -26.5t-0.5 -35.5q0 -5 0.5 -11t-0.5 -11q-2 -7 -2.5 -12t-5.5 -8q-6 -5 -14.5 -5.5t-19.5 -0.5
h-53q-9 0 -17.5 1.5t-13.5 6.5q-7 10 -6.5 30.5t0.5 37.5q0 8 0.5 16t3.5 13q4 6 15 10q7 0 8 1h62q11 0 20 -0.5t15 -5.5zM551 904q8 -6 8 -26v-35q0 -5 0.5 -10.5t-1.5 -10.5v-5q-1 -4 -2.5 -8.5t-4.5 -6.5q-6 -5 -15 -6t-20 -1h-52q-10 0 -19 1.5t-13 7.5q-7 9 -6.5 30.5
t0.5 37.5q0 8 0.5 15.5t3.5 12.5q4 6 15 10q7 0 8 1h62q11 0 20.5 -1t15.5 -6z" />
    <glyph glyph-name="Udieresis" unicode="&#xdc;" horiz-adv-x="741" 
d="M335 911v-117h-135v117h135zM541 911v-117h-135v117h135zM93 714h85q11 0 21.5 -1t15.5 -7q5 -8 5.5 -20.5t0.5 -25.5v-101v-206v-35q0 -4 -0.5 -8.5t0.5 -8.5v-16q0 -9 -0.5 -19t1.5 -18q0 -7 1 -11q2 -11 3.5 -22t5.5 -22q11 -26 28.5 -43t46.5 -27q8 -2 16 -3t16 -3
q5 -2 9 -1.5t9 -0.5q4 -1 13 -0.5t12 1.5h15q8 2 16 3t15 3q14 3 22 7q18 8 31.5 21.5t21.5 30.5q11 26 13 61.5t2 73.5v199v134q0 14 -0.5 31t5.5 25q5 6 14 7.5t20 1.5h64q8 0 15.5 0.5t14.5 -1.5q14 -3 18 -10q5 -8 4.5 -22.5t-0.5 -26.5v-134v-202q0 -38 -1 -74t-9 -65
q-14 -47 -35.5 -81.5t-56.5 -58.5q-31 -22 -73 -36q-9 -3 -18.5 -5l-18.5 -4q-6 -2 -11.5 -2t-11.5 -2q-12 -2 -27 -3t-29 -1q-95 -1 -162 23.5t-105 79.5q-13 18 -21.5 37.5t-15.5 42.5q-2 5 -2 8.5t-2 8.5q-8 28 -8 63v70v279v70v19.5t3 15.5q6 7 16 10h4t4 1z" />
    <glyph glyph-name="aacute" unicode="&#xe1;" horiz-adv-x="574" 
d="M522 40q-1 3 -1 6.5t-1 6.5q-4 16 -4 35.5v38.5v223q0 23 -1 45t-8 39q-12 29 -34 47.5t-52.5 29.5t-68 15t-78.5 3q-2 -2 -10.5 -1t-12.5 0q-13 -3 -26 -4t-25 -4q-20 -6 -39 -12.5t-36 -17.5q-5 -3 -9 -6l-9 -7q-4 -4 -6 -5q-12 -10 -20 -21l-6 -10l-6 -10
q-5 -8 -8.5 -17.5t-6.5 -20.5q-1 -4 -2 -9t0 -10q3 -11 11 -13q2 -2 5 -2t5 -1h9q4 -1 9 -0.5t10 0.5h38h18t17 2q11 3 14.5 12t8.5 19q2 6 7.5 13t10.5 11t10.5 7.5t11.5 5.5q9 3 21 5t25 2.5t25.5 -1t21.5 -4.5q32 -11 42 -41q1 -3 1.5 -7t1.5 -8v-6t-1 -6t-0.5 -4
t-0.5 -5q-3 -11 -12 -20q-14 -14 -31.5 -17.5t-38.5 -8.5q-8 -2 -15 -2t-14 -2q-8 -2 -15 -1.5t-14 -1.5q-9 -2 -18 -2.5t-17 -2.5q-14 -3 -28 -5t-27 -7q-34 -11 -56 -26t-39 -44q-5 -9 -8 -20.5l-6 -22.5q0 -7 -2 -17q-1 -4 -0.5 -13.5t1.5 -12.5q1 -5 0.5 -10t1.5 -10
q2 -9 4.5 -17t5.5 -15q12 -29 32.5 -46.5t49.5 -28.5q8 -4 17 -5.5t19 -3.5q6 -2 12.5 -1.5t13.5 -1.5h9q10 -2 20 0h11q3 0 6 0.5t6 0.5q7 1 13.5 1.5t13.5 2.5l29 7.5t27 9.5l12 6t11 7q5 2 9.5 5t9.5 5q5 1 8 -0.5t5 -3.5q6 -5 9.5 -12.5t10.5 -11.5q5 -4 13.5 -4.5
t17.5 -0.5h54h16t14 3q11 4 10.5 15t-2.5 22zM375 194v-9q-2 -8 -2.5 -15.5t-2.5 -14.5q-8 -26 -23 -43.5t-41 -25.5q-16 -5 -34.5 -6.5t-35 1.5t-30.5 9.5t-21 17.5q-9 11 -11 28q-4 32 10.5 50t35.5 27q7 3 14 4.5t15 3.5q12 4 25 5t26 4q6 0 9 1q8 2 16 3t15 3q4 1 7 1.5
t7 1.5q10 0 15 -4q4 -3 4 -8t2 -11q1 -5 1 -11.5t-1 -11.5zM329 721h71h19t16 -3q2 -1 2.5 -2.5t2.5 -2.5q1 -12 -9.5 -21t-17.5 -16q-8 -7 -15.5 -14.5t-15.5 -13.5q-4 -3 -6.5 -6.5t-6.5 -5.5q-2 -3 -5 -5q-5 -5 -10 -9.5t-10 -8.5q-2 -2 -2.5 -3t-2.5 -3q-8 -6 -15.5 -13
t-18.5 -11q-4 -1 -7.5 -1t-8.5 -1q-3 -1 -8 -0.5t-9 0.5h-23t-18 5q-6 4 -3 14q2 8 7 14.5t9 13.5l19 27l18 27l10.5 17t12.5 14q4 3 14 7q2 1 5.5 0.5t5.5 0.5z" />
    <glyph glyph-name="agrave" unicode="&#xe0;" horiz-adv-x="574" 
d="M522 40q-1 3 -1 6.5t-1 6.5q-4 16 -4 35.5v38.5v223q0 23 -1 45t-8 39q-12 29 -34 47.5t-52.5 29.5t-68 15t-78.5 3q-2 -2 -10.5 -1t-12.5 0q-13 -3 -26 -4t-25 -4q-20 -6 -39 -12.5t-36 -17.5q-5 -3 -9 -6l-9 -7q-4 -4 -6 -5q-12 -10 -20 -21l-6 -10l-6 -10
q-5 -8 -8.5 -17.5t-6.5 -20.5q-1 -4 -2 -9t0 -10q3 -11 11 -13q2 -2 5 -2t5 -1h9q4 -1 9 -0.5t10 0.5h38h18t17 2q11 3 14.5 12t8.5 19q2 6 7.5 13t10.5 11t10.5 7.5t11.5 5.5q9 3 21 5t25 2.5t25.5 -1t21.5 -4.5q32 -11 42 -41q1 -3 1.5 -7t1.5 -8v-6t-1 -6t-0.5 -4
t-0.5 -5q-3 -11 -12 -20q-14 -14 -31.5 -17.5t-38.5 -8.5q-8 -2 -15 -2t-14 -2q-8 -2 -15 -1.5t-14 -1.5q-9 -2 -18 -2.5t-17 -2.5q-14 -3 -28 -5t-27 -7q-34 -11 -56 -26t-39 -44q-5 -9 -8 -20.5l-6 -22.5q0 -7 -2 -17q-1 -4 -0.5 -13.5t1.5 -12.5q1 -5 0.5 -10t1.5 -10
q2 -9 4.5 -17t5.5 -15q12 -29 32.5 -46.5t49.5 -28.5q8 -4 17 -5.5t19 -3.5q6 -2 12.5 -1.5t13.5 -1.5h9q10 -2 20 0h11q3 0 6 0.5t6 0.5q7 1 13.5 1.5t13.5 2.5l29 7.5t27 9.5l12 6t11 7q5 2 9.5 5t9.5 5q5 1 8 -0.5t5 -3.5q6 -5 9.5 -12.5t10.5 -11.5q5 -4 13.5 -4.5
t17.5 -0.5h54h16t14 3q11 4 10.5 15t-2.5 22zM375 194v-9q-2 -8 -2.5 -15.5t-2.5 -14.5q-8 -26 -23 -43.5t-41 -25.5q-16 -5 -34.5 -6.5t-35 1.5t-30.5 9.5t-21 17.5q-9 11 -11 28q-4 32 10.5 50t35.5 27q7 3 14 4.5t15 3.5q12 4 25 5t26 4q6 0 9 1q8 2 16 3t15 3q4 1 7 1.5
t7 1.5q10 0 15 -4q4 -3 4 -8t2 -11q1 -5 1 -11.5t-1 -11.5zM157 722h67h19.5t16.5 -3q11 -4 17 -12.5t11 -16.5q8 -11 15.5 -22.5t15.5 -22.5q6 -9 13 -18t12 -20q2 -4 2.5 -9t-1.5 -9q-4 -5 -14 -7h-6q-4 -1 -9 -0.5t-10 0.5h-20.5t-17.5 3q-10 4 -16.5 10t-14.5 12l-5 5
q-15 11 -27.5 25t-27.5 25l-6 6t-6 7q-5 4 -9.5 8.5l-9.5 9.5l-7.5 7.5t-3.5 11.5q2 3 3.5 4.5t4.5 3.5q4 1 7 1t7 1z" />
    <glyph glyph-name="acircumflex" unicode="&#xe2;" horiz-adv-x="574" 
d="M522 40q-1 3 -1 6.5t-1 6.5q-4 16 -4 35.5v38.5v223q0 23 -1 45t-8 39q-12 29 -34 47.5t-52.5 29.5t-68 15t-78.5 3q-2 -2 -10.5 -1t-12.5 0q-13 -3 -26 -4t-25 -4q-20 -6 -39 -12.5t-36 -17.5q-5 -3 -9 -6l-9 -7q-4 -4 -6 -5q-12 -10 -20 -21l-6 -10l-6 -10
q-5 -8 -8.5 -17.5t-6.5 -20.5q-1 -4 -2 -9t0 -10q3 -11 11 -13q2 -2 5 -2t5 -1h9q4 -1 9 -0.5t10 0.5h38h18t17 2q11 3 14.5 12t8.5 19q2 6 7.5 13t10.5 11t10.5 7.5t11.5 5.5q9 3 21 5t25 2.5t25.5 -1t21.5 -4.5q32 -11 42 -41q1 -3 1.5 -7t1.5 -8v-6t-1 -6t-0.5 -4
t-0.5 -5q-3 -11 -12 -20q-14 -14 -31.5 -17.5t-38.5 -8.5q-8 -2 -15 -2t-14 -2q-8 -2 -15 -1.5t-14 -1.5q-9 -2 -18 -2.5t-17 -2.5q-14 -3 -28 -5t-27 -7q-34 -11 -56 -26t-39 -44q-5 -9 -8 -20.5l-6 -22.5q0 -7 -2 -17q-1 -4 -0.5 -13.5t1.5 -12.5q1 -5 0.5 -10t1.5 -10
q2 -9 4.5 -17t5.5 -15q12 -29 32.5 -46.5t49.5 -28.5q8 -4 17 -5.5t19 -3.5q6 -2 12.5 -1.5t13.5 -1.5h9q10 -2 20 0h11q3 0 6 0.5t6 0.5q7 1 13.5 1.5t13.5 2.5l29 7.5t27 9.5l12 6t11 7q5 2 9.5 5t9.5 5q5 1 8 -0.5t5 -3.5q6 -5 9.5 -12.5t10.5 -11.5q5 -4 13.5 -4.5
t17.5 -0.5h54h16t14 3q11 4 10.5 15t-2.5 22zM375 194v-9q-2 -8 -2.5 -15.5t-2.5 -14.5q-8 -26 -23 -43.5t-41 -25.5q-16 -5 -34.5 -6.5t-35 1.5t-30.5 9.5t-21 17.5q-9 11 -11 28q-4 32 10.5 50t35.5 27q7 3 14 4.5t15 3.5q12 4 25 5t26 4q6 0 9 1q8 2 16 3t15 3q4 1 7 1.5
t7 1.5q10 0 15 -4q4 -3 4 -8t2 -11q1 -5 1 -11.5t-1 -11.5zM244 722h65h20.5t17.5 -3q9 -4 15 -11t11 -15l18.5 -23.5l18.5 -23.5l12.5 -16l12.5 -16l6 -10t2 -13q-2 -2 -2.5 -3t-1.5 -2q-5 -4 -13.5 -4h-16.5h-39.5t-30.5 9q-4 3 -7 7.5t-6 8.5q-5 6 -9.5 12t-9.5 12
l-10 11.5t-13 7.5q-9 2 -17 -7.5t-11 -14.5q-3 -4 -6.5 -7.5t-6.5 -7.5q-6 -8 -13 -16t-17 -12q-8 -4 -21 -3.5t-24 0.5h-18.5t-14.5 4q-2 1 -2.5 2.5t-2.5 3.5q0 13 10 24.5t15 19.5l19.5 24t18.5 25l12 16t14 13q5 4 13 7q2 1 6 0t6 1z" />
    <glyph glyph-name="adieresis" unicode="&#xe4;" horiz-adv-x="574" 
d="M522 40q2 -11 2.5 -22t-10.5 -15q-6 -3 -14 -3h-16h-54q-9 0 -17.5 0.5t-13.5 4.5q-7 4 -10.5 11.5t-9.5 12.5q-2 2 -5 3.5t-8 0.5q-5 -2 -9.5 -5t-9.5 -5q-5 -4 -11 -7l-12 -6q-13 -6 -27 -9.5l-29 -7.5q-7 -2 -13.5 -2.5t-13.5 -1.5q-3 0 -6 -0.5t-6 -0.5h-11
q-10 -2 -20 0h-9q-7 2 -13.5 1.5t-12.5 1.5q-10 2 -19 3.5t-17 5.5q-29 11 -49.5 28.5t-32.5 46.5q-3 7 -5.5 15t-4.5 17q-2 5 -1.5 10t-0.5 10q-1 3 -1.5 12.5t0.5 13.5q2 10 2 17l6 22.5t8 20.5q17 29 39 44t56 26q13 5 27 7t28 5q8 2 17 2.5t18 2.5q7 2 14 1.5t15 1.5
q7 2 14 2t15 2q21 5 38.5 8.5t31.5 17.5q9 9 12 20q1 3 0.5 5t0.5 4t1 6v6q-1 4 -1.5 8t-1.5 7q-10 30 -42 41q-9 3 -21.5 4.5t-25.5 1t-25 -2.5t-21 -5q-6 -2 -11.5 -5.5t-10.5 -7.5t-10.5 -11t-7.5 -13q-5 -10 -8.5 -19t-14.5 -12q-8 -2 -17 -2h-18h-38q-5 0 -10 -0.5
t-9 0.5h-9q-2 1 -5 1t-5 2q-8 2 -11 13q-1 5 0 10t2 9q3 11 6.5 20.5t8.5 17.5l6 10l6 10q8 11 20 21q2 1 6 5l9 7t9 6q17 11 36 17.5t39 12.5q12 3 25 4t26 4q4 1 12.5 0t10.5 1q41 1 78.5 -3t68 -15t52.5 -29.5t34 -47.5q7 -17 8 -39t1 -45v-223v-38.5t4 -35.5
q1 -3 1 -6.5t1 -6.5zM375 194q1 5 1 11.5t-1 11.5q-2 6 -2 11t-4 8q-5 4 -15 4q-4 -1 -7 -1.5t-7 -1.5q-7 -2 -15 -3t-16 -3q-3 -1 -9 -1q-13 -3 -26 -4t-25 -5q-8 -2 -15 -3.5t-14 -4.5q-21 -9 -35.5 -27t-10.5 -50q2 -17 11 -28q7 -11 21 -17.5t30.5 -9.5t35 -1.5
t34.5 6.5q26 8 41 25.5t23 43.5q2 7 2.5 14.5t2.5 15.5v9zM243 707q9 -7 8.5 -26.5t-0.5 -35.5q0 -5 0.5 -11t-0.5 -11q-2 -7 -2.5 -12t-5.5 -8q-6 -5 -14.5 -5.5t-19.5 -0.5h-53q-9 0 -17.5 1.5t-13.5 6.5q-7 10 -6.5 30.5t0.5 37.5q0 8 0.5 16t3.5 13q4 6 15 10q7 0 8 1
h62q11 0 20 -0.5t15 -5.5zM449 706q8 -6 8 -26v-35q0 -5 0.5 -10.5t-1.5 -10.5v-5q-1 -4 -2.5 -8.5t-4.5 -6.5q-6 -5 -15 -6t-20 -1h-52q-10 0 -19 1.5t-13 7.5q-7 9 -6.5 30.5t0.5 37.5q0 8 0.5 15.5t3.5 12.5q4 6 15 10q7 0 8 1h62q11 0 20.5 -1t15.5 -6z" />
    <glyph glyph-name="atilde" unicode="&#xe3;" horiz-adv-x="574" 
d="M522 40q-1 3 -1 6.5t-1 6.5q-4 16 -4 35.5v38.5v223q0 23 -1 45t-8 39q-12 29 -34 47.5t-52.5 29.5t-68 15t-78.5 3q-2 -2 -10.5 -1t-12.5 0q-13 -3 -26 -4t-25 -4q-20 -6 -39 -12.5t-36 -17.5q-5 -3 -9 -6l-9 -7q-4 -4 -6 -5q-12 -10 -20 -21l-6 -10l-6 -10
q-5 -8 -8.5 -17.5t-6.5 -20.5q-1 -4 -2 -9t0 -10q3 -11 11 -13q2 -2 5 -2t5 -1h9q4 -1 9 -0.5t10 0.5h38h18t17 2q11 3 14.5 12t8.5 19q2 6 7.5 13t10.5 11t10.5 7.5t11.5 5.5q9 3 21 5t25 2.5t25.5 -1t21.5 -4.5q32 -11 42 -41q1 -3 1.5 -7t1.5 -8v-6t-1 -6t-0.5 -4
t-0.5 -5q-3 -11 -12 -20q-14 -14 -31.5 -17.5t-38.5 -8.5q-8 -2 -15 -2t-14 -2q-8 -2 -15 -1.5t-14 -1.5q-9 -2 -18 -2.5t-17 -2.5q-14 -3 -28 -5t-27 -7q-34 -11 -56 -26t-39 -44q-5 -9 -8 -20.5l-6 -22.5q0 -7 -2 -17q-1 -4 -0.5 -13.5t1.5 -12.5q1 -5 0.5 -10t1.5 -10
q2 -9 4.5 -17t5.5 -15q12 -29 32.5 -46.5t49.5 -28.5q8 -4 17 -5.5t19 -3.5q6 -2 12.5 -1.5t13.5 -1.5h9q10 -2 20 0h11q3 0 6 0.5t6 0.5q7 1 13.5 1.5t13.5 2.5l29 7.5t27 9.5l12 6t11 7q5 2 9.5 5t9.5 5q5 1 8 -0.5t5 -3.5q6 -5 9.5 -12.5t10.5 -11.5q5 -4 13.5 -4.5
t17.5 -0.5h54h16t14 3q11 4 10.5 15t-2.5 22zM375 194v-9q-2 -8 -2.5 -15.5t-2.5 -14.5q-8 -26 -23 -43.5t-41 -25.5q-16 -5 -34.5 -6.5t-35 1.5t-30.5 9.5t-21 17.5q-9 11 -11 28q-4 32 10.5 50t35.5 27q7 3 14 4.5t15 3.5q12 4 25 5t26 4q6 0 9 1q8 2 16 3t15 3q4 1 7 1.5
t7 1.5q10 0 15 -4q4 -3 4 -8t2 -11q1 -5 1 -11.5t-1 -11.5zM428 713q17 1 27.5 -4.5t5.5 -23.5q-2 -3 -2.5 -6t-1.5 -5q-8 -17 -18 -32.5t-25 -25.5q-11 -7 -30 -12q-9 -3 -25 -3t-26 3q-8 2 -14.5 2.5t-14.5 2.5q-14 5 -28.5 9.5t-28.5 9.5q-7 2 -13.5 2.5t-13.5 2.5
q-8 2 -16 0q-2 -1 -7 -1q-5 -2 -8 -4.5t-7 -4.5l-3 -3q-5 -6 -10.5 -13.5t-13.5 -10.5q-11 -5 -24 -2.5t-17 10.5q-2 5 -1 11t3 10q4 11 8 20.5t10 18.5q19 28 49 41q5 2 10.5 2.5t10.5 2.5q10 2 24 2.5t24 -2.5q19 -5 35.5 -12t33.5 -12q8 -3 15 -4t15 -3q6 -1 13 1
t11.5 2.5t9.5 3.5q7 4 11.5 10t11.5 11q5 3 12 5q2 1 4 0.5t4 0.5z" />
    <glyph glyph-name="aring" unicode="&#xe5;" horiz-adv-x="574" 
d="M522 40q2 -11 2.5 -22t-10.5 -15q-6 -3 -14 -3h-16h-54q-9 0 -17.5 0.5t-13.5 4.5q-7 4 -10.5 11.5t-9.5 12.5q-2 2 -5 3.5t-8 0.5q-5 -2 -9.5 -5t-9.5 -5q-5 -4 -11 -7l-12 -6q-13 -6 -27 -9.5l-29 -7.5q-7 -2 -13.5 -2.5t-13.5 -1.5q-3 0 -6 -0.5t-6 -0.5h-11
q-10 -2 -20 0h-9q-7 2 -13.5 1.5t-12.5 1.5q-10 2 -19 3.5t-17 5.5q-29 11 -49.5 28.5t-32.5 46.5q-3 7 -5.5 15t-4.5 17q-2 5 -1.5 10t-0.5 10q-1 3 -1.5 12.5t0.5 13.5q2 10 2 17l6 22.5t8 20.5q17 29 39 44t56 26q13 5 27 7t28 5q8 2 17 2.5t18 2.5q7 2 14 1.5t15 1.5
q7 2 14 2t15 2q21 5 38.5 8.5t31.5 17.5q9 9 12 20q1 3 0.5 5t0.5 4t1 6v6q-1 4 -1.5 8t-1.5 7q-10 30 -42 41q-9 3 -21.5 4.5t-25.5 1t-25 -2.5t-21 -5q-6 -2 -11.5 -5.5t-10.5 -7.5t-10.5 -11t-7.5 -13q-5 -10 -8.5 -19t-14.5 -12q-8 -2 -17 -2h-18h-38q-5 0 -10 -0.5
t-9 0.5h-9q-2 1 -5 1t-5 2q-8 2 -11 13q-1 5 0 10t2 9q3 11 6.5 20.5t8.5 17.5l6 10l6 10q8 11 20 21q2 1 6 5l9 7t9 6q17 11 36 17.5t39 12.5q12 3 25 4t26 4q4 1 12.5 0t10.5 1q41 1 78.5 -3t68 -15t52.5 -29.5t34 -47.5q7 -17 8 -39t1 -45v-223v-38.5t4 -35.5
q1 -3 1 -6.5t1 -6.5zM375 194q1 5 1 11.5t-1 11.5q-2 6 -2 11t-4 8q-5 4 -15 4q-4 -1 -7 -1.5t-7 -1.5q-7 -2 -15 -3t-16 -3q-3 -1 -9 -1q-13 -3 -26 -4t-25 -5q-8 -2 -15 -3.5t-14 -4.5q-21 -9 -35.5 -27t-10.5 -50q2 -17 11 -28q7 -11 21 -17.5t30.5 -9.5t35 -1.5
t34.5 6.5q26 8 41 25.5t23 43.5q2 7 2.5 14.5t2.5 15.5v9zM400 700q8 -20 8 -45.5t-8 -45.5q-21 -47 -69 -66q-6 -2 -12 -3t-12 -3q-3 -1 -6.5 -1t-6.5 -1t-7.5 -0.5t-6.5 1.5q-4 1 -7 0t-6 1q-14 3 -28 8q-27 12 -42.5 30.5t-26.5 47.5q-3 8 -6 21t1 26q2 6 3 12t3 12
q11 26 27.5 44.5t42.5 29.5q6 2 12.5 3.5t13.5 3.5q2 1 7 0.5t7 1.5q48 1 76.5 -22t42.5 -55zM350 642q2 11 0.5 22.5t-4.5 19.5q-8 20 -23 30.5t-43 10.5q-1 -1 -2.5 -0.5t-3.5 -0.5q-3 -1 -11 -3q-13 -5 -21.5 -15.5t-13.5 -24.5q-1 -5 -3 -13q-2 -7 -1.5 -15.5t2.5 -13.5
q5 -17 12.5 -27.5t21.5 -18.5q5 -3 15.5 -5.5t18.5 -0.5q38 8 51 37q2 4 2.5 8.5t2.5 9.5z" />
    <glyph glyph-name="ccedilla" unicode="&#xe7;" horiz-adv-x="574" 
d="M290 529q81 2 135.5 -24t86.5 -74q17 -25 26 -61q2 -8 1.5 -16.5t-5.5 -12.5q-6 -5 -14 -5.5t-19 -0.5h-51q-8 0 -15.5 -0.5t-13.5 1.5q-11 4 -15 12l-9 18q-6 11 -14 23q-8 11 -19.5 18t-25.5 12q-6 2 -12.5 2t-12.5 2q-4 1 -11.5 0.5t-10.5 -1.5q-5 -1 -8.5 -0.5
t-7.5 -1.5q-17 -4 -34 -14q-20 -14 -32.5 -34t-20.5 -46q-2 -7 -3 -14t-3 -15q-1 -5 -1.5 -11t-1.5 -11v-9q-1 -5 -1 -11.5t1 -10.5v-9q1 -6 1.5 -12.5t1.5 -12.5q5 -17 9 -32.5t12 -29.5q10 -17 22.5 -29t31.5 -20q17 -7 35.5 -7.5t36 4t31.5 12.5t22 19q6 8 10.5 16
t9.5 18q4 9 6.5 17t10.5 13q6 5 16 5h20h38q5 0 10 0.5t9 -0.5h9q2 -1 5 -1t5 -2q9 -3 10 -12q2 -5 1 -10.5t-3 -9.5q-2 -5 -2 -9t-2 -9q-2 -6 -5 -12.5t-5 -11.5q-20 -45 -52 -73t-79 -45q-11 -4 -23 -5.5t-24 -4.5q-5 0 -7 -1q-8 -2 -15 -3t-13 -5q-2 -1 -4.5 -3.5
t-5 -5.5t-3 -6t1.5 -6q1 -5 7.5 -7t14 -3l15.5 -2t13 -2q20 -7 33.5 -16.5t20.5 -28.5q2 -5 4 -13.5t0 -16.5q-1 -3 -1 -7t-1 -8q-8 -30 -25 -45.5t-46 -23.5q-7 -2 -13.5 -2.5t-14.5 -2.5h-8q-8 -1 -22 -0.5t-21 1.5q-5 1 -9.5 1t-9.5 1l-21 4t-19 5l-11 5.5t-7 8.5
q-4 11 2 20t12 13q2 1 5 2t6 0q10 -2 24.5 -5.5t29 -4.5t27 2t19.5 12q3 5 6 11.5t1 14.5q-3 12 -11 17.5t-21 8.5q-3 1 -7 0.5t-6 -0.5h-8q-11 -2 -20 0t-13 8q-3 5 -3.5 10.5t1.5 10.5q3 6 6.5 11.5t7.5 10.5q2 3 6 11q3 4 5.5 11t-1.5 12q-6 8 -23.5 11.5t-28.5 8.5
l-23.5 10t-22.5 12q-8 5 -14.5 11t-13.5 11q-2 1 -2.5 2t-1.5 2q-8 6 -15 14t-13 16q-3 5 -7 10.5t-7 10.5q-9 14 -15.5 30.5t-11.5 33.5q-3 9 -4.5 18.5t-3.5 18.5q0 4 -0.5 7t-0.5 6q-2 7 -2.5 22t1.5 23v9v6.5t1 6.5v10q2 8 3 15.5t3 15.5q4 14 7 26.5t8 23.5q8 19 18 35
l21 32q11 12 23 23q3 2 7 6q6 5 12 9.5t13 8.5q14 9 31 16t35 13q11 4 23 5t24 3q4 1 12 0.5t10 1.5z" />
    <glyph glyph-name="eacute" unicode="&#xe9;" horiz-adv-x="574" 
d="M543 263v11q-2 8 -1.5 17.5t-1.5 17.5q-4 14 -7 28t-8 27l-7.5 20.5t-8.5 18.5l-15 23.5t-15 22.5q-5 3 -8 8q-7 8 -16 15.5t-18 13.5q-29 20 -65.5 32.5t-87.5 11.5q-8 -1 -15 -1t-15 -1q-16 -4 -30.5 -6.5t-28.5 -8.5q-103 -43 -146 -147q-6 -14 -9 -30t-7 -33l-3 -24
v-12q-1 -5 -0.5 -11t0.5 -11l2 -28t5 -26q1 -4 1 -7.5t1 -7.5q5 -12 8 -23.5t8 -22.5q16 -35 41 -61.5t57 -46.5q8 -5 17.5 -8.5l20.5 -7.5q9 -5 20 -7.5t22 -4.5q5 -2 11 -2t11 -2q7 -2 13 -1t14 0q5 -1 11.5 -1.5t11.5 1.5h11q4 1 8.5 0.5t8.5 0.5q12 3 23 4t22 5
q42 14 70 34t50 53q8 11 14 22t11 25q2 5 1.5 12t-4.5 9q-4 3 -14 5h-10q-5 2 -11.5 1.5t-12.5 -0.5q-13 0 -28.5 0.5t-25.5 -4.5q-8 -3 -13.5 -9.5t-10.5 -13.5q-6 -8 -18.5 -16t-22.5 -13q-8 -3 -16.5 -5.5t-18.5 -4.5h-9q-10 -2 -24 -1t-22 3q-9 3 -17.5 4.5t-16.5 6.5
q-20 12 -31.5 27.5t-19.5 39.5q-2 6 -2.5 11.5t-2.5 11.5q-1 5 1 10.5t4 7.5q2 4 10 8q5 2 11.5 2h13.5h244q9 0 20.5 -0.5t23 0t21 2t14.5 5.5q5 3 7 13t0 18zM393 322q-5 -8 -20.5 -8.5t-29.5 -0.5h-111h-27t-22 5q-5 4 -6.5 10t-0.5 12.5t3.5 13t4.5 10.5q21 41 65 55
q5 2 11 2.5t11 2.5q3 1 7 0t7 1q41 -1 64 -15.5t37 -41.5q3 -7 8.5 -21.5t-1.5 -24.5zM329 721h71h19t16 -3q2 -1 2.5 -2.5t2.5 -2.5q1 -12 -9.5 -21t-17.5 -16q-8 -7 -15.5 -14.5t-15.5 -13.5q-4 -3 -6.5 -6.5t-6.5 -5.5q-2 -3 -5 -5q-5 -5 -10 -9.5t-10 -8.5
q-2 -2 -2.5 -3t-2.5 -3q-8 -6 -15.5 -13t-18.5 -11q-4 -1 -7.5 -1t-8.5 -1q-3 -1 -8 -0.5t-9 0.5h-23t-18 5q-6 4 -3 14q2 8 7 14.5t9 13.5l19 27l18 27l10.5 17t12.5 14q4 3 14 7q2 1 5.5 0.5t5.5 0.5z" />
    <glyph glyph-name="egrave" unicode="&#xe8;" horiz-adv-x="574" 
d="M543 263v11q-2 8 -1.5 17.5t-1.5 17.5q-4 14 -7 28t-8 27l-7.5 20.5t-8.5 18.5l-15 23.5t-15 22.5q-5 3 -8 8q-7 8 -16 15.5t-18 13.5q-29 20 -65.5 32.5t-87.5 11.5q-8 -1 -15 -1t-15 -1q-16 -4 -30.5 -6.5t-28.5 -8.5q-103 -43 -146 -147q-6 -14 -9 -30t-7 -33l-3 -24
v-12q-1 -5 -0.5 -11t0.5 -11l2 -28t5 -26q1 -4 1 -7.5t1 -7.5q5 -12 8 -23.5t8 -22.5q16 -35 41 -61.5t57 -46.5q8 -5 17.5 -8.5l20.5 -7.5q9 -5 20 -7.5t22 -4.5q5 -2 11 -2t11 -2q7 -2 13 -1t14 0q5 -1 11.5 -1.5t11.5 1.5h11q4 1 8.5 0.5t8.5 0.5q12 3 23 4t22 5
q42 14 70 34t50 53q8 11 14 22t11 25q2 5 1.5 12t-4.5 9q-4 3 -14 5h-10q-5 2 -11.5 1.5t-12.5 -0.5q-13 0 -28.5 0.5t-25.5 -4.5q-8 -3 -13.5 -9.5t-10.5 -13.5q-6 -8 -18.5 -16t-22.5 -13q-8 -3 -16.5 -5.5t-18.5 -4.5h-9q-10 -2 -24 -1t-22 3q-9 3 -17.5 4.5t-16.5 6.5
q-20 12 -31.5 27.5t-19.5 39.5q-2 6 -2.5 11.5t-2.5 11.5q-1 5 1 10.5t4 7.5q2 4 10 8q5 2 11.5 2h13.5h244q9 0 20.5 -0.5t23 0t21 2t14.5 5.5q5 3 7 13t0 18zM393 322q-5 -8 -20.5 -8.5t-29.5 -0.5h-111h-27t-22 5q-5 4 -6.5 10t-0.5 12.5t3.5 13t4.5 10.5q21 41 65 55
q5 2 11 2.5t11 2.5q3 1 7 0t7 1q41 -1 64 -15.5t37 -41.5q3 -7 8.5 -21.5t-1.5 -24.5zM157 722h67h19.5t16.5 -3q11 -4 17 -12.5t11 -16.5q8 -11 15.5 -22.5t15.5 -22.5q6 -9 13 -18t12 -20q2 -4 2.5 -9t-1.5 -9q-4 -5 -14 -7h-6q-4 -1 -9 -0.5t-10 0.5h-20.5t-17.5 3
q-10 4 -16.5 10t-14.5 12l-5 5q-15 11 -27.5 25t-27.5 25l-6 6t-6 7q-5 4 -9.5 8.5l-9.5 9.5l-7.5 7.5t-3.5 11.5q2 3 3.5 4.5t4.5 3.5q4 1 7 1t7 1z" />
    <glyph glyph-name="ecircumflex" unicode="&#xea;" horiz-adv-x="574" 
d="M543 263v11q-2 8 -1.5 17.5t-1.5 17.5q-4 14 -7 28t-8 27l-7.5 20.5t-8.5 18.5l-15 23.5t-15 22.5q-5 3 -8 8q-7 8 -16 15.5t-18 13.5q-29 20 -65.5 32.5t-87.5 11.5q-8 -1 -15 -1t-15 -1q-16 -4 -30.5 -6.5t-28.5 -8.5q-103 -43 -146 -147q-6 -14 -9 -30t-7 -33l-3 -24
v-12q-1 -5 -0.5 -11t0.5 -11l2 -28t5 -26q1 -4 1 -7.5t1 -7.5q5 -12 8 -23.5t8 -22.5q16 -35 41 -61.5t57 -46.5q8 -5 17.5 -8.5l20.5 -7.5q9 -5 20 -7.5t22 -4.5q5 -2 11 -2t11 -2q7 -2 13 -1t14 0q5 -1 11.5 -1.5t11.5 1.5h11q4 1 8.5 0.5t8.5 0.5q12 3 23 4t22 5
q42 14 70 34t50 53q8 11 14 22t11 25q2 5 1.5 12t-4.5 9q-4 3 -14 5h-10q-5 2 -11.5 1.5t-12.5 -0.5q-13 0 -28.5 0.5t-25.5 -4.5q-8 -3 -13.5 -9.5t-10.5 -13.5q-6 -8 -18.5 -16t-22.5 -13q-8 -3 -16.5 -5.5t-18.5 -4.5h-9q-10 -2 -24 -1t-22 3q-9 3 -17.5 4.5t-16.5 6.5
q-20 12 -31.5 27.5t-19.5 39.5q-2 6 -2.5 11.5t-2.5 11.5q-1 5 1 10.5t4 7.5q2 4 10 8q5 2 11.5 2h13.5h244q9 0 20.5 -0.5t23 0t21 2t14.5 5.5q5 3 7 13t0 18zM393 322q-5 -8 -20.5 -8.5t-29.5 -0.5h-111h-27t-22 5q-5 4 -6.5 10t-0.5 12.5t3.5 13t4.5 10.5q21 41 65 55
q5 2 11 2.5t11 2.5q3 1 7 0t7 1q41 -1 64 -15.5t37 -41.5q3 -7 8.5 -21.5t-1.5 -24.5zM245 722h65h20.5t17.5 -3q9 -4 15 -11t11 -15l18.5 -23.5l18.5 -23.5l12.5 -16l12.5 -16l6 -10t2 -13q-2 -2 -2.5 -3t-1.5 -2q-5 -4 -13.5 -4h-16.5h-39.5t-30.5 9q-4 3 -7 7.5t-6 8.5
q-5 6 -9.5 12t-9.5 12l-10 11.5t-13 7.5q-9 2 -17 -7.5t-11 -14.5q-3 -4 -6.5 -7.5t-6.5 -7.5q-6 -8 -13 -16t-17 -12q-8 -4 -21 -3.5t-24 0.5h-18.5t-14.5 4q-2 1 -2.5 2.5t-2.5 3.5q0 13 10 24.5t15 19.5l19.5 24t18.5 25l12 16t14 13q5 4 13 7q2 1 6 0t6 1z" />
    <glyph glyph-name="edieresis" unicode="&#xeb;" horiz-adv-x="574" 
d="M543 263q2 -8 0 -18t-7 -13q-5 -4 -14.5 -5.5t-21 -2t-23 0t-20.5 0.5h-244h-13.5t-11.5 -2q-8 -4 -10 -8q-2 -2 -4 -7.5t-1 -10.5q2 -6 2.5 -11.5t2.5 -11.5q8 -24 19.5 -39.5t31.5 -27.5q8 -5 16.5 -6.5t17.5 -4.5q8 -2 22 -3t24 1h9q10 2 18.5 4.5t16.5 5.5
q10 5 22.5 13t18.5 16q5 7 10.5 13.5t13.5 9.5q10 5 25.5 4.5t28.5 -0.5q6 0 12.5 0.5t11.5 -1.5h10q10 -2 14 -5q4 -2 4.5 -9t-1.5 -12q-5 -14 -11 -25t-14 -22q-22 -33 -50 -53t-70 -34q-11 -4 -22 -5t-23 -4q-4 -1 -8.5 -0.5t-8.5 -0.5h-11q-5 -2 -11.5 -1.5t-11.5 1.5
q-8 1 -14 0t-13 1q-5 2 -11 2t-11 2q-11 2 -22 4.5t-20 7.5l-20.5 7.5t-17.5 8.5q-32 20 -57 46.5t-41 61.5q-5 11 -8 22.5t-8 23.5q-1 4 -1 7.5t-1 7.5q-4 12 -5 26l-2 28q0 5 -0.5 11t0.5 11v12l3 24q4 17 7 33t9 30q43 104 146 147q14 6 28.5 8.5t30.5 6.5q8 1 15 1t15 1
q51 1 87.5 -11.5t65.5 -32.5q9 -6 18 -13.5t16 -15.5q3 -5 8 -8q8 -11 15 -22.5l15 -23.5q5 -9 8.5 -18.5l7.5 -20.5q5 -13 8 -27t7 -28q2 -8 1.5 -17.5t1.5 -17.5v-11zM393 322q7 10 1.5 24.5t-8.5 21.5q-14 27 -37 41.5t-64 15.5q-3 -2 -7 -1t-7 0q-5 -2 -11 -2.5
t-11 -2.5q-44 -14 -65 -55q-2 -4 -4.5 -10.5t-3.5 -13t0.5 -12.5t6.5 -10q8 -5 22 -5h27h111q14 0 29.5 0.5t20.5 8.5zM243 707q9 -7 8.5 -26.5t-0.5 -35.5q0 -5 0.5 -11t-0.5 -11q-2 -7 -2.5 -12t-5.5 -8q-6 -5 -14.5 -5.5t-19.5 -0.5h-53q-9 0 -17.5 1.5t-13.5 6.5
q-7 10 -6.5 30.5t0.5 37.5q0 8 0.5 16t3.5 13q4 6 15 10q7 0 8 1h62q11 0 20 -0.5t15 -5.5zM449 706q8 -6 8 -26v-35q0 -5 0.5 -10.5t-1.5 -10.5v-5q-1 -4 -2.5 -8.5t-4.5 -6.5q-6 -5 -15 -6t-20 -1h-52q-10 0 -19 1.5t-13 7.5q-7 9 -6.5 30.5t0.5 37.5q0 8 0.5 15.5
t3.5 12.5q4 6 15 10q7 0 8 1h62q11 0 20.5 -1t15.5 -6z" />
    <glyph glyph-name="iacute" unicode="&#xed;" horiz-adv-x="258" 
d="M199 474q0 10 -0.5 19t-4.5 14q-3 5 -8 6t-11 3h-8q-5 1 -12.5 0.5t-13.5 -0.5h-50q-2 -1 -5.5 -0.5t-5.5 -0.5q-11 -2 -17 -9q-4 -6 -4 -16v-20v-422q0 -12 0.5 -22.5t6.5 -17.5q4 -5 12.5 -6t17.5 -1h56q8 0 15 -0.5t13 1.5q17 5 18 19t1 34v419zM171 721h71h19t16 -3
q2 -1 2.5 -2.5t2.5 -2.5q1 -12 -9.5 -21t-17.5 -16q-8 -7 -15.5 -14.5t-15.5 -13.5q-4 -3 -6.5 -6.5t-6.5 -5.5q-2 -3 -5 -5q-5 -5 -10 -9.5t-10 -8.5q-2 -2 -2.5 -3t-2.5 -3q-8 -6 -15.5 -13t-18.5 -11q-4 -1 -7.5 -1t-8.5 -1q-3 -1 -8 -0.5t-9 0.5h-23t-18 5q-6 4 -3 14
q2 8 7 14.5t9 13.5l19 27l18 27l10.5 17t12.5 14q4 3 14 7q2 1 5.5 0.5t5.5 0.5z" />
    <glyph glyph-name="igrave" unicode="&#xec;" horiz-adv-x="258" 
d="M199 474q0 10 -0.5 19t-4.5 14q-3 5 -8 6t-11 3h-8q-5 1 -12.5 0.5t-13.5 -0.5h-50q-2 -1 -5.5 -0.5t-5.5 -0.5q-11 -2 -17 -9q-4 -6 -4 -16v-20v-422q0 -12 0.5 -22.5t6.5 -17.5q4 -5 12.5 -6t17.5 -1h56q8 0 15 -0.5t13 1.5q17 5 18 19t1 34v419zM-2 722h67h19.5
t16.5 -3q11 -4 17 -12.5t11 -16.5q8 -11 15.5 -22.5t15.5 -22.5q6 -9 13 -18t12 -20q2 -4 2.5 -9t-1.5 -9q-4 -5 -14 -7h-6q-4 -1 -9 -0.5t-10 0.5h-20.5t-17.5 3q-10 4 -16.5 10t-14.5 12l-5 5q-15 11 -27.5 25t-27.5 25l-6 6t-6 7q-5 4 -9.5 8.5l-9.5 9.5l-7.5 7.5
t-3.5 11.5q2 3 3.5 4.5t4.5 3.5q4 1 7 1t7 1z" />
    <glyph glyph-name="icircumflex" unicode="&#xee;" horiz-adv-x="258" 
d="M199 474q0 10 -0.5 19t-4.5 14q-3 5 -8 6t-11 3h-8q-5 1 -12.5 0.5t-13.5 -0.5h-50q-2 -1 -5.5 -0.5t-5.5 -0.5q-11 -2 -17 -9q-4 -6 -4 -16v-20v-422q0 -12 0.5 -22.5t6.5 -17.5q4 -5 12.5 -6t17.5 -1h56q8 0 15 -0.5t13 1.5q17 5 18 19t1 34v419zM87 722h65h20.5
t17.5 -3q9 -4 15 -11t11 -15l18.5 -23.5l18.5 -23.5l12.5 -16l12.5 -16l6 -10t2 -13q-2 -2 -2.5 -3t-1.5 -2q-5 -4 -13.5 -4h-16.5h-39.5t-30.5 9q-4 3 -7 7.5t-6 8.5q-5 6 -9.5 12t-9.5 12l-10 11.5t-13 7.5q-9 2 -17 -7.5t-11 -14.5q-3 -4 -6.5 -7.5t-6.5 -7.5
q-6 -8 -13 -16t-17 -12q-8 -4 -21 -3.5t-24 0.5h-18.5t-14.5 4q-2 1 -2.5 2.5t-2.5 3.5q0 13 10 24.5t15 19.5l19.5 24t18.5 25l12 16t14 13q5 4 13 7q2 1 6 0t6 1z" />
    <glyph glyph-name="idieresis" unicode="&#xef;" horiz-adv-x="258" 
d="M199 55q0 -20 -1 -34t-18 -19q-6 -2 -13 -1.5t-15 0.5h-56q-9 0 -17.5 1t-12.5 6q-6 7 -6.5 17.5t-0.5 22.5v422v20t4 16q6 7 17 9q2 1 5.5 0.5t5.5 0.5h50q6 0 13.5 0.5t12.5 -0.5h8q6 -2 11 -3t8 -6q4 -5 4.5 -14t0.5 -19v-419zM85 707q9 -7 8.5 -26.5t-0.5 -35.5
q0 -5 0.5 -11t-0.5 -11q-2 -7 -2.5 -12t-5.5 -8q-6 -5 -14.5 -5.5t-19.5 -0.5h-53q-9 0 -17.5 1.5t-13.5 6.5q-7 10 -6.5 30.5t0.5 37.5q0 8 0.5 16t3.5 13q4 6 15 10q7 0 8 1h62q11 0 20 -0.5t15 -5.5zM291 706q8 -6 8 -26v-35q0 -5 0.5 -10.5t-1.5 -10.5v-5
q-1 -4 -2.5 -8.5t-4.5 -6.5q-6 -5 -15 -6t-20 -1h-52q-10 0 -19 1.5t-13 7.5q-7 9 -6.5 30.5t0.5 37.5q0 8 0.5 15.5t3.5 12.5q4 6 15 10q7 0 8 1h62q11 0 20.5 -1t15.5 -6z" />
    <glyph glyph-name="ntilde" unicode="&#xf1;" horiz-adv-x="593" 
d="M347 529q60 2 100 -17t63 -56q7 -11 11 -23.5l8 -25.5q2 -8 2.5 -15t2.5 -14q0 -6 1 -8q2 -14 2 -29v-29v-89v-162q0 -19 -0.5 -36.5t-14.5 -22.5q-6 -2 -14 -2h-16h-54q-12 0 -21.5 1.5t-14.5 8.5q-4 6 -4.5 15.5t-0.5 20.5v70v149q0 37 -3 68.5t-18 53.5q-14 20 -41 28
q-5 2 -10.5 2t-11.5 2q-5 1 -12.5 0.5t-11.5 -1.5t-7 -1t-6 -1q-23 -6 -37 -16q-32 -23 -38 -67t-6 -99v-125v-61v-18t-3 -15q-5 -11 -16 -13t-27 -2h-50q-11 0 -22 1t-16 7q-7 9 -6.5 26t0.5 32v136v220v51q0 11 0.5 20t5.5 15q2 3 6.5 4.5t9.5 2.5h5q5 1 10.5 1h10.5h42
q8 0 15.5 -0.5t13.5 -2.5q7 -3 9.5 -9t4.5 -14q1 -4 0.5 -7t1.5 -6q2 -5 3.5 -6l4.5 -3q11 -1 18 7.5t15 13.5q27 20 60 32q9 3 18.5 4t20.5 3q3 1 9 0.5t8 0.5zM437 713q17 1 27.5 -4.5t5.5 -23.5q-2 -3 -2.5 -6t-1.5 -5q-8 -17 -18 -32.5t-25 -25.5q-11 -7 -30 -12
q-9 -3 -25 -3t-26 3q-8 2 -14.5 2.5t-14.5 2.5q-14 5 -28.5 9.5t-28.5 9.5q-7 2 -13.5 2.5t-13.5 2.5q-8 2 -16 0q-2 -1 -7 -1q-5 -2 -8 -4.5t-7 -4.5l-3 -3q-5 -6 -10.5 -13.5t-13.5 -10.5q-11 -5 -24 -2.5t-17 10.5q-2 5 -1 11t3 10q4 11 8 20.5t10 18.5q19 28 49 41
q5 2 10.5 2.5t10.5 2.5q10 2 24 2.5t24 -2.5q19 -5 35.5 -12t33.5 -12q8 -3 15 -4t15 -3q6 -1 13 1t11.5 2.5t9.5 3.5q7 4 11.5 10t11.5 11q5 3 12 5q2 1 4 0.5t4 0.5z" />
    <glyph glyph-name="oacute" unicode="&#xf3;" horiz-adv-x="611" 
d="M570 279q-2 5 -1 11t-1 11q-1 4 -1 8t-1 8l-4 18t-5 17q-5 14 -9 26.5t-11 23.5l-13.5 21t-14.5 20q-8 11 -19.5 20.5t-22.5 17.5q-33 23 -75.5 36t-100.5 12q-7 -1 -14 -1t-15 -1q-15 -4 -29 -6t-27 -7q-11 -5 -22 -9t-21 -9q-36 -23 -61 -50.5t-43 -68.5
q-5 -12 -8 -24.5t-7 -25.5q-2 -5 -2 -9.5t-1 -9.5q-2 -5 -1.5 -10.5t-0.5 -10.5v-7q-2 -6 -2.5 -17t1.5 -17v-9t1 -9q2 -8 2 -16.5t2 -16.5q2 -5 2 -9t2 -9l5.5 -21t7.5 -19q17 -39 42 -67t60 -49q11 -6 21.5 -10t22.5 -8q9 -4 19 -6t20 -5q5 -1 8.5 -1t7.5 -1
q5 -2 10.5 -1.5t10.5 -0.5h10q6 -2 17 -1.5t16 1.5q3 0 6.5 0.5t6.5 0.5q5 1 11 1t11 2q13 3 25.5 5.5t24.5 7.5q48 20 82 50t55 78q5 10 8 21.5t7 22.5q1 7 2 13t3 13q2 8 1.5 16t1.5 16v10q2 6 2 17t-2 17zM430 243q-1 -5 -1 -9.5v-9.5q-1 -4 -1 -7.5t-1 -7.5
q-3 -11 -5 -21t-6 -20q-11 -25 -27 -42t-42 -27q-7 -3 -15 -4t-16 -3h-8q-4 -1 -8.5 -0.5t-8.5 1.5t-7 0.5t-7 0.5q-9 2 -17.5 5t-15.5 8q-25 15 -36.5 33.5t-21.5 48.5q-2 8 -3 15.5t-3 15.5v9q-2 7 -2.5 21t1.5 21v10t1 10q2 11 3.5 22t4.5 21q9 27 24.5 47.5t40.5 31.5
q5 3 11.5 4.5t13.5 3.5q3 1 7 0.5t7 1.5q9 0 18 0.5t17 -1.5q7 -2 13 -3.5t12 -3.5q25 -11 40 -29.5t26 -44.5q3 -8 4.5 -16.5t3.5 -16.5q1 -2 1 -6q1 -5 1 -11t2 -11v-8q1 -5 1 -14.5t-1 -14.5zM348 721h71h19t16 -3q2 -1 2.5 -2.5t2.5 -2.5q1 -12 -9.5 -21t-17.5 -16
q-8 -7 -15.5 -14.5t-15.5 -13.5q-4 -3 -6.5 -6.5t-6.5 -5.5q-2 -3 -5 -5q-5 -5 -10 -9.5t-10 -8.5q-2 -2 -2.5 -3t-2.5 -3q-8 -6 -15.5 -13t-18.5 -11q-4 -1 -7.5 -1t-8.5 -1q-3 -1 -8 -0.5t-9 0.5h-23t-18 5q-6 4 -3 14q2 8 7 14.5t9 13.5l19 27l18 27l10.5 17t12.5 14
q4 3 14 7q2 1 5.5 0.5t5.5 0.5z" />
    <glyph glyph-name="ograve" unicode="&#xf2;" horiz-adv-x="611" 
d="M570 279q-2 5 -1 11t-1 11q-1 4 -1 8t-1 8l-4 18t-5 17q-5 14 -9 26.5t-11 23.5l-13.5 21t-14.5 20q-8 11 -19.5 20.5t-22.5 17.5q-33 23 -75.5 36t-100.5 12q-7 -1 -14 -1t-15 -1q-15 -4 -29 -6t-27 -7q-11 -5 -22 -9t-21 -9q-36 -23 -61 -50.5t-43 -68.5
q-5 -12 -8 -24.5t-7 -25.5q-2 -5 -2 -9.5t-1 -9.5q-2 -5 -1.5 -10.5t-0.5 -10.5v-7q-2 -6 -2.5 -17t1.5 -17v-9t1 -9q2 -8 2 -16.5t2 -16.5q2 -5 2 -9t2 -9l5.5 -21t7.5 -19q17 -39 42 -67t60 -49q11 -6 21.5 -10t22.5 -8q9 -4 19 -6t20 -5q5 -1 8.5 -1t7.5 -1
q5 -2 10.5 -1.5t10.5 -0.5h10q6 -2 17 -1.5t16 1.5q3 0 6.5 0.5t6.5 0.5q5 1 11 1t11 2q13 3 25.5 5.5t24.5 7.5q48 20 82 50t55 78q5 10 8 21.5t7 22.5q1 7 2 13t3 13q2 8 1.5 16t1.5 16v10q2 6 2 17t-2 17zM430 243q-1 -5 -1 -9.5v-9.5q-1 -4 -1 -7.5t-1 -7.5
q-3 -11 -5 -21t-6 -20q-11 -25 -27 -42t-42 -27q-7 -3 -15 -4t-16 -3h-8q-4 -1 -8.5 -0.5t-8.5 1.5t-7 0.5t-7 0.5q-9 2 -17.5 5t-15.5 8q-25 15 -36.5 33.5t-21.5 48.5q-2 8 -3 15.5t-3 15.5v9q-2 7 -2.5 21t1.5 21v10t1 10q2 11 3.5 22t4.5 21q9 27 24.5 47.5t40.5 31.5
q5 3 11.5 4.5t13.5 3.5q3 1 7 0.5t7 1.5q9 0 18 0.5t17 -1.5q7 -2 13 -3.5t12 -3.5q25 -11 40 -29.5t26 -44.5q3 -8 4.5 -16.5t3.5 -16.5q1 -2 1 -6q1 -5 1 -11t2 -11v-8q1 -5 1 -14.5t-1 -14.5zM175 722h67h19.5t16.5 -3q11 -4 17 -12.5t11 -16.5q8 -11 15.5 -22.5
t15.5 -22.5q6 -9 13 -18t12 -20q2 -4 2.5 -9t-1.5 -9q-4 -5 -14 -7h-6q-4 -1 -9 -0.5t-10 0.5h-20.5t-17.5 3q-10 4 -16.5 10t-14.5 12l-5 5q-15 11 -27.5 25t-27.5 25l-6 6t-6 7q-5 4 -9.5 8.5l-9.5 9.5l-7.5 7.5t-3.5 11.5q2 3 3.5 4.5t4.5 3.5q4 1 7 1t7 1z" />
    <glyph glyph-name="ocircumflex" unicode="&#xf4;" horiz-adv-x="611" 
d="M570 279q-2 5 -1 11t-1 11q-1 4 -1 8t-1 8l-4 18t-5 17q-5 14 -9 26.5t-11 23.5l-13.5 21t-14.5 20q-8 11 -19.5 20.5t-22.5 17.5q-33 23 -75.5 36t-100.5 12q-7 -1 -14 -1t-15 -1q-15 -4 -29 -6t-27 -7q-11 -5 -22 -9t-21 -9q-36 -23 -61 -50.5t-43 -68.5
q-5 -12 -8 -24.5t-7 -25.5q-2 -5 -2 -9.5t-1 -9.5q-2 -5 -1.5 -10.5t-0.5 -10.5v-7q-2 -6 -2.5 -17t1.5 -17v-9t1 -9q2 -8 2 -16.5t2 -16.5q2 -5 2 -9t2 -9l5.5 -21t7.5 -19q17 -39 42 -67t60 -49q11 -6 21.5 -10t22.5 -8q9 -4 19 -6t20 -5q5 -1 8.5 -1t7.5 -1
q5 -2 10.5 -1.5t10.5 -0.5h10q6 -2 17 -1.5t16 1.5q3 0 6.5 0.5t6.5 0.5q5 1 11 1t11 2q13 3 25.5 5.5t24.5 7.5q48 20 82 50t55 78q5 10 8 21.5t7 22.5q1 7 2 13t3 13q2 8 1.5 16t1.5 16v10q2 6 2 17t-2 17zM430 243q-1 -5 -1 -9.5v-9.5q-1 -4 -1 -7.5t-1 -7.5
q-3 -11 -5 -21t-6 -20q-11 -25 -27 -42t-42 -27q-7 -3 -15 -4t-16 -3h-8q-4 -1 -8.5 -0.5t-8.5 1.5t-7 0.5t-7 0.5q-9 2 -17.5 5t-15.5 8q-25 15 -36.5 33.5t-21.5 48.5q-2 8 -3 15.5t-3 15.5v9q-2 7 -2.5 21t1.5 21v10t1 10q2 11 3.5 22t4.5 21q9 27 24.5 47.5t40.5 31.5
q5 3 11.5 4.5t13.5 3.5q3 1 7 0.5t7 1.5q9 0 18 0.5t17 -1.5q7 -2 13 -3.5t12 -3.5q25 -11 40 -29.5t26 -44.5q3 -8 4.5 -16.5t3.5 -16.5q1 -2 1 -6q1 -5 1 -11t2 -11v-8q1 -5 1 -14.5t-1 -14.5zM264 722h65h20.5t17.5 -3q9 -4 15 -11t11 -15l18.5 -23.5l18.5 -23.5
l12.5 -16l12.5 -16l6 -10t2 -13q-2 -2 -2.5 -3t-1.5 -2q-5 -4 -13.5 -4h-16.5h-39.5t-30.5 9q-4 3 -7 7.5t-6 8.5q-5 6 -9.5 12t-9.5 12l-10 11.5t-13 7.5q-9 2 -17 -7.5t-11 -14.5q-3 -4 -6.5 -7.5t-6.5 -7.5q-6 -8 -13 -16t-17 -12q-8 -4 -21 -3.5t-24 0.5h-18.5t-14.5 4
q-2 1 -2.5 2.5t-2.5 3.5q0 13 10 24.5t15 19.5l19.5 24t18.5 25l12 16t14 13q5 4 13 7q2 1 6 0t6 1z" />
    <glyph glyph-name="odieresis" unicode="&#xf6;" horiz-adv-x="611" 
d="M570 279q2 -6 2 -17t-2 -17v-10q-2 -8 -1.5 -16t-1.5 -16q-2 -7 -3 -13t-2 -13q-4 -11 -7 -22.5t-8 -21.5q-21 -48 -55 -78t-82 -50q-12 -5 -24.5 -7.5t-25.5 -5.5q-5 -2 -11 -2t-11 -1q-3 0 -6.5 -0.5t-6.5 -0.5q-5 -1 -16 -1.5t-17 1.5h-10q-5 1 -10.5 0.5t-10.5 1.5
q-4 1 -7.5 1t-8.5 1q-10 3 -20 5t-19 6q-12 4 -22.5 8t-21.5 10q-35 21 -60 49t-42 67q-5 9 -7.5 19l-5.5 21q-2 5 -2 9t-2 9q-2 8 -2 16.5t-2 16.5q-1 5 -1 9v9q-2 6 -1.5 17t2.5 17v7q1 5 0.5 10.5t1.5 10.5q1 5 1 9.5t2 9.5q4 13 7 25.5t8 24.5q18 41 43 68.5t61 50.5
q10 5 21 9t22 9q13 5 27 7t29 6q8 1 15 1t14 1q58 1 100.5 -12t75.5 -36q11 -8 22.5 -17.5t19.5 -20.5q8 -10 14.5 -20l13.5 -21t11 -23.5t9 -26.5q3 -8 5 -17l4 -18q1 -4 1 -8t1 -8q2 -5 1 -11t1 -11zM430 243q1 5 1 14.5t-1 14.5v8q-2 5 -2 11t-1 11q0 4 -1 6
q-2 8 -3.5 16.5t-4.5 16.5q-11 26 -26 44.5t-40 29.5q-6 2 -12 3.5t-13 3.5q-8 2 -17 1.5t-18 -0.5q-3 -2 -7 -1.5t-7 -0.5q-7 -2 -13.5 -3.5t-11.5 -4.5q-25 -11 -40.5 -31.5t-24.5 -47.5q-3 -10 -4.5 -21t-3.5 -22q-1 -5 -1 -10v-10q-2 -7 -1.5 -21t2.5 -21v-9
q2 -8 3 -15.5t3 -15.5q10 -30 21.5 -48.5t36.5 -33.5q7 -5 15.5 -8t17.5 -5q4 -1 7 -0.5t7 -0.5t8.5 -1.5t8.5 0.5h8q8 2 16 3t15 4q26 10 42 27t27 42q4 10 6 20t5 21q1 4 1 7.5t1 7.5v9.5t1 9.5zM261 707q9 -7 8.5 -26.5t-0.5 -35.5q0 -5 0.5 -11t-0.5 -11q-2 -7 -2.5 -12
t-5.5 -8q-6 -5 -14.5 -5.5t-19.5 -0.5h-53q-9 0 -17.5 1.5t-13.5 6.5q-7 10 -6.5 30.5t0.5 37.5q0 8 0.5 16t3.5 13q4 6 15 10q7 0 8 1h62q11 0 20 -0.5t15 -5.5zM467 706q8 -6 8 -26v-35q0 -5 0.5 -10.5t-1.5 -10.5v-5q-1 -4 -2.5 -8.5t-4.5 -6.5q-6 -5 -15 -6t-20 -1h-52
q-10 0 -19 1.5t-13 7.5q-7 9 -6.5 30.5t0.5 37.5q0 8 0.5 15.5t3.5 12.5q4 6 15 10q7 0 8 1h62q11 0 20.5 -1t15.5 -6z" />
    <glyph glyph-name="otilde" unicode="&#xf5;" horiz-adv-x="611" 
d="M570 279q-2 5 -1 11t-1 11q-1 4 -1 8t-1 8l-4 18t-5 17q-5 14 -9 26.5t-11 23.5l-13.5 21t-14.5 20q-8 11 -19.5 20.5t-22.5 17.5q-33 23 -75.5 36t-100.5 12q-7 -1 -14 -1t-15 -1q-15 -4 -29 -6t-27 -7q-11 -5 -22 -9t-21 -9q-36 -23 -61 -50.5t-43 -68.5
q-5 -12 -8 -24.5t-7 -25.5q-2 -5 -2 -9.5t-1 -9.5q-2 -5 -1.5 -10.5t-0.5 -10.5v-7q-2 -6 -2.5 -17t1.5 -17v-9t1 -9q2 -8 2 -16.5t2 -16.5q2 -5 2 -9t2 -9l5.5 -21t7.5 -19q17 -39 42 -67t60 -49q11 -6 21.5 -10t22.5 -8q9 -4 19 -6t20 -5q5 -1 8.5 -1t7.5 -1
q5 -2 10.5 -1.5t10.5 -0.5h10q6 -2 17 -1.5t16 1.5q3 0 6.5 0.5t6.5 0.5q5 1 11 1t11 2q13 3 25.5 5.5t24.5 7.5q48 20 82 50t55 78q5 10 8 21.5t7 22.5q1 7 2 13t3 13q2 8 1.5 16t1.5 16v10q2 6 2 17t-2 17zM430 243q-1 -5 -1 -9.5v-9.5q-1 -4 -1 -7.5t-1 -7.5
q-3 -11 -5 -21t-6 -20q-11 -25 -27 -42t-42 -27q-7 -3 -15 -4t-16 -3h-8q-4 -1 -8.5 -0.5t-8.5 1.5t-7 0.5t-7 0.5q-9 2 -17.5 5t-15.5 8q-25 15 -36.5 33.5t-21.5 48.5q-2 8 -3 15.5t-3 15.5v9q-2 7 -2.5 21t1.5 21v10t1 10q2 11 3.5 22t4.5 21q9 27 24.5 47.5t40.5 31.5
q5 3 11.5 4.5t13.5 3.5q3 1 7 0.5t7 1.5q9 0 18 0.5t17 -1.5q7 -2 13 -3.5t12 -3.5q25 -11 40 -29.5t26 -44.5q3 -8 4.5 -16.5t3.5 -16.5q1 -2 1 -6q1 -5 1 -11t2 -11v-8q1 -5 1 -14.5t-1 -14.5zM445 713q17 1 27.5 -4.5t5.5 -23.5q-2 -3 -2.5 -6t-1.5 -5q-8 -17 -18 -32.5
t-25 -25.5q-11 -7 -30 -12q-9 -3 -25 -3t-26 3q-8 2 -14.5 2.5t-14.5 2.5q-14 5 -28.5 9.5t-28.5 9.5q-7 2 -13.5 2.5t-13.5 2.5q-8 2 -16 0q-2 -1 -7 -1q-5 -2 -8 -4.5t-7 -4.5l-3 -3q-5 -6 -10.5 -13.5t-13.5 -10.5q-11 -5 -24 -2.5t-17 10.5q-2 5 -1 11t3 10q4 11 8 20.5
t10 18.5q19 28 49 41q5 2 10.5 2.5t10.5 2.5q10 2 24 2.5t24 -2.5q19 -5 35.5 -12t33.5 -12q8 -3 15 -4t15 -3q6 -1 13 1t11.5 2.5t9.5 3.5q7 4 11.5 10t11.5 11q5 3 12 5q2 1 4 0.5t4 0.5z" />
    <glyph glyph-name="uacute" unicode="&#xfa;" horiz-adv-x="593" 
d="M80 515h75q11 0 20 -1t13 -7q5 -6 6 -16.5t1 -21.5v-70v-149q0 -36 3 -68t18 -53q14 -21 45 -30q5 -1 8.5 -1t8.5 -1t11 -1t9 1q5 2 8.5 1t7.5 1q21 5 33 13q18 11 28.5 28.5t15 39t5.5 48t1 55.5v121v65v18.5t4 15.5q5 9 15 10.5t24 1.5h53h19t15 -4q8 -5 9 -15t1 -23
v-76v-281v-71v-20t-4 -15q-5 -8 -15 -9t-21 -1h-54q-11 0 -19.5 1t-13.5 8q-2 3 -3.5 9l-3 12t-3.5 11t-6 6q-2 2 -5 1t-5 -2q-7 -4 -12 -9t-11 -9q-4 -3 -7.5 -6.5t-8.5 -6.5q-23 -14 -54 -22q-7 -2 -14 -2.5t-15 -2.5q-4 -1 -8.5 -0.5t-8.5 -0.5q-3 -1 -12.5 -0.5
t-12.5 1.5q-5 0 -10 0.5t-10 0.5q-12 3 -23 5t-22 6l-8.5 3.5l-8.5 3.5q-35 19 -56 53q-13 21 -19 50.5t-7.5 63t-1 69t0.5 70.5v136q0 13 -0.5 30.5t4.5 25.5q3 5 12 9q6 0 9 1zM338 721h71h19t16 -3q2 -1 2.5 -2.5t2.5 -2.5q1 -12 -9.5 -21t-17.5 -16q-8 -7 -15.5 -14.5
t-15.5 -13.5q-4 -3 -6.5 -6.5t-6.5 -5.5q-2 -3 -5 -5q-5 -5 -10 -9.5t-10 -8.5q-2 -2 -2.5 -3t-2.5 -3q-8 -6 -15.5 -13t-18.5 -11q-4 -1 -7.5 -1t-8.5 -1q-3 -1 -8 -0.5t-9 0.5h-23t-18 5q-6 4 -3 14q2 8 7 14.5t9 13.5l19 27l18 27l10.5 17t12.5 14q4 3 14 7q2 1 5.5 0.5
t5.5 0.5z" />
    <glyph glyph-name="ugrave" unicode="&#xf9;" horiz-adv-x="593" 
d="M80 515h75q11 0 20 -1t13 -7q5 -6 6 -16.5t1 -21.5v-70v-149q0 -36 3 -68t18 -53q14 -21 45 -30q5 -1 8.5 -1t8.5 -1t11 -1t9 1q5 2 8.5 1t7.5 1q21 5 33 13q18 11 28.5 28.5t15 39t5.5 48t1 55.5v121v65v18.5t4 15.5q5 9 15 10.5t24 1.5h53h19t15 -4q8 -5 9 -15t1 -23
v-76v-281v-71v-20t-4 -15q-5 -8 -15 -9t-21 -1h-54q-11 0 -19.5 1t-13.5 8q-2 3 -3.5 9l-3 12t-3.5 11t-6 6q-2 2 -5 1t-5 -2q-7 -4 -12 -9t-11 -9q-4 -3 -7.5 -6.5t-8.5 -6.5q-23 -14 -54 -22q-7 -2 -14 -2.5t-15 -2.5q-4 -1 -8.5 -0.5t-8.5 -0.5q-3 -1 -12.5 -0.5
t-12.5 1.5q-5 0 -10 0.5t-10 0.5q-12 3 -23 5t-22 6l-8.5 3.5l-8.5 3.5q-35 19 -56 53q-13 21 -19 50.5t-7.5 63t-1 69t0.5 70.5v136q0 13 -0.5 30.5t4.5 25.5q3 5 12 9q6 0 9 1zM166 722h67h19.5t16.5 -3q11 -4 17 -12.5t11 -16.5q8 -11 15.5 -22.5t15.5 -22.5q6 -9 13 -18
t12 -20q2 -4 2.5 -9t-1.5 -9q-4 -5 -14 -7h-6q-4 -1 -9 -0.5t-10 0.5h-20.5t-17.5 3q-10 4 -16.5 10t-14.5 12l-5 5q-15 11 -27.5 25t-27.5 25l-6 6t-6 7q-5 4 -9.5 8.5l-9.5 9.5l-7.5 7.5t-3.5 11.5q2 3 3.5 4.5t4.5 3.5q4 1 7 1t7 1z" />
    <glyph glyph-name="ucircumflex" unicode="&#xfb;" horiz-adv-x="593" 
d="M80 515h75q11 0 20 -1t13 -7q5 -6 6 -16.5t1 -21.5v-70v-149q0 -36 3 -68t18 -53q14 -21 45 -30q5 -1 8.5 -1t8.5 -1t11 -1t9 1q5 2 8.5 1t7.5 1q21 5 33 13q18 11 28.5 28.5t15 39t5.5 48t1 55.5v121v65v18.5t4 15.5q5 9 15 10.5t24 1.5h53h19t15 -4q8 -5 9 -15t1 -23
v-76v-281v-71v-20t-4 -15q-5 -8 -15 -9t-21 -1h-54q-11 0 -19.5 1t-13.5 8q-2 3 -3.5 9l-3 12t-3.5 11t-6 6q-2 2 -5 1t-5 -2q-7 -4 -12 -9t-11 -9q-4 -3 -7.5 -6.5t-8.5 -6.5q-23 -14 -54 -22q-7 -2 -14 -2.5t-15 -2.5q-4 -1 -8.5 -0.5t-8.5 -0.5q-3 -1 -12.5 -0.5
t-12.5 1.5q-5 0 -10 0.5t-10 0.5q-12 3 -23 5t-22 6l-8.5 3.5l-8.5 3.5q-35 19 -56 53q-13 21 -19 50.5t-7.5 63t-1 69t0.5 70.5v136q0 13 -0.5 30.5t4.5 25.5q3 5 12 9q6 0 9 1zM255 722h65h20.5t17.5 -3q9 -4 15 -11t11 -15l18.5 -23.5l18.5 -23.5l12.5 -16l12.5 -16
l6 -10t2 -13q-2 -2 -2.5 -3t-1.5 -2q-5 -4 -13.5 -4h-16.5h-39.5t-30.5 9q-4 3 -7 7.5t-6 8.5q-5 6 -9.5 12t-9.5 12l-10 11.5t-13 7.5q-9 2 -17 -7.5t-11 -14.5q-3 -4 -6.5 -7.5t-6.5 -7.5q-6 -8 -13 -16t-17 -12q-8 -4 -21 -3.5t-24 0.5h-18.5t-14.5 4q-2 1 -2.5 2.5
t-2.5 3.5q0 13 10 24.5t15 19.5l19.5 24t18.5 25l12 16t14 13q5 4 13 7q2 1 6 0t6 1z" />
    <glyph glyph-name="udieresis" unicode="&#xfc;" horiz-adv-x="593" 
d="M80 515h75q11 0 20 -1t13 -7q5 -6 6 -16.5t1 -21.5v-70v-149q0 -36 3 -68t18 -53q14 -21 45 -30q5 -1 8.5 -1t8.5 -1t11 -1t9 1q5 2 8.5 1t7.5 1q21 5 33 13q18 11 28.5 28.5t15 39t5.5 48t1 55.5v121v65v18.5t4 15.5q5 9 15 10.5t24 1.5h53h19t15 -4q8 -5 9 -15t1 -23
v-76v-281v-71v-20t-4 -15q-5 -8 -15 -9t-21 -1h-54q-11 0 -19.5 1t-13.5 8q-2 3 -3.5 9l-3 12t-3.5 11t-6 6q-2 2 -5 1t-5 -2q-7 -4 -12 -9t-11 -9q-4 -3 -7.5 -6.5t-8.5 -6.5q-23 -14 -54 -22q-7 -2 -14 -2.5t-15 -2.5q-4 -1 -8.5 -0.5t-8.5 -0.5q-3 -1 -12.5 -0.5
t-12.5 1.5q-5 0 -10 0.5t-10 0.5q-12 3 -23 5t-22 6l-8.5 3.5l-8.5 3.5q-35 19 -56 53q-13 21 -19 50.5t-7.5 63t-1 69t0.5 70.5v136q0 13 -0.5 30.5t4.5 25.5q3 5 12 9q6 0 9 1zM251 707q9 -7 8.5 -26.5t-0.5 -35.5q0 -5 0.5 -11t-0.5 -11q-2 -7 -2.5 -12t-5.5 -8
q-6 -5 -14.5 -5.5t-19.5 -0.5h-53q-9 0 -17.5 1.5t-13.5 6.5q-7 10 -6.5 30.5t0.5 37.5q0 8 0.5 16t3.5 13q4 6 15 10q7 0 8 1h62q11 0 20 -0.5t15 -5.5zM457 706q8 -6 8 -26v-35q0 -5 0.5 -10.5t-1.5 -10.5v-5q-1 -4 -2.5 -8.5t-4.5 -6.5q-6 -5 -15 -6t-20 -1h-52
q-10 0 -19 1.5t-13 7.5q-7 9 -6.5 30.5t0.5 37.5q0 8 0.5 15.5t3.5 12.5q4 6 15 10q7 0 8 1h62q11 0 20.5 -1t15.5 -6z" />
    <glyph glyph-name="dagger" unicode="&#x2020;" 
d="M238 713h60q16 0 27.5 -2t16.5 -13q3 -7 2.5 -19t-0.5 -22v-86q0 -15 1 -29t9 -21q7 -5 18.5 -5h22.5h85h23t19 -5q9 -7 9 -24.5v-33.5v-20.5t-2 -17.5q-3 -8 -9 -10t-15 -4h-17q-7 -2 -15 -1.5t-16 0.5h-63q-12 0 -23 -0.5t-18 -5.5q-4 -2 -5.5 -7.5t-2.5 -10.5v-5
q-2 -8 -1.5 -18.5t0.5 -18.5v-87v-278v-84v-22t-5 -18q-3 -5 -8.5 -6t-13.5 -3h-24q-8 0 -18.5 -0.5t-21 0t-20 1.5t-13.5 4q-8 5 -8.5 16.5t-0.5 24.5v94v273v85q0 8 0.5 18.5t-1.5 18.5v5q-1 5 -2.5 10.5t-5.5 7.5q-7 5 -18 5.5t-23 0.5h-62q-8 0 -16 -0.5t-15 1.5h-18
l-12 3.5t-9 6.5q-5 7 -4.5 18.5t0.5 22.5q0 9 -0.5 19t0.5 18.5t4 14.5t10 9q8 4 19 3.5t21 -0.5h79q16 0 29.5 1t18.5 10q5 8 5 21v24v85q0 10 -0.5 22t2.5 19q4 10 15 13q2 1 5 1t5 1z" />
    <glyph glyph-name="degree" unicode="&#xb0;" horiz-adv-x="400" 
d="M347 575q1 -5 0.5 -12t-1.5 -12q-1 -4 -0.5 -7t-0.5 -7l-4 -15.5t-6 -14.5q-11 -28 -32 -47.5t-49 -30.5q-7 -3 -15 -5l-16 -4q-3 -1 -6.5 -0.5t-6.5 -0.5q-4 -1 -10 -1t-9 1q-5 2 -9 1t-8 1q-9 2 -17 4.5t-15 5.5q-32 14 -52 36.5t-31 57.5q-4 11 -6 30.5t2 33.5
q2 8 3.5 15.5t4.5 15.5q24 59 83 83q7 3 13.5 4.5l14.5 3.5q3 1 8.5 0.5t7.5 1.5q57 1 92.5 -24.5t52.5 -64.5q4 -9 6 -18t5 -20q0 -7 1 -11zM278 536q5 13 4.5 30.5t-5.5 30.5q-10 23 -29 40t-51 17q-2 -2 -4.5 -1.5t-4.5 0.5q-5 -2 -9 -2.5t-8 -2.5q-36 -16 -50 -55
q-1 -4 -3 -14q-2 -9 -0.5 -19.5t3.5 -17.5q7 -20 17 -32t27 -22q9 -6 23 -9h10q1 -1 5 -1q6 2 12 2.5t12 2.5q36 15 51 53z" />
    <glyph glyph-name="cent" unicode="&#xa2;" 
d="M535 194q6 -10 3 -27q-4 -14 -8.5 -27.5t-10.5 -25.5q-38 -72 -115 -106q-11 -5 -22.5 -8l-23.5 -6q-8 -2 -16 -3.5t-14 -5.5q-11 -8 -11 -26v-35v-10.5t-1 -10.5q-3 -8 -8 -11t-14 -5q-3 -1 -7.5 -0.5t-6.5 1.5q-14 3 -18 13q-5 12 -2.5 32t-0.5 34q-4 15 -17 21
q-9 4 -19 4.5t-18 3.5l-29.5 10t-26.5 13q-38 23 -64 52t-44 71q-4 9 -7 19t-5 20q-2 8 -2 12q-2 7 -2.5 15t-2.5 16q0 4 -0.5 7.5t-0.5 8.5q-1 5 -1 11.5t1 10.5v10q1 5 1 9t1 9q3 14 4 28t6 27q8 25 18 46.5t24 40.5q18 27 45 46.5t59 33.5q10 4 20 6.5l21 5.5q8 2 15.5 3
t13.5 6q8 6 9.5 18.5t1.5 26.5q0 5 -0.5 9t1.5 9q3 12 12 16q2 1 4.5 1t4.5 1q13 0 21 -2.5t12 -10.5q3 -7 3 -16.5v-19t1.5 -18t7.5 -12.5q7 -5 15.5 -6t18.5 -3q11 -3 21 -5t19 -6q42 -17 73.5 -43t48.5 -66q2 -5 4.5 -10.5t4.5 -10.5q2 -4 2 -7t1 -8q2 -4 3 -10t-1 -11
q-3 -8 -13 -13q-5 -2 -12 -2h-14h-43q-8 1 -15 1h-15q-10 2 -17 7q-6 5 -9 14.5t-8 17.5q-13 22 -31 35q-9 5 -22 8t-18 -10q-2 -2 -2 -5.5t-1 -6.5v-9q-1 -4 -0.5 -8.5t0.5 -8.5v-198q0 -9 -0.5 -20.5t0.5 -22t4 -18t10 -9.5q9 -2 17 3.5t12 8.5q24 17 36 45q4 8 6 17.5
t7 16.5q7 10 25 10h35q7 0 17 0.5t20 0t18 -2.5t11 -6zM255 108q6 8 5.5 29t-0.5 35v183v15.5t-0.5 16.5t-2 14.5t-5.5 9.5q-5 3 -13 3q-2 -2 -4 -2t-4 -1q-3 -1 -6 -2.5t-5 -3.5q-20 -15 -35 -39q-11 -18 -17 -43.5t-6.5 -53t4 -54t13.5 -47.5q15 -35 42 -55l10 -7t14 -3
q7 0 10 5z" />
    <glyph glyph-name="sterling" unicode="&#xa3;" 
d="M281 730q96 2 152.5 -32t84.5 -100q5 -11 8 -22.5t6 -24.5q1 -7 2 -13t2 -13q2 -8 1 -18.5t-4 -15.5q-5 -6 -18 -8h-6q-5 -2 -11 -1.5t-11 0.5h-42q-9 0 -17.5 0.5t-14.5 4.5q-8 5 -9 14.5t-4 20.5q-2 8 -4.5 16.5t-5.5 16.5q-16 37 -55 54q-6 2 -11.5 2t-12.5 2t-17.5 2
t-18.5 -2q-7 -2 -13.5 -3.5t-13.5 -3.5q-14 -7 -25.5 -18t-17.5 -26q-2 -4 -2.5 -7.5t-2.5 -8.5q-2 -7 -3.5 -17.5t0.5 -18.5v-8q1 -4 1 -7.5t1 -6.5q2 -5 2.5 -10.5t2.5 -10.5q2 -8 5 -14.5l6 -13.5l11 -23.5t17 -17.5q13 -6 38.5 -5.5t43.5 0.5q9 0 18.5 0.5t15.5 -3.5
q5 -4 7 -9t4 -12v-9q1 -3 1 -8.5t-1 -8.5q-2 -11 -2.5 -17.5t-8.5 -11.5q-6 -4 -17 -4t-23 0.5t-23 -0.5t-17 -5q-9 -7 -7.5 -22.5t1.5 -29.5v-10q-1 -5 -1.5 -11t-1.5 -11q-3 -12 -6.5 -23t-8.5 -21l-12 -18q-4 -5 -7.5 -10t-3.5 -15l3.5 -3.5t4.5 -2.5q5 -2 13 -1.5
t14 0.5h8q8 -2 17.5 -2t17.5 -2q16 -5 32 -7t31 -7q5 -1 9.5 -1t9.5 -1q9 -2 24.5 -2t24.5 2q13 3 23 8t21 12q4 2 9.5 5.5t13.5 1.5q7 -2 11 -8.5l8 -12.5l9 -15l9 -15l6.5 -10.5t5.5 -12.5t0 -12.5t-5 -9.5q-8 -11 -22 -19t-27 -14q-12 -5 -23.5 -8.5l-25.5 -7.5l-21 -3
h-7q-6 -1 -19.5 -1.5t-19.5 1.5h-8q-7 2 -13.5 2.5t-13.5 1.5q-8 2 -16.5 3.5t-16.5 3.5q-15 5 -30 9.5l-31 9.5q-7 2 -14 2.5t-15 2.5q-4 1 -7.5 0.5t-7.5 0.5q-5 1 -15 0.5t-14 -1.5q-5 -2 -10.5 -1.5t-10.5 -0.5l-22 -6t-20 -8q-8 -4 -19 -8.5t-22 2.5q-6 5 -10 12t-8 13
l-15.5 20.5t-10.5 22.5q-2 5 0 9.5t4 6.5q3 5 7.5 8.5t9.5 6.5q5 5 10 9.5t10 9.5q5 3 10 9l9 11q3 5 6.5 8.5t6.5 8.5q17 25 26 57q2 8 3 22.5t-1 24.5q-5 17 -10.5 31.5t-22.5 19.5q-4 2 -9 1.5t-10 -0.5h-21q-15 0 -25.5 2t-15.5 12q-2 5 -2 11.5v13.5q0 16 2 27t13 16
q10 4 20.5 3.5t13.5 11.5q1 5 -0.5 8.5t-2.5 5.5q-2 6 -5 11.5t-5 11.5q-5 12 -8 26t-7 28q0 7 -0.5 13t-1.5 13q-1 4 -0.5 12t1.5 12q1 5 0.5 9t1.5 9q2 9 4.5 17t5.5 16q20 48 55.5 75t87.5 44q9 3 18.5 4.5t18.5 3.5q5 2 9.5 1.5t9.5 1.5q8 0 14.5 0.5t13.5 0.5z" />
    <glyph glyph-name="section" unicode="&#xa7;" 
d="M544 265q2 -8 1.5 -19.5t-2.5 -19.5q-2 -7 -2.5 -12.5t-2.5 -11.5q-5 -14 -11 -25.5t-14 -22.5q-6 -8 -15.5 -16t-17.5 -14q-6 -4 -13 -8t-10 -12q-2 -10 4.5 -18.5l10.5 -13.5q7 -10 11.5 -21.5t8.5 -24.5l3 -21q2 -5 2 -14t-2 -14q-1 -5 -0.5 -8.5t-0.5 -7.5
q-6 -27 -16 -45q-3 -5 -6 -9.5t-6 -9.5q-8 -11 -19 -19q-5 -5 -10.5 -9.5t-11.5 -8.5q-17 -12 -36.5 -19.5t-42.5 -13.5q-9 -3 -18.5 -3.5t-18.5 -2.5q-4 -1 -8 -0.5t-8 -0.5t-11 -1t-10 1q-5 1 -9 1h-9q-7 2 -15 2t-15 2q-12 3 -23 4.5t-21 6.5q-34 14 -58.5 33.5
t-40.5 50.5q-5 8 -8 16.5l-6 17.5q-2 5 -2 9t-1 9q-2 5 -2.5 11.5t1.5 12.5q3 10 12 13q5 2 11.5 2h12.5h37h18t16 -2q10 -5 13 -13.5t7 -18.5q5 -11 13 -21q2 -3 5.5 -6t6.5 -5q4 -2 7.5 -5t8.5 -5q14 -6 36.5 -8.5t39.5 2.5q37 12 47 50q2 7 1 15.5t-3 13.5
q-5 18 -16.5 29.5t-25.5 20.5q-18 13 -38.5 23l-42.5 20q-10 5 -20 9.5l-21 9.5l-30 15q-2 2 -5 2.5t-6 2.5q-12 8 -24 14t-23 14q-9 6 -17 12.5l-16 13.5q-2 1 -2.5 2t-2.5 3q-3 3 -6.5 6t-6.5 8q-2 3 -5 6t-5 6q-11 16 -19 37q-3 6 -4 12.5t-3 13.5q-1 6 -1 12.5v13.5v8
q1 7 1 13.5t2 11.5q5 16 10 29t13 24q8 10 17 18.5t19 16.5q8 5 15.5 8.5t12.5 11.5q6 10 -0.5 21.5t-10.5 17.5q-5 8 -8 18l-6 21q0 7 -1 11q-1 6 -1 14.5t1 14.5q2 5 1.5 8.5t0.5 8.5q2 8 4.5 16t5.5 16q17 36 48 59.5t70 36.5q12 5 24 6.5t25 4.5q4 1 12 0t10 1
q61 2 107.5 -19.5t72.5 -56.5q4 -5 6.5 -10.5t6.5 -10.5q8 -13 12 -27t8 -30q2 -7 1 -15.5t-4 -12.5q-3 -5 -12 -7t-19.5 -2.5t-21.5 0t-20 0.5q-6 0 -13 -0.5t-12 1.5q-14 4 -18 15t-10 24q-8 20 -28 32q-5 4 -11.5 6.5t-13.5 4.5q-14 4 -27 2.5t-24.5 -6t-20.5 -11
t-14 -13.5q-4 -5 -9 -16t-3 -22q2 -5 2.5 -9t2.5 -8q6 -13 15.5 -23t21.5 -18.5t25.5 -15.5l25.5 -13q38 -20 78 -38t75 -41l21.5 -15.5t19.5 -17.5q2 -2 4.5 -4t4.5 -4q5 -6 9 -11.5l9 -12.5q5 -8 9 -18l8 -21q2 -5 1.5 -10t1.5 -11zM419 209q5 14 1 28t-10 23
q-11 15 -27.5 24t-32.5 19q-20 12 -41.5 23.5t-41.5 23.5q-6 4 -11.5 6.5l-11.5 5.5q-5 4 -11 7l-12 6q-8 5 -16.5 9t-22.5 4q-2 -2 -6 -2t-7 -2q-5 -3 -10.5 -7.5t-8.5 -9.5q-7 -8 -13 -24t-1 -33q3 -10 10 -19q10 -14 27 -21.5t31 -16.5q29 -17 59.5 -32.5t59.5 -32.5
q9 -6 27.5 -13.5t34.5 -2.5t23 15q6 9 11 22z" />
    <glyph glyph-name="bullet" unicode="&#x2022;" horiz-adv-x="501" 
d="M236 535q68 1 111.5 -30t63.5 -77q5 -10 7.5 -20l5.5 -21q1 -5 0.5 -8.5t0.5 -8.5q2 -6 1.5 -15t-1.5 -15q-1 -3 -1 -6.5t-1 -7.5q-3 -11 -5.5 -21.5t-7.5 -20.5q-14 -33 -40 -56t-60 -37q-8 -4 -17.5 -6l-18.5 -4q-4 -1 -7.5 -0.5t-6.5 -0.5q-4 -1 -12 -1t-11 1
q-6 2 -11 1.5t-10 0.5l-21 6t-20 8q-29 13 -52 36t-36 52q-3 6 -5 12t-4 13q-3 11 -5 22t-2 25q0 10 1 14q0 3 0.5 6.5t0.5 7.5q2 9 3.5 18.5t5.5 17.5q29 73 98 102q9 4 18.5 6t20.5 5q3 1 8.5 0.5t8.5 1.5z" />
    <glyph glyph-name="paragraph" unicode="&#xb6;" horiz-adv-x="620" 
d="M226 713h227h42h13.5t11.5 -2q7 -3 12 -9q5 -8 4 -25t-1 -30v-129v-485v-142q0 -17 -0.5 -32.5t-13.5 -20.5q-5 -2 -12 -2h-15h-32t-23 10q-5 8 -4.5 23.5t0.5 27.5v117v440v125q0 20 -1 34.5t-18 19.5q-5 2 -11.5 1.5t-13.5 -0.5q-16 0 -35 0.5t-26 -8.5q-6 -8 -6 -22.5
v-28.5v-113v-446v-120v-28.5t-6 -22.5t-20 -8.5t-29 -0.5h-19q-6 2 -12 2.5t-9 5.5q-5 7 -5.5 17t-0.5 22v77v253v80q0 9 1 20.5t-1 19.5l-4 11.5t-7 8.5q-9 6 -28.5 7t-32.5 4l-33 9.5t-30 12.5q-12 7 -24 17q-5 3 -9.5 6.5t-7.5 7.5q-3 5 -7 8.5t-7 8.5q-14 19 -21 45
q-3 8 -4 16.5t-3 16.5v16q-2 6 0 10v11q2 6 2 12.5t1 11.5q3 10 4.5 19t5.5 17q12 28 32.5 47.5t47.5 31.5q13 5 26.5 9l27.5 8l14 2l14 2q8 1 16 1.5t16 1.5q3 1 7.5 0t6.5 1z" />
    <glyph glyph-name="germandbls" unicode="&#xdf;" horiz-adv-x="611" 
d="M278 730q81 2 139.5 -26.5t82.5 -82.5q2 -3 3 -6.5t3 -6.5q3 -8 4.5 -15.5t3.5 -15.5q2 -6 1.5 -11.5t1.5 -12.5q1 -6 1 -15t-2 -15q-1 -5 -1 -10.5t-2 -10.5q-6 -23 -16 -41t-25 -32q-5 -5 -10.5 -9.5t-10.5 -10.5q-1 -2 -2.5 -4t-0.5 -5q2 -9 16.5 -17t21.5 -13
q17 -11 30 -28t22 -37q5 -11 8 -23l6 -25q1 -5 0.5 -10.5t1.5 -10.5q1 -6 1 -17.5t-1 -16.5q-2 -5 -1 -9.5t-1 -9.5l-4 -18.5l-4 -18.5q-17 -51 -47.5 -87t-78.5 -56q-10 -5 -21 -7t-23 -5l-21 -3h-9q-5 -1 -11.5 -1t-11.5 1h-9q-7 0 -17 2h-9q-8 2 -13.5 4t-9.5 7
q-6 8 -6 24v30v21t4 18q4 6 11.5 7.5t18.5 1.5h10q9 2 17 2.5t16 2.5q30 11 47 30.5t28 50.5q2 8 4 23t0 26v5q-2 6 -2 12t-2 11q-10 29 -27 47t-46 28q-6 2 -12.5 2.5t-13.5 2.5q-3 1 -6.5 0.5t-7.5 -0.5h-8q-11 0 -18 3q-9 4 -12 18v9.5t-1 9.5q0 13 0.5 26t8.5 18
t19.5 5.5t22.5 3.5q23 6 38.5 16t26.5 27q8 14 10 37.5t-5 41.5q-12 34 -49 48q-5 2 -9.5 2t-9.5 1q-8 2 -20 2.5t-20 -1.5q-22 -5 -38 -16t-24 -31q-6 -13 -8 -30t-3 -36t-0.5 -39t0.5 -39v-272v-97v-26t-6 -19q-5 -5 -13.5 -6t-17.5 -1h-59h-15.5t-12.5 2q-15 5 -15.5 23
t-0.5 38v171v207v41q0 5 -0.5 11t1.5 11v12q2 7 1.5 14t1.5 13q1 5 1 10.5t2 10.5q2 8 3.5 17t5.5 17q11 27 24.5 49t35.5 38q19 14 39.5 22t46.5 15q10 3 20 3.5t21 2.5q4 1 10 0t8 1z" />
    <glyph glyph-name="registered" unicode="&#xae;" horiz-adv-x="800" 
d="M783 369q1 -5 1 -12t-1 -12v-12q-3 -11 -3 -21.5t-2 -21.5q-2 -5 -2.5 -11t-2.5 -11l-9.5 -32.5t-10.5 -30.5q-33 -75 -91.5 -125.5t-140.5 -77.5q-14 -5 -30 -7.5t-32 -6.5q-9 -1 -17.5 -1.5t-17.5 -1.5h-11q-5 -1 -13 -1.5t-13 1.5q-5 1 -9.5 0.5t-9.5 0.5h-11
q-8 2 -16.5 3l-16.5 2l-17.5 4l-16.5 4q-11 4 -22 7t-22 8q-5 2 -9.5 4t-9.5 4q-16 8 -31 17l-13.5 8t-13.5 9q-26 18 -48 41t-41 50q-16 20 -29 48q-5 11 -9 22.5l-8 23.5q-2 5 -2.5 9.5t-2.5 9.5q-4 12 -5.5 24.5t-4.5 25.5q-1 6 -0.5 11.5t-0.5 11.5q-2 5 -2 18t1 18v12
q2 11 2.5 21t2.5 19q2 7 2.5 13.5t2.5 13.5l8 28t10 27q23 55 59 96.5t84 71.5q18 11 37.5 19.5t40.5 16.5q14 6 29.5 9t31.5 7q5 2 9 2t9 1q8 1 15.5 1.5t15.5 1.5q2 1 5.5 0t5.5 0q42 1 80.5 -4.5t67.5 -18.5q13 -5 25 -9t23 -11q5 -2 9 -4t9 -5q21 -13 44 -29q5 -4 10 -9
t10 -9q9 -7 17.5 -16t15.5 -18q3 -4 11 -12q11 -15 21 -31.5t18 -33.5q4 -8 6.5 -15.5t5.5 -15.5q7 -15 10 -32t8 -35q2 -7 2 -13.5t2 -13.5v-5q1 -5 0 -10t1 -10zM680 317q2 10 2 21v22q0 32 -5 58t-14 49l-7.5 19.5t-8.5 17.5l-13 21t-14 20q-2 4 -6 7t-7 7q-8 12 -20 20
q-5 5 -10.5 9.5l-11.5 9.5q-26 18 -58 32q-14 6 -29 9.5l-31 7.5q-4 1 -11 1q-11 3 -24.5 3h-26.5q-2 -1 -4 -0.5t-4 -0.5l-24 -3q-15 -4 -29 -7t-28 -8q-60 -25 -100 -68t-63 -106q-5 -13 -7 -27.5t-6 -28.5v-9q-2 -8 -2 -16.5v-17.5q0 -21 1.5 -39.5t6.5 -35.5
q4 -14 7 -26t8 -24q22 -50 57 -87.5t85 -59.5q13 -5 26.5 -9.5l28.5 -9.5q8 -1 14.5 -2t14.5 -2q2 0 5 -0.5t5 -0.5q6 -1 13 -1h14h12l24 3l29 6t27 8q58 23 98 61.5t65 95.5q8 17 11.5 34t8.5 37q0 7 1 10zM571 450q2 -9 0 -23.5t-4 -22.5q-7 -20 -18.5 -33t-27.5 -23
q-11 -6 -27 -10t-19 -17q-1 -3 0 -6.5t2 -5.5q3 -7 6.5 -12.5l7.5 -11.5l27 -44l27 -44q2 -4 6 -10t6.5 -12.5t2.5 -12.5t-6 -10q-8 -2 -14 -2h-8q-8 -2 -14 0q-5 1 -9.5 0t-9.5 1q-10 3 -15 10t-10 15q-19 29 -35.5 60t-34.5 61l-10.5 16t-15.5 12q-2 2 -4.5 1.5t-6.5 0.5
q-2 1 -9 1l-12 -3.5t-8 -6.5q-5 -7 -5 -17v-21v-77q0 -14 -0.5 -28.5t-9.5 -20.5q-3 -2 -6.5 -2.5t-7.5 -1.5h-8q-9 -2 -17 0h-8q-12 2 -16 5t-5 8t-3 10v9q-1 5 -0.5 12.5t0.5 13.5v304q0 5 -0.5 11t0.5 11v9q2 10 4 14q3 4 7 5.5l9 3.5q3 1 6.5 0t5.5 1h86q41 0 75.5 -2.5
t62.5 -14.5q9 -4 20 -10.5t16 -13.5q9 -12 14 -22t10 -27l3 -18v-9zM487 431q4 12 1.5 24t-7.5 20q-7 11 -19 16.5t-27 8t-33 3t-36 0.5q-2 -1 -5.5 -0.5t-5.5 -0.5q-15 -3 -19 -14q-3 -6 -3 -14v-16q0 -19 0.5 -37.5t12.5 -25.5q8 -4 19.5 -3.5t22.5 0.5q28 0 53 2.5
t37 18.5q6 7 9 18z" />
    <glyph glyph-name="copyright" unicode="&#xa9;" horiz-adv-x="800" 
d="M784 370q2 -11 0 -24q-1 -5 -1 -9.5v-9.5q-2 -9 -2.5 -19t-2.5 -19t-3.5 -18t-3.5 -17q-5 -12 -9 -24.5t-9 -24.5q-31 -71 -88 -121.5t-133 -76.5q-11 -4 -22.5 -6.5t-22.5 -5.5q-6 -2 -12 -2t-12 -2q-9 -2 -18.5 -2t-19.5 -2h-11q-5 -1 -13 -1.5t-13 1.5q-5 1 -9.5 0.5
t-9.5 0.5h-11q-8 2 -16.5 3l-16.5 2q-7 2 -13.5 3t-13.5 3q-13 5 -26 8.5t-25 8.5q-55 23 -97.5 57t-73.5 82l-12 20t-11 21q-10 21 -18 47q-2 5 -2.5 9.5t-2.5 9.5q-4 11 -5.5 24t-4.5 26q-1 5 -0.5 11t-0.5 11q-2 6 -2 18.5t1 17.5v13q2 10 2.5 20t2.5 20q2 7 3 14t2 15
q5 14 9 28t10 27q25 58 63.5 99.5t89.5 72.5q15 10 32 16.5l35 13.5q14 6 29.5 9t31.5 7q5 2 9 2t9 1q8 1 15.5 1.5t15.5 1.5q2 1 5.5 0t5.5 0q60 2 108 -10t87 -32l27 -15.5t26 -16.5q6 -4 11.5 -9t10.5 -9q7 -5 14 -11t12 -13l3.5 -3.5l3.5 -3.5l8.5 -10.5t9.5 -10.5
l16 -24l16 -25q5 -9 8.5 -19t8.5 -20q9 -22 15 -47q2 -7 3 -13.5t3 -12.5q2 -8 1.5 -15.5t1.5 -15.5q1 -3 1 -7t1 -8v-10zM681 318q2 10 2 21v22q0 64 -19 106q-3 9 -5.5 17.5t-7.5 16.5q-6 9 -11.5 18.5t-11.5 18.5q-25 35 -61 61t-81 41q-9 3 -19 5l-20 4q-5 2 -9 1.5
t-9 1.5h-5q-8 2 -18.5 1.5t-19.5 -0.5q-2 -1 -4 -0.5t-4 -0.5l-24 -3q-15 -4 -29.5 -7t-28.5 -8q-85 -38 -132 -110q-9 -14 -15.5 -29.5l-13.5 -31.5q-5 -14 -7.5 -29.5t-6.5 -30.5q-1 -5 -0.5 -9.5t-1.5 -9.5v-7q-1 -6 -0.5 -13.5t0.5 -14.5q0 -36 8 -66q3 -10 5 -19t6 -18
q23 -55 59 -95t90 -63q8 -4 16.5 -7l16.5 -6q7 -2 14 -3t14 -3q6 -2 12 -2.5t12 -1.5h5q6 -2 13.5 -1.5t14.5 0.5h12q7 1 14 1.5t14 1.5q13 4 26 6t25 7l24 10t23 12q39 24 68 56.5t49 77.5q5 11 8 23t7 24q2 6 2.5 12.5t2.5 12.5q0 7 1 10zM520 288q5 4 15.5 6t21.5 2
t20 -2.5t12 -8.5q2 -5 1 -11t-3 -11q-4 -11 -8 -20t-9 -17q-17 -28 -38 -45.5t-53 -30.5q-8 -3 -16 -4.5t-16 -3.5q-5 -1 -8.5 -1t-7.5 -1h-8q-6 -1 -14 -1t-13 2q-6 1 -11.5 0.5t-11.5 1.5l-23 6t-22 7q-76 33 -109 110q-5 10 -7 20.5t-5 22.5q-2 5 -2.5 11.5t-2.5 12.5v12
q-1 4 -1.5 10t0.5 9t0.5 6.5t0.5 6.5q1 5 0.5 10.5t0.5 10.5q3 14 5 26.5t7 24.5q18 43 44 72.5t69 46.5q11 5 22.5 7.5l24.5 5.5q6 1 11.5 1t11.5 1q63 2 103.5 -18.5t64.5 -58.5l11.5 -22t9.5 -25q4 -16 -5 -23q-4 -3 -11.5 -4.5t-16 -1.5t-17 1t-12.5 3q-9 4 -16.5 16.5
t-13.5 20.5q-3 4 -10 8q-8 6 -15.5 11t-17.5 9q-5 2 -11.5 2.5t-12.5 2.5h-14q-31 0 -53 -11q-23 -12 -36.5 -29.5t-21.5 -43.5q-2 -8 -3 -15.5t-3 -15.5q-2 -10 -1.5 -28t2.5 -28q2 -11 4.5 -21.5t7.5 -19.5q8 -19 23 -36.5t34 -26.5q5 -2 10 -3.5t11 -3.5q11 -3 27 -3.5
t29 2.5q8 2 15.5 4.5t13.5 6.5q20 13 31 30q4 7 7 14.5t9 11.5z" />
    <glyph glyph-name="trademark" unicode="&#x2122;" horiz-adv-x="1000" 
d="M387 708q6 -4 8.5 -17t0.5 -24v-8q-2 -9 -5.5 -14.5t-11.5 -8.5q-9 -2 -25 -1.5t-27 0.5h-15q-5 -2 -9 -1t-8 -1q-10 -4 -15 -19q-2 -5 -1.5 -12t0.5 -14v-236q0 -5 0.5 -9t-0.5 -8v-8q-1 -3 -1 -6t-2 -5q-3 -8 -11 -11q-5 -2 -11.5 -2h-14.5h-31t-24 8q-4 6 -4.5 14
t-0.5 18v236q0 5 0.5 10t-1.5 9v14q-3 16 -14 20q-10 5 -27.5 4t-30.5 -1q-5 0 -9.5 -0.5t-7.5 0.5q-4 2 -7 1.5t-6 0.5q-11 5 -12.5 16t-1.5 26q0 6 0.5 11t2.5 10t6.5 7.5t9.5 4.5q2 1 4 0.5t4 0.5h267q9 0 17.5 -0.5t13.5 -4.5zM920 706q5 -7 5.5 -16t0.5 -20v-325
q0 -11 -0.5 -19.5t-4.5 -14.5q-6 -8 -20.5 -8h-28.5q-6 0 -12 -0.5t-11 1.5q-9 3 -12 9t-5 15v17q-1 3 -0.5 7.5t0.5 8.5v127v24t-2 22q-2 5 -2.5 8.5t-4.5 5.5q-1 1 -3 1q-2 -2 -6 -4q-8 -12 -13 -27t-11 -29q-12 -31 -22.5 -62.5t-22.5 -61.5q-5 -14 -10.5 -31.5
t-16.5 -25.5q-5 -4 -13 -4.5t-17 -0.5h-15q-5 2 -9.5 3.5t-7.5 4.5q-4 3 -6 8l-4 10q-5 9 -7.5 18.5t-6.5 19.5q-12 29 -22 59.5t-22 59.5q-7 17 -12.5 34t-17.5 29q-2 0 -3 -0.5t-2 -0.5q-4 -4 -5 -9q-2 -5 -1.5 -9.5t-0.5 -9.5v-17q-1 -4 -1 -8v-7v-116q0 -13 0.5 -31.5
t-4.5 -26.5q-2 -2 -4 -4.5t-5 -3.5q-5 -2 -11.5 -2.5t-14.5 -0.5h-26t-21 6q-6 4 -7 13t-1 20v330q0 9 0.5 17.5t3.5 13.5q4 7 15 9q2 1 4 0.5t4 0.5h66h21t16 -5q10 -6 14 -19t9 -24l21.5 -56.5l21.5 -57.5q7 -15 12.5 -31t11.5 -31l6 -12.5t9 -8.5t9.5 2t5.5 7
q7 11 11 23.5t9 24.5q14 33 26 67.5t26 67.5l10.5 29.5t19.5 21.5q6 2 13.5 2h15.5h44q6 0 12 0.5t11 -0.5h5q5 -2 9.5 -3t6.5 -4z" />
    <glyph glyph-name="acute" unicode="&#xb4;" horiz-adv-x="259" 
d="M170 721h71h19t16 -3q2 -1 2.5 -2.5t2.5 -2.5q1 -12 -9.5 -21t-17.5 -16q-8 -7 -15.5 -14.5t-15.5 -13.5q-4 -3 -6.5 -6.5t-6.5 -5.5q-2 -3 -5 -5q-5 -5 -10 -9.5t-10 -8.5q-2 -2 -2.5 -3t-2.5 -3q-8 -6 -15.5 -13t-18.5 -11q-4 -1 -7.5 -1t-8.5 -1q-3 -1 -8 -0.5t-9 0.5
h-23t-18 5q-6 4 -3 14q2 8 7 14.5t9 13.5l19 27l18 27l10.5 17t12.5 14q4 3 14 7q2 1 5.5 0.5t5.5 0.5z" />
    <glyph glyph-name="dieresis" unicode="&#xa8;" horiz-adv-x="259" 
d="M85 707q9 -7 8.5 -26.5t-0.5 -35.5q0 -5 0.5 -11t-0.5 -11q-2 -7 -2.5 -12t-5.5 -8q-6 -5 -14.5 -5.5t-19.5 -0.5h-53q-9 0 -17.5 1.5t-13.5 6.5q-7 10 -6.5 30.5t0.5 37.5q0 8 0.5 16t3.5 13q4 6 15 10q7 0 8 1h62q11 0 20 -0.5t15 -5.5zM291 706q8 -6 8 -26v-35
q0 -5 0.5 -10.5t-1.5 -10.5v-5q-1 -4 -2.5 -8.5t-4.5 -6.5q-6 -5 -15 -6t-20 -1h-52q-10 0 -19 1.5t-13 7.5q-7 9 -6.5 30.5t0.5 37.5q0 8 0.5 15.5t3.5 12.5q4 6 15 10q7 0 8 1h62q11 0 20.5 -1t15.5 -6z" />
    <glyph glyph-name="notequal" unicode="&#x2260;" horiz-adv-x="549" 
d="M419 657q12 0 15 -5.5t2.5 -13t-4 -15.5t-5.5 -13q-2 -3 -2.5 -6t-1.5 -5q-14 -34 -26.5 -68l-26.5 -69l-6 -16.5t-7 -16.5q-1 -4 -1.5 -9t1.5 -10t7.5 -7t12.5 -4h10q8 -2 18.5 -1t18.5 1h75q14 0 22 -2.5t12 -12.5q0 -2 1 -5.5t0 -5.5q-2 -4 -3 -7q-5 -9 -19.5 -9.5
t-30.5 -0.5h-127q-7 -2 -12 -2.5t-10 -4.5q-9 -6 -12.5 -16.5t-8.5 -21.5q-8 -18 -14.5 -37t-14.5 -37l-6 -16l-6 -16q-2 -4 -3 -8.5t1 -9.5q2 -7 9 -10t16 -4t19.5 -0.5t19.5 0.5h146q21 0 36.5 -1t19.5 -18q1 -5 -0.5 -9t-3.5 -6q-7 -11 -26 -10.5t-36 0.5h-150
q-15 0 -36.5 0.5t-32.5 -4.5q-14 -5 -20 -22l-11 -30l-29 -70.5l-28 -70.5l-10 -27t-14 -23q-2 -3 -7.5 -6t-12.5 0q-5 2 -7 7t0 12q3 11 7 21.5l8 20.5l27 66.5l27 67.5q3 8 6.5 16t5.5 17q2 10 -2 17q-6 7 -19 7.5t-26 0.5h-79q-20 0 -33.5 1t-17.5 18q-1 8 3 14
q5 8 15.5 9.5t24.5 1.5h138q7 2 12 3t10 5q8 5 11 15.5t8 19.5l15 39l15 39l6 15.5l6 15.5q1 2 2.5 7t-0.5 10q-2 7 -8.5 10t-15.5 4t-19.5 0.5t-19.5 -0.5h-148q-19 0 -35 1t-20 16q-2 6 0.5 10.5t4.5 6.5q7 10 26 9.5t35 -0.5h155q16 0 36 -0.5t30 6.5q12 8 19 29t13 35
q14 31 25 62t24 61q6 13 11 29t13 27q2 2 4.5 4t4.5 3z" />
    <glyph glyph-name="AE" unicode="&#xc6;" horiz-adv-x="981" 
d="M946 45q0 -12 -1 -23t-9 -16q-6 -5 -16 -5.5t-21 -0.5h-400q-11 0 -21 0.5t-17 5.5q-8 7 -8 26v13q-2 5 -1.5 12t0.5 12v46v15.5t-2 12.5q-6 13 -22 16h-16h-137q-18 0 -32 -1.5t-21 -12.5q-6 -8 -10 -17.5l-9 -20.5q-6 -14 -13.5 -29t-13.5 -29q-6 -12 -11 -24.5
t-16 -20.5q-5 -3 -15 -4t-21.5 -1t-23.5 0.5t-20 0.5q-14 0 -34.5 -0.5t-28.5 4.5q-5 3 -5.5 9t1.5 13t4.5 13t4.5 10q8 14 14.5 28.5t14.5 29.5q5 11 10 20.5t10 20.5q3 8 6 14.5t6 14.5q7 11 12.5 23l11.5 24q5 13 11.5 26l13.5 27q2 5 5 10t5 10q9 20 18.5 39t17.5 39
q4 8 8 15t7 15l28.5 61t27.5 60l8 15.5t7 14.5l21.5 44.5t19.5 43.5q7 11 10 19q4 9 11 23.5t13 19.5q5 5 15 7q2 1 5.5 0.5t5.5 1.5h536q15 0 27 -1.5t17 -12.5q3 -8 3 -20v-23v-37.5t-8 -28.5q-11 -8 -30.5 -7.5t-36.5 0.5h-213q-11 0 -20 -0.5t-14 -4.5q-8 -5 -8.5 -12
t-2.5 -17v-69q0 -5 -0.5 -9.5t0.5 -9.5v-7q1 -2 1 -5t1 -6q5 -9 13 -12q11 -5 31.5 -4t35.5 1h147q9 0 20 0.5t21.5 0t19.5 -2t14 -5.5q9 -6 9 -25.5v-36.5v-20.5t-3 -17.5t-11 -10.5t-18.5 -4.5t-22 -0.5t-21.5 0.5h-171q-21 0 -39.5 -0.5t-24.5 -15.5q-4 -11 -3 -29.5
t1 -31.5v-44q0 -5 -0.5 -11t0.5 -11v-7q3 -16 10 -20q5 -4 15 -5.5t22 -2t23.5 0t20.5 0.5h201h9t9 -1q5 -1 9 -0.5t7 -0.5q8 -3 12 -11q3 -7 3.5 -16t0.5 -17v-40zM447 286q5 8 5 24v30v197v21t-5 16q-6 8 -17 8q-1 -1 -2 -0.5t-3 -0.5q-8 -2 -10 -8q-7 -7 -10.5 -15
l-7.5 -17q-4 -10 -8.5 -19.5t-8.5 -19.5l-33 -72.5l-34 -72.5q-3 -8 -5.5 -14l-5.5 -13l-6.5 -13t-5.5 -13q-3 -9 -0.5 -16.5t10.5 -9.5q8 -4 25 -3.5t30 0.5q10 0 24 -0.5t27.5 0t24.5 3t16 8.5z" />
    <glyph glyph-name="Oslash" unicode="&#xd8;" horiz-adv-x="778" 
d="M724 472q9 -27 12.5 -60t2.5 -67t-6 -67t-14 -58q-40 -121 -136 -182q-9 -5 -18 -11t-20 -10q-21 -10 -47 -18q-5 -2 -10 -2.5t-11 -2.5q-7 -2 -15 -3t-16 -3q-4 -2 -8 -1.5t-8 -0.5q-5 0 -10 -0.5t-10 -0.5q-5 -1 -14.5 -1.5t-14.5 0.5h-9q-9 0 -19 2h-10q-8 2 -15 2.5
t-14 2.5q-25 6 -46.5 12t-41.5 17q-14 7 -29 16q-5 4 -11 7.5t-14 5.5q-10 2 -17.5 -4.5t-12.5 -11.5l-10 -10.5l-10 -11.5l-6 -6t-5 -6q-5 -6 -11.5 -12.5t-14.5 -8.5t-15 3t-11 7q-5 4 -11 12.5t-1 18.5q2 5 5 8t5 6q8 11 17.5 20t17.5 20q3 4 7 7.5t7 8.5q4 5 5 13t-2 15
t-7 12.5l-8 11.5q-5 8 -10 18t-10 19q-8 17 -13.5 34t-10.5 36l-6 33l-2 16.5l-2 16.5q-1 4 -0.5 7.5t-0.5 7.5v18q-2 6 0 12v7v10t1 10q1 7 1 13t1 13q3 14 4.5 28t5.5 26q2 6 3 11t3 10q7 25 18 48q6 14 13 25.5l14 22.5q52 80 145 120q15 7 32 11t34 9l16 2l16 2q5 1 9 1
h9q6 2 19.5 2.5t19.5 -1.5q2 -1 5 -0.5t5 -0.5h14q9 -2 19 -2.5t19 -2.5q10 -3 19.5 -5t18.5 -5l22 -8t22 -9q12 -5 22.5 -12l21.5 -14l10.5 -5.5t14.5 -1.5q9 2 17.5 11t13.5 16q3 4 7 7t7 7l10.5 12.5t11.5 10.5q2 2 5 2t5 2q8 0 10 -1q7 -3 16 -10.5t12 -14.5q3 -9 0 -17
q-3 -7 -8 -11.5t-9 -9.5q-8 -11 -17 -19.5t-17 -18.5q-4 -6 -9.5 -13t-2.5 -18q2 -11 8 -19t11 -16q8 -14 14.5 -29t12.5 -31q4 -8 5.5 -15.5t4.5 -15.5zM222 234q9 -4 15.5 2l10.5 10q16 15 30 33q2 1 2.5 2t1.5 2q5 7 11 12.5t11 12.5q6 8 13 14t12 14q2 2 3 2.5t2 2.5
q5 5 9 10t9 10l4 4q4 5 8.5 9.5t8.5 9.5q13 17 27.5 31t27.5 31q3 3 5 4q4 5 8.5 10t8.5 10l4 4l4 4q8 11 17 19.5t17 19.5l10 11.5t7 14.5q2 11 -7.5 18.5t-15.5 11.5q-20 13 -45.5 19.5t-58.5 6.5q-2 -2 -5 -1t-5 0q-6 -1 -11.5 -1.5t-10.5 -1.5q-14 -3 -27 -7t-24 -10
q-39 -20 -60.5 -55.5t-35.5 -83.5q-3 -11 -4 -22t-3 -22q0 -5 -0.5 -9.5t-0.5 -9.5q-2 -6 -2 -16.5t2 -17.5v-12t1 -12q1 -5 0.5 -10t1.5 -10q2 -9 3.5 -18.5t4.5 -17.5t5.5 -16.5t10.5 -11.5zM583 343q1 5 1 16.5t-2 16.5v9t-1 9q-2 11 -3 21t-4 20t-5.5 21t-10.5 16
q-2 2 -8 2q-2 -1 -5 -1t-5 -2q-6 -4 -10.5 -9.5t-9.5 -10.5l-4 -4q-5 -7 -11 -12.5t-11 -12.5q-2 -3 -5 -5.5t-5 -4.5q-8 -10 -16 -18t-15 -18q-2 -2 -3 -2.5t-2 -2.5q-5 -5 -9 -10t-9 -10q-3 -3 -5 -4q-4 -6 -9 -11l-10 -10q-13 -18 -28.5 -33t-29.5 -33q-5 -6 -11.5 -11.5
t-11.5 -12.5q-8 -11 -18 -20.5t-18 -20.5q-4 -5 -8 -9t-7 -9q-6 -10 -2 -18.5t10 -13.5q12 -9 25.5 -14.5t29.5 -10.5q8 -3 17.5 -3.5t19.5 -2.5q5 -1 10.5 -0.5t10.5 0.5q35 2 58 10q43 16 68 42.5t42 68.5q5 11 8 23.5l6 25.5q2 8 2 15t2 15q1 4 1 8.5t1 9.5v11z" />
    <glyph glyph-name="infinity" unicode="&#x221e;" horiz-adv-x="713" 
d="M679 318q4 -12 6 -28.5t2 -34t-2 -34t-6 -28.5q-7 -22 -15.5 -39.5t-20.5 -34.5q-2 -3 -5.5 -5.5t-5.5 -5.5q-14 -18 -35 -31t-46 -21q-14 -5 -34.5 -4.5t-34.5 5.5q-17 6 -29.5 14t-26.5 18q-5 4 -9 9l-7 9l-15 20.5t-14 20.5q-5 7 -10 15.5t-14 10.5q-8 2 -14.5 -4.5
t-8.5 -10.5q-11 -15 -23 -29t-27 -25q-20 -14 -43 -21q-7 -2 -14 -2.5t-15 -2.5h-7q-9 -2 -22.5 -0.5t-21.5 3.5q-6 2 -12 3t-12 3q-49 20 -77 60q-16 23 -25 55q-2 8 -3 17t-3 18v20q0 11 0.5 22t3.5 20l3.5 18t4.5 16q12 30 32.5 53.5t49.5 36.5q7 3 14.5 5l15.5 4
q4 1 7.5 1t7.5 1h9q18 0 30 -4q6 -2 11.5 -3t10.5 -3q32 -14 53 -43q6 -8 11.5 -16.5t13.5 -16.5q2 -2 5.5 -4.5t9.5 -0.5q8 2 14 13t11 19q9 15 20.5 29t25.5 25q13 9 28 14.5t33 10.5q7 2 14.5 2t15.5 2q2 1 6 0t6 0q35 1 62 -8.5t47 -23.5q5 -3 8.5 -6.5t8.5 -6.5
q1 -2 2 -3t2 -3q12 -9 24 -25.5t18 -31.5q4 -8 6.5 -16t4.5 -17zM300 268l2.5 10t-0.5 12q-4 16 -11 28t-15 23q-15 20 -33 31.5t-45 18.5q-7 2 -16 1.5t-17 -0.5q-5 -1 -8.5 -1.5t-7.5 -0.5q-7 -2 -13 -4l-12 -4q-26 -11 -41.5 -32.5t-24.5 -49.5q-2 -7 -2.5 -13.5
t-2.5 -13.5v-7q-2 -8 -1 -20.5t3 -19.5q2 -8 3 -15.5t4 -14.5q16 -42 51 -65q12 -8 32 -14q3 -1 5.5 -0.5t6.5 -0.5q3 -1 8.5 -1.5t8.5 0.5q11 3 21 5t18 7q30 18 44.5 43t28.5 59q4 10 7 19zM660 241q3 11 1.5 29t-4.5 27q-2 8 -3.5 15t-4.5 15q-13 30 -34.5 53t-51.5 35
q-11 5 -22.5 6t-25.5 1q-1 -1 -2.5 -0.5t-3.5 0.5q-4 -1 -7.5 -1.5t-8.5 -1.5q-19 -6 -32 -15q-26 -18 -39.5 -47l-26.5 -59q-14 -31 -23 -59q-5 -16 3 -31l13 -24q17 -28 36 -49t53 -32q11 -4 20 -5q6 0 8 -1q2 0 7.5 -0.5t7.5 -0.5q4 1 8 0.5t8 0.5q8 2 15.5 3.5t15.5 4.5
q58 23 83 84q4 9 5.5 18.5t4.5 19.5q1 4 0 7t0 7z" />
    <glyph glyph-name="plusminus" unicode="&#xb1;" horiz-adv-x="600" 
d="M58 274q-9 6 -9.5 21.5t-0.5 30.5v18t3 16q5 11 22 14h19q7 2 16.5 1t17.5 -1h68h23t19 5q12 8 11.5 30.5t-0.5 42.5v9.5t1 8.5v15q5 15 16 19q7 0 10 1h39h13.5t11.5 -2q8 -3 12 -11q2 -8 2 -11v-11q1 -4 1 -8.5v-9.5v-36q0 -12 1 -21.5t8 -14.5q8 -5 20 -5.5t25 -0.5
h68q8 0 17 1t16 -1h11q16 0 24 -5q8 -6 8 -22v-30q0 -10 0.5 -20.5t-3.5 -16.5q-6 -10 -20.5 -10.5t-30.5 -0.5h-91q-12 0 -24 -0.5t-20 -5.5q-7 -5 -8 -15.5t-1 -23.5v-34v-8.5t-1 -8.5v-11q-1 -3 -1 -6.5t-2 -6.5q-5 -8 -17 -11h-14q-4 -1 -8.5 -1h-9.5q-18 0 -31.5 1
t-18.5 15q-2 5 -1.5 9.5t-0.5 10.5q-1 4 -1 8.5v9.5q0 10 0.5 21.5t0 22t-3.5 19t-9 11.5q-8 4 -20.5 4h-23.5h-87h-25t-21 5zM544 100q4 -3 5.5 -10t2 -16t0 -18t-0.5 -16t0.5 -13t-1.5 -11q-5 -12 -16.5 -13.5t-28.5 -1.5h-411q-11 0 -21 0.5t-16 5.5q-8 5 -8.5 20.5
t-0.5 29.5q0 12 0.5 25t7.5 18q8 5 20.5 5.5t26.5 0.5h134q3 0 7 -0.5t6 1.5q53 -1 105.5 -1h105.5h48q11 0 20 -0.5t15 -5.5z" />
    <glyph glyph-name="lessequal" unicode="&#x2264;" horiz-adv-x="549" 
d="M46 329q-9 5 -18 9t-13 13t-1.5 19t7.5 14q9 7 19 11t21 9q16 7 31.5 13t31.5 13l136 58l136 58q22 10 43 18.5l42 17.5l21 9q4 1 10 3q13 0 17 -5q5 -7 3.5 -17t-6.5 -15q-4 -5 -10.5 -8l-12.5 -6q-11 -5 -23 -9.5t-23 -9.5l-135.5 -56l-134.5 -56q-17 -8 -34.5 -14.5
t-34.5 -14.5q-7 -2 -15 -5.5t-10 -11.5t5.5 -13t12.5 -7q19 -10 38.5 -17.5l39.5 -15.5l135 -56l135 -56l23 -10l24 -10l11.5 -6t9.5 -8q3 -5 4.5 -12.5t-0.5 -14.5q-4 -8 -13.5 -8t-17.5 4l-45.5 19l-45.5 19l-146 62.5l-146 62.5q-18 8 -36 15t-35 15zM525 -38
q4 -3 7 -8.5t1 -13.5q-4 -13 -16 -15t-28 -2h-432h-19t-16 4q-9 6 -9 18t9 18q2 1 5.5 1.5t5.5 1.5h6h451h19.5t15.5 -4z" />
    <glyph glyph-name="greaterequal" unicode="&#x2265;" horiz-adv-x="549" 
d="M430 344q5 2 14 7t7 14q-2 7 -9.5 10.5l-13.5 6.5l-33.5 13.5l-33.5 13.5q-65 29 -130.5 55t-130.5 55l-27.5 11.5t-27.5 10.5q-7 4 -14 6.5t-12 7.5q-4 5 -7 14.5t2 17.5q2 3 4.5 4t4.5 3q14 0 24 -5t20 -9l36.5 -16l37.5 -16l143 -60.5l143 -61.5q17 -8 34 -14.5
t34 -14.5q7 -3 16 -6.5t13 -8.5q5 -5 7 -14t-2 -18t-12.5 -13l-17.5 -8l-36 -15.5l-36 -15.5l-147.5 -62.5l-147.5 -62.5q-21 -10 -42.5 -19l-43.5 -18q-9 -4 -19 -4.5t-14 9.5q-4 8 -1 15.5t7 11.5q4 6 10 9t13 5q10 5 20 9t21 9l136.5 56.5l135.5 56.5l38 15.5t37 15.5z
M524 -38q4 -3 7 -8.5t1 -13.5q-4 -13 -16 -15t-28 -2h-432h-19t-16 4q-9 6 -9 18t9 18q2 1 5.5 1.5t5.5 1.5h6h451h19.5t15.5 -4z" />
    <glyph glyph-name="yen" unicode="&#xa5;" 
d="M26 713h82h22t18 -4q7 -5 11 -12t7 -16l10 -22.5l10 -22.5l30 -70.5l30 -70.5q5 -10 8.5 -19.5t8.5 -19.5q3 -7 5.5 -13.5t6.5 -11.5q2 -2 3.5 -2.5t3.5 -2.5q11 -1 14.5 6l7.5 15l12 28l12 28l30 74t32 74q5 12 12 31t17 26q11 7 30.5 6t36.5 -1h46q7 0 14 -0.5t12 -3.5
t5.5 -9.5t-1.5 -12.5q-5 -13 -11.5 -25.5l-13.5 -25.5l-39 -79t-40 -80l-10 -20l-10 -21q-2 -3 -4.5 -8.5t-0.5 -10.5q2 -12 14 -13.5t27 -1.5h14q3 -1 9 -1q16 -4 17.5 -16.5t1.5 -32.5v-16t-3 -13q-3 -8 -8.5 -10t-14.5 -4h-17q-4 -1 -9 -1h-10h-44h-15.5t-13.5 -2
q-8 -4 -12.5 -10.5t-7.5 -15.5q-2 -5 -3 -12.5t1 -13.5q3 -13 10 -18q6 -3 15.5 -3.5t18.5 -0.5h65q14 0 26 -0.5t17 -8.5q4 -6 4.5 -14.5t0.5 -17.5q0 -17 -1 -31t-13 -19q-6 -2 -15.5 -2h-18.5h-63q-14 0 -26 -1.5t-17 -10.5q-4 -6 -4 -14.5v-18.5v-42q0 -5 0.5 -10.5
t-1.5 -10.5v-7q-2 -10 -4 -14q-5 -6 -14 -8q-8 -2 -18.5 -1.5t-20.5 0.5h-50h-15.5t-12.5 2q-10 4 -13 17q-2 5 -1.5 11.5t0.5 12.5v44v9.5t-1 8.5v8q-2 6 -3.5 11t-5.5 8q-6 5 -15.5 5.5t-19.5 0.5h-67h-20t-16 5q-8 6 -8.5 19.5t-0.5 27.5v17.5t4 13.5q5 8 17.5 9t26.5 1
h64h17.5t14.5 4q9 5 12 19q1 5 0 12t-2 11q-3 10 -7.5 17t-12.5 11q-6 2 -13.5 2h-15.5h-44h-10t-9 1h-17q-8 2 -13.5 4t-8.5 7t-3 12v15q0 18 0.5 33t14.5 20q8 3 18.5 2.5t20.5 -0.5t18 2.5t10 10.5q2 6 -0.5 12t-4.5 10q-2 5 -4 9.5t-4 9.5l-6 10.5t-5 10.5l-10.5 22.5
t-11.5 22.5q-2 4 -4 7.5t-4 7.5l-10 22t-11 22q-2 3 -3.5 6.5t-3.5 7.5q-5 12 -11 23.5l-12 22.5q-2 4 -3.5 7.5l-3.5 8.5q-9 15 -14 29q-2 4 -2.5 9.5t1.5 9.5q3 5 12 7q2 1 4 0.5t4 0.5z" />
    <glyph glyph-name="mu" unicode="&#xb5;" horiz-adv-x="593" 
d="M80 515h75q11 0 20.5 -1t14.5 -7q5 -7 5.5 -17t0.5 -21v-70v-149q0 -36 3 -68t18 -53q14 -21 45 -30q5 -1 8.5 -1t8.5 -1q3 -1 10 -1t10 1q6 2 11 1.5t10 1.5q10 3 18 6.5t16 9.5q16 11 25 28t13 38.5t5 46.5t1 52v125v62v18t3 16q5 10 15 11.5t24 1.5h56q11 0 21.5 -1
t15.5 -7q6 -9 5.5 -26t-0.5 -31v-138v-219v-51q0 -11 -0.5 -19.5t-5.5 -14.5q-2 -4 -6.5 -5t-9.5 -3h-5q-6 -1 -13.5 -0.5t-13.5 0.5q-14 0 -35 -1t-31 4q-7 3 -9 9t-4 14q-1 4 -1 7.5t-1 7.5q-2 3 -4 4t-4 3q-12 1 -21.5 -10t-17.5 -16q-17 -12 -33.5 -20t-39.5 -14
q-14 -3 -31.5 0t-28.5 6q-16 5 -23 -6q-4 -6 -4 -17v-21v-81v-22.5t-5 -17.5q-4 -6 -12.5 -8t-19.5 -2.5t-22.5 0t-20.5 0.5q-11 0 -24.5 -0.5t-22.5 2.5q-11 5 -12 18t-1 29v112v393v91q0 11 -0.5 22.5t4.5 18.5q3 5 12 9q6 0 8 1z" />
    <glyph glyph-name="partialdiff" unicode="&#x2202;" horiz-adv-x="494" 
d="M484 482q1 -5 1 -15t-1 -16v-24v-15t-2 -15v-7q-1 -4 -1 -8t-1 -8q0 -10 -1 -15q-1 -6 -1 -12t-2 -12q-3 -14 -5 -28.5t-7 -28.5q-5 -16 -9 -31t-10 -29q-23 -57 -52.5 -107.5t-76.5 -83.5q-5 -4 -10.5 -7.5t-11.5 -6.5q-10 -6 -21.5 -10t-23.5 -9q-7 -2 -13.5 -2.5
t-13.5 -2.5h-10q-7 -2 -21.5 -2t-21.5 2l-23.5 4t-22.5 7q-53 22 -78 76q-4 9 -5.5 18t-4.5 19q-1 5 -1 10.5t-2 10.5v10v8q1 3 0.5 6.5t0.5 5.5q1 5 0.5 10t0.5 10q3 13 5 25t6 23q21 63 60.5 112.5t97.5 75.5q13 5 26.5 9l27.5 8l21 3h5q16 4 30 0q2 0 5 -0.5t5 -0.5
q4 -1 8 -1.5t9 -1.5q12 -3 23 -7t21 -9q14 -8 25 -16.5t22 -18.5q2 -2 7 -5.5t10 -1.5t6 5t3 8q2 9 2.5 21t0.5 23q0 41 -8.5 72t-25.5 55q-28 38 -79 55q-6 2 -12.5 3t-13.5 3q-5 0 -8 1q-8 2 -23 2t-23 -2q-4 -1 -11 -1l-21 -5.5t-19 -6.5q-28 -12 -51 -35
q-4 -5 -10 -11.5t-15 -4.5q-5 7 0 18q4 8 9 15.5l10 15.5q15 23 35.5 42t48.5 30q8 4 16.5 5.5t16.5 3.5q5 1 9 1.5t9 0.5q64 1 105.5 -28.5t60.5 -72.5q4 -9 6.5 -18t6.5 -18l4 -18.5l4 -18.5q1 -4 1 -8t1 -8v-10t1 -10zM442 288q5 17 -2.5 33l-12.5 26q-20 31 -49 51
t-80 20q-2 -2 -6 -1.5t-7 -0.5q-6 -2 -12.5 -3t-12.5 -3q-20 -8 -40 -22q-4 -3 -7.5 -6.5t-7.5 -6.5q-5 -3 -9 -10l-4.5 -4.5l-4.5 -4.5l-9 -13l-9 -14q-14 -22 -24 -47t-18 -53q-4 -11 -5.5 -23t-4.5 -24q-1 -7 -1.5 -14t-1.5 -14v-9q-2 -10 -0.5 -25.5t3.5 -23.5
q2 -6 2.5 -11t2.5 -10q18 -44 62 -60q8 -2 22.5 -3t24.5 2q5 2 11 3t11 3q25 10 47 27q57 41 89 102.5t53 138.5z" />
    <glyph glyph-name="summation" unicode="&#x2211;" horiz-adv-x="713" 
d="M51 692h404h119q12 0 29.5 0.5t26.5 -2.5q9 -4 12 -11.5t5 -18.5v-11q2 -11 2 -22.5t2 -22.5q2 -5 1 -9.5t0 -9.5q1 -4 1 -16t-2 -15q0 -2 -3 -5q-1 -1 -3 -1q-4 2 -5 3q-2 3 -2.5 6.5t-2.5 6.5l-4 10.5l-4 10.5q-7 14 -16 27t-21 22q-23 16 -51.5 18t-67.5 2h-161h-100
q-12 0 -23.5 -1t-14.5 -9q-2 -8 2.5 -15t7.5 -11l22 -30.5l22 -29.5l75 -101.5l74 -100.5q9 -14 19 -26t19 -25q2 -4 6 -10.5t2 -14.5q-2 -11 -8.5 -19l-12.5 -16l-21.5 -28l-20.5 -28l-77 -104.5l-77 -103.5l-27.5 -36.5l-26.5 -35.5q-4 -5 -9 -14t0 -17q5 -6 14 -6.5
t20 -0.5h82h214q36 0 68 1t57 12l10 4l10 4q15 10 25.5 23.5t19.5 30.5q3 6 7 16.5t12 10.5q3 -1 4 -4q3 -4 2 -16t-3 -17v-8q-2 -6 -2 -12t-1 -13q-5 -17 -6 -35.5t-6 -36.5q-3 -11 -3.5 -22t-8.5 -16q-8 -6 -20.5 -6.5t-25.5 -0.5h-97h-347h-91h-22.5t-18.5 4
q-9 6 -5.5 16t7.5 17q5 6 9.5 12t9.5 12l20 27.5l20 27.5q8 11 16.5 21t16.5 21q34 49 70.5 96l71.5 96q3 4 6.5 8t6.5 8q8 12 16.5 23.5l17.5 23.5q6 9 13.5 17.5t10.5 21.5q2 9 -3.5 17t-9.5 13q-11 16 -22.5 30.5l-22.5 29.5l-73 98l-73 97q-10 14 -20.5 26t-19.5 26
l-28 37.5l-28 37.5q-4 5 -10 14t-2 17q3 7 14 10q2 0 4 -0.5t4 1.5z" />
    <glyph glyph-name="product" unicode="&#x220f;" horiz-adv-x="823" 
d="M102 693h505h82q11 0 22.5 0.5t20.5 -1.5q8 -2 20.5 -2t15.5 -6v-1l-2 -2q-5 -3 -9.5 -4.5t-9.5 -3.5q-26 -11 -36 -34q-6 -14 -6.5 -32.5t-0.5 -37.5v-111v-404v-127q0 -9 -1 -20.5t1 -19.5v-9q1 -5 1 -9t1 -9q4 -18 10.5 -29t20.5 -19q5 -3 10.5 -5.5t10.5 -4.5
q2 -1 5.5 -2t3.5 -5q-8 -5 -16.5 -5t-18.5 -2h-11q-7 -2 -14.5 -1.5t-14.5 0.5h-55h-32h-8.5t-7.5 1h-11q-6 2 -13 1.5t-12 1.5q-3 1 -6 1.5t-5 2.5v2q5 4 11.5 6.5t12.5 4.5q22 10 31 30q7 14 7.5 33t0.5 40v111v416v148q0 16 0.5 34t-5.5 27q-4 5 -9 6t-12 3h-10
q-4 1 -9 1h-10h-39h-185h-57h-9.5t-7.5 -1h-14q-20 -5 -21 -22t-1 -40v-151v-407v-120q0 -17 -0.5 -35t4.5 -32q9 -25 30 -38q5 -3 10.5 -5l10.5 -4q2 -2 4.5 -2.5t3.5 -2.5v-2q-7 -4 -16.5 -4.5t-19.5 -2.5h-11q-6 -2 -13.5 -1.5t-13.5 0.5h-55h-31h-9t-8 1h-10
q-6 2 -13 1.5t-12 1.5q-3 1 -6 1.5t-5 2.5v2q5 3 10.5 5.5t10.5 4.5q12 5 21 13.5t14 20.5q6 14 7 32t1 38v111v405v127q0 12 0.5 27t-1.5 25q-2 5 -1 8.5t-1 8.5q-8 31 -33 46q-5 3 -11 5t-11 5q-2 1 -4 1.5t-3 4.5q6 4 14 4.5t16 2.5q3 1 9 0t8 1z" />
    <glyph glyph-name="pi" unicode="&#x3c0;" horiz-adv-x="505" 
d="M151 445h243h41q5 0 10.5 0.5t10.5 -0.5h5q5 -1 9.5 -2.5t6.5 -4.5q3 -5 5 -13t1.5 -17t-3 -16.5t-7.5 -10.5q-5 -4 -12.5 -4.5t-16.5 -0.5q-15 0 -35.5 0.5t-29.5 -5.5q-9 -7 -9.5 -17.5t-2.5 -23.5q0 -10 -1 -15l-6 -84v-10.5t-1 -10.5t-1 -11.5v-11.5v-10
q-2 -5 -1.5 -10.5t0.5 -10.5v-9q2 -10 2 -20t2 -19q5 -17 12 -26.5t23 -15.5q5 -2 12 -3t13 1q3 1 5.5 1.5t5.5 1.5q9 4 15.5 9.5t12.5 12.5q2 2 4.5 5.5t6.5 1.5q5 -2 3 -12q0 -5 -1 -11t-3 -11q-14 -41 -47 -62q-10 -6 -23 -8.5t-26.5 -2t-26 3.5t-21.5 9q-29 17 -39 55
q-1 5 -2 11t-2 11v9q-1 5 -0.5 14.5t1.5 14.5v9q1 5 0.5 11.5t1.5 11.5v13q2 10 2 20.5t2 20.5q0 7 1 11q2 14 2 28.5t3 28.5q1 7 1.5 13t0.5 13q2 8 2 15.5t2 15.5v11q1 5 1 12t-2 11q-4 10 -18 13q-4 1 -12 1q-4 1 -9 0.5t-10 -0.5q-12 0 -23.5 -0.5t-19.5 -5.5
q-4 -3 -5.5 -8.5t-3.5 -11.5q0 -6 -1 -9q-2 -11 -1.5 -23.5t-1.5 -23.5q-1 -4 -1 -12q-2 -12 -2 -25t-3 -25v-10q-2 -8 -2 -16t-2 -15q0 -6 -1 -9q-2 -10 -2.5 -20.5t-2.5 -20.5q-1 -5 -1 -11t-2 -11q-4 -15 -6 -30t-7 -29q-7 -22 -14.5 -39.5t-28.5 -26.5q-5 -2 -14 -4
t-17 0q-5 2 -10.5 3t-9.5 4q-11 7 -18.5 20.5t-1.5 32.5q2 7 5.5 13.5t7.5 12.5q6 11 13.5 20.5t13.5 20.5q10 15 18.5 31.5t15.5 34.5q7 16 11 33.5t9 36.5q2 7 2 13t2 13q3 14 3.5 28.5t3.5 28.5q2 7 1 16t-3 13q-5 8 -18 10.5t-27 -0.5q-5 -2 -11 -2.5t-11 -2.5
q-14 -6 -24 -14t-19 -17q-5 -5 -10 -11t-13 -4q-5 8 0 20.5l8 19.5q11 25 28 45.5t44 29.5q8 2 16.5 2.5t16.5 2.5q4 2 10 0.5t8 0.5z" />
    <glyph glyph-name="integral" unicode="&#x222b;" horiz-adv-x="274" 
d="M203 907q12 2 23 0q9 -3 18 -9.5t15.5 -15.5t8.5 -20t-4 -24q-5 -12 -17.5 -20.5t-29.5 -3.5q-8 2 -15 5.5t-14 5.5q-14 5 -23 -1t-12 -17q-2 -4 -2 -12t0.5 -17t1.5 -17t2 -12v-12t1 -12q3 -18 2.5 -36.5t2.5 -35.5q2 -5 2 -9.5v-8.5q2 -27 3.5 -54t3.5 -54
q2 -7 1 -15.5t0 -15.5q0 -12 0.5 -23t0.5 -22q2 -9 1 -20.5t-1 -20.5q0 -8 1 -15.5t-1 -13.5v-12v-20.5t-1 -18.5v-25q-1 -4 -0.5 -10.5t-0.5 -11.5q-2 -4 -0.5 -9.5t0.5 -9.5q-2 -5 -2 -13v-13v-10t-1 -10t0 -10.5t0 -9.5q-1 -5 -0.5 -10t-0.5 -10v-20q0 -17 -1 -32.5
l-2 -32.5q-2 -14 -2.5 -27t-1.5 -26l-15 -58.5t-23 -50.5q-4 -6 -11.5 -12.5t-17 -12t-20.5 -8.5t-22 0q-33 9 -43 33q-8 16 -3 32.5t15 24.5q18 13 33 7l31 -13q9 -4 18.5 -1.5t14.5 8.5q3 5 3.5 10.5t1.5 13.5q0 3 -0.5 13t-1.5 14q-2 10 -2 20.5t-2 19.5q-2 25 -4.5 50.5
t-4.5 50.5q-1 27 -1.5 54t-2.5 54q-3 12 -1 26t-2 26v21q-1 6 0 13.5t-1 15.5q-1 8 -0.5 18t0.5 19q0 6 -0.5 13.5t0.5 12.5v13v16.5t1 16.5v22q2 29 2.5 58t2.5 58q1 20 1 39t1 38q2 11 2.5 22.5t1.5 22.5q7 27 12.5 55.5t19.5 48.5q8 12 18 22t24 16q3 2 6 2.5t5 2.5h8z
" />
    <glyph glyph-name="ordfeminine" unicode="&#xaa;" horiz-adv-x="344" 
d="M18 437q-2 5 -2 9t-2 9q-2 8 -2 20.5t2 21.5q8 30 25.5 44t46.5 23q10 3 19.5 4.5t20.5 3.5q5 0 10 0.5t10 1.5t10.5 0.5t11.5 1.5q10 2 19.5 3.5t18 4.5t14.5 8t9 14q2 7 0 13t-4 10q-9 15 -30 19q-4 1 -7 0.5t-7 0.5q-7 2 -16 0q-10 -3 -18.5 -7t-13.5 -12
q-5 -5 -8.5 -10t-8.5 -9q-4 -2 -8 -2.5t-9 -2.5h-13q-4 -1 -10.5 -1t-10.5 1h-11q-14 0 -21 6q-5 4 -5 10.5t2 13.5t5.5 13t5.5 9q15 21 34 32t47 19l27 3q4 1 10 0t8 1q27 0 51 -2t44.5 -8.5t35 -18.5t22.5 -30q2 -6 3 -12.5t3 -13.5v-10q1 -6 0.5 -13t-0.5 -14v-110
q0 -8 -0.5 -16t0.5 -14v-12q2 -5 2 -10t1 -10q2 -11 0 -19.5t-10 -12.5q-3 -1 -6.5 -0.5t-7.5 -0.5q-4 -2 -9 -1.5t-10 0.5h-21.5t-18.5 4q-6 2 -12.5 8t-15.5 4q-10 -2 -17.5 -6.5t-15.5 -7.5q-9 -4 -19 -5.5t-21 -4.5h-13q-9 -2 -21.5 -0.5t-20.5 3.5q-5 1 -9 1.5t-8 2.5
q-39 16 -55 53zM120 493q-3 -5 -4.5 -12.5t0.5 -14.5q4 -8 6 -10q8 -10 25.5 -14t34.5 1q33 9 44 37q4 10 4 24t-9 19q-4 2 -15 2q-2 -1 -4.5 -0.5t-4.5 -0.5q-5 -2 -11 -2t-11 -2l-32 -9.5t-23 -17.5z" />
    <glyph glyph-name="ordmasculine" unicode="&#xba;" horiz-adv-x="367" 
d="M354 553q0 -5 0.5 -11.5t-0.5 -11.5q-2 -5 -1 -9t-1 -9q-3 -12 -5.5 -23t-7.5 -22q-13 -29 -35 -48t-51 -31q-10 -4 -21 -5.5t-22 -3.5q-5 -2 -10.5 -1t-11.5 0q-4 -2 -9.5 -1.5t-10.5 1.5q-4 0 -7.5 0.5t-7.5 0.5q-7 2 -14 3t-13 3t-11.5 3.5t-10.5 3.5q-53 24 -76 77
q-4 9 -6 18t-5 20q-3 15 -3 32q0 2 -0.5 4t0.5 4q1 5 0.5 9.5t0.5 9.5q0 3 0.5 6t0.5 6q3 12 5 23t7 21q27 62 94 83q8 3 16.5 4.5t17.5 3.5q3 1 9 0t8 1q71 2 112 -26.5t60 -79.5q4 -12 6.5 -25.5t2.5 -29.5zM245 512q3 11 4 26.5t-2 27.5q-1 5 -1.5 10t-2.5 10
q-5 17 -14.5 30t-24.5 20q-6 2 -12 2.5t-14 0.5q-2 -1 -8 -1q-3 -2 -6.5 -3t-6.5 -3q-15 -9 -22.5 -24t-12.5 -34q-2 -5 -1 -9t-1 -9q-2 -7 -1.5 -16t2.5 -15q1 -3 1 -11q5 -16 11.5 -29t18.5 -22q5 -4 15.5 -8.5t20.5 -2.5q4 1 7.5 1t7.5 2q17 8 27 22.5t15 34.5z" />
    <glyph glyph-name="Omegagreek" unicode="&#x3a9;" horiz-adv-x="768" 
d="M376 673q70 2 124 -13.5t95 -44.5q12 -8 24 -17.5t21 -21.5q4 -4 7 -6q15 -19 26 -38q4 -6 6.5 -12t5.5 -12q8 -14 13 -30l10 -33q1 -6 1.5 -12.5t2.5 -13.5v-5q2 -10 2 -26t-2 -26q0 -6 -1 -9q-1 -5 -1 -10t-2 -10q-5 -20 -10.5 -38.5t-13.5 -36.5q-16 -35 -40 -60
t-56 -44q-10 -6 -20.5 -11l-21.5 -10q-7 -3 -13.5 -5t-12.5 -7q-1 -1 -1.5 -2t-2.5 -3q0 -4 1 -7q2 -1 3 -2t3 -2q4 -2 8.5 -2t8.5 -1h13q8 -2 18.5 -1t18.5 1q12 0 25.5 -0.5t27 0t25.5 2t19 5.5q12 8 20 20q3 5 6 11.5t12 6.5q1 -1 2 -1.5t2 -1.5q2 -4 2 -7.5t1 -8.5
q2 -10 1.5 -21t-0.5 -22v-38q0 -5 0.5 -10t-0.5 -9v-5q-1 -5 -2.5 -9.5t-4.5 -6.5q-8 -7 -24 -7h-30h-126h-66q-11 0 -20 1.5t-14 8.5q-2 4 -2.5 11t0 15.5t1.5 16t2 12.5q0 4 0.5 7t0.5 6q3 14 3 30t7 26q6 11 17.5 16.5t22.5 11.5q28 17 47 44q12 17 20.5 35.5t16.5 39.5
q3 10 5 20.5l4 21.5q2 8 2.5 16.5t1.5 17.5v8q1 3 0.5 7t0.5 8q2 9 0 17v16q-1 3 -0.5 6.5t-0.5 7.5q-1 8 -2 14.5t-2 14.5q-3 12 -5 24.5t-6 23.5q-12 35 -32 63q-12 17 -31 32.5t-39 24.5q-8 3 -15.5 5.5t-15.5 4.5t-16 3t-16 3q-3 1 -6 0.5t-6 0.5h-9q-6 0 -12.5 0.5
t-11.5 -1.5h-7q-5 0 -10.5 -0.5t-10.5 -1.5l-23 -5.5t-21 -7.5q-45 -19 -70 -51.5t-41 -80.5q-3 -10 -5 -20.5l-4 -21.5q0 -4 -0.5 -7.5t-0.5 -7.5q-2 -5 -1.5 -11.5t-1.5 -11.5v-16q-2 -8 0 -16q1 -4 0.5 -8.5t0.5 -7.5v-8q1 -7 1.5 -13.5t1.5 -14.5q1 -4 1 -7.5t1 -7.5
q4 -14 6.5 -27.5t7.5 -26.5q10 -23 23 -44.5t31 -35.5l4.5 -4.5l4.5 -4.5q6 -5 12.5 -9t13.5 -7q7 -5 14.5 -8.5t12.5 -9.5q4 -6 5 -13t3 -15q0 -2 0.5 -4t0.5 -4q3 -14 3 -29.5t3 -29.5q2 -6 1.5 -16.5t-2.5 -14.5q-5 -8 -14.5 -9.5t-21.5 -1.5h-66h-124h-30.5t-23.5 7
q-3 2 -4.5 6.5t-2.5 9.5v5q-1 4 -1 9v10v38v30.5t5 26.5q1 1 4 3q8 0 10 -4t5 -9q5 -5 9.5 -11t10.5 -10q16 -10 43.5 -9.5t53.5 0.5q8 0 19.5 -1t19.5 1h11q5 1 10 1t10 2q2 1 3 2.5t3 3.5q0 8 -4 10.5t-9 4.5q-10 5 -20 9t-21 9q-32 14 -57.5 37.5t-43.5 52.5
q-11 17 -18 36t-14 40q-5 15 -8 35t-3 40t3 40t8 35q5 14 8.5 26.5t9.5 23.5q2 2 2 3.5t1 3.5l11 19t11 17q19 27 48 50t61 37q14 7 29 11.5l32 9.5q9 3 18.5 4.5t18.5 3.5q8 1 14.5 1.5t14.5 1.5q4 1 8 0.5t7 0.5q4 1 8.5 -0.5t7.5 0.5z" />
    <glyph glyph-name="ae" unicode="&#xe6;" horiz-adv-x="907" 
d="M876 273q2 -7 2 -16.5t-2 -16.5q-4 -9 -10 -12l-12 -3h-9q-4 -1 -9 -0.5t-9 0.5h-243q-15 0 -35.5 0.5t-29.5 -5.5q-4 -3 -5 -7.5t-3 -10.5q-1 -3 0.5 -9t2.5 -8q3 -11 6.5 -20.5t8.5 -18.5q13 -22 29 -37t42 -23q5 -2 11 -2.5t12 -2.5h8q6 -1 17 0t16 3l15.5 4t13.5 6
q9 6 17 13.5t13 17.5q7 10 11 20t16 15q6 2 14 2h16h38h9t9 -1h9q7 -2 12.5 -4t7.5 -8q2 -7 -1 -13.5l-5 -10.5q-6 -16 -14.5 -28.5l-17.5 -25.5q-10 -12 -20 -19q-2 -2 -3.5 -4t-3.5 -4q-5 -3 -9 -6.5t-9 -6.5q-14 -11 -31.5 -18.5t-35.5 -13.5q-8 -2 -15.5 -3.5
t-15.5 -3.5q-3 0 -5.5 -0.5t-4.5 -0.5q-5 -1 -10 -1t-10 -1h-9q-4 -1 -10 -1t-9 1q-5 1 -9.5 0.5t-8.5 0.5q-5 1 -10 0.5t-10 1.5q-13 3 -26 5t-24 7q-16 7 -30 14.5t-27 17.5q-8 6 -16 14.5t-19 11.5q-10 3 -17 -4t-12 -11l-13.5 -9.5l-13.5 -9.5q-20 -12 -42 -21
q-12 -5 -25 -7.5t-27 -5.5q-4 -2 -8 -2t-8 -1q-5 -1 -9 -1t-9 -1h-7q-6 -1 -17 -1.5t-18 1.5h-9h-6.5t-6.5 1q-5 2 -9.5 1.5t-9.5 0.5l-18.5 4t-17.5 5q-57 18 -85 65q-6 9 -9 20.5t-7 24.5q-3 13 -2 34.5t4 33.5q2 4 2 7t1 6q6 19 15 32q13 20 32.5 33t42.5 23
q10 4 20.5 6.5t21.5 5.5q17 5 36 6t36 6q7 1 13 1.5t13 1.5q16 4 33 6.5t32 7t26 13t16 24.5q4 13 0.5 25.5t-8.5 20.5q-8 12 -19 18t-27 11q-5 1 -10 1.5t-10 1.5h-8q-5 2 -12 1.5t-12 -1.5q-5 -2 -9.5 -1.5t-9.5 -1.5q-22 -6 -36 -16q-7 -5 -12 -12t-9 -15q-5 -12 -9 -20
t-18 -12q-8 0 -12 -1q-3 -1 -7 -0.5t-8 0.5h-28q-8 0 -17 -1t-16 1h-8q-5 2 -9.5 3t-7.5 4t-4.5 10.5t0.5 15.5q4 14 8 25.5t11 22.5q17 26 38 42t51 29q10 4 20 6.5l21 5.5q12 4 24.5 4.5t25.5 3.5q4 1 13 0t11 1q32 1 59.5 -2.5t50.5 -13.5q8 -3 14.5 -5t12.5 -6
q10 -6 18.5 -12.5t17.5 -12.5l7.5 -5t9.5 -1q9 2 14 6.5l11 9.5l18 12t19 10q14 6 27 9.5t30 7.5q8 2 18 1.5t19 1.5q5 1 12 0.5t11 -0.5q5 -1 10 -0.5t10 -0.5q5 -2 9 -1.5t8 -1.5q8 -2 15.5 -3.5t15.5 -4.5l20.5 -7.5t18.5 -9.5q59 -36 88 -103q5 -12 8.5 -23.5t8.5 -25.5
q5 -13 6.5 -27t5.5 -28q1 -5 0.5 -10t1.5 -11zM385 172q1 6 1.5 15.5t0 20t-2 18.5t-5.5 11q-5 3 -14 3q-2 -2 -5.5 -1.5t-5.5 -0.5q-6 -2 -12.5 -3t-12.5 -3q-2 -1 -5 -1t-6 -1q-9 -2 -18.5 -3t-19.5 -3q-6 -2 -13 -2t-13 -2q-21 -6 -37 -13.5t-26 -24.5q-5 -8 -8.5 -21
t-0.5 -26q4 -14 12 -27q6 -9 18 -15t27 -9t31 -3t31 4q31 8 51 25.5t30 47.5q2 3 1.5 6.5t1.5 7.5zM728 319q5 4 6 11.5t-0.5 16t-4.5 16t-5 11.5q-16 30 -39.5 46t-68.5 16q-2 -2 -5.5 -1t-5.5 0q-6 -2 -12 -3.5t-11 -3.5q-43 -18 -62 -63q-3 -7 -6.5 -18t0.5 -20
q5 -11 19.5 -12.5t30.5 -1.5h113q14 0 28.5 0.5t22.5 5.5z" />
    <glyph glyph-name="oslash" unicode="&#xf8;" horiz-adv-x="611" 
d="M570 269q2 -4 2 -11t-2 -12v-10q-2 -8 -2 -17.5t-2 -17.5t-3 -15.5t-3 -15.5q-5 -14 -9.5 -28.5t-11.5 -25.5l-11.5 -18t-11.5 -17q-2 -3 -5 -5.5t-5 -5.5q-8 -10 -22 -21l-4.5 -4.5l-4.5 -4.5l-22 -14t-23 -12q-10 -5 -21 -8.5t-22 -7.5q-5 -2 -11 -2.5t-13 -2.5
q-6 -2 -13.5 -2t-14.5 -2h-13q-5 -2 -12 -2t-11 1h-9h-9.5t-9.5 2q-7 2 -13 1t-13 1q-14 5 -28 8t-27 8q-11 5 -20 10.5t-20 8.5q-5 2 -10 1t-8 -3q-5 -2 -9.5 -6.5t-8.5 -9.5t-9 -9.5t-10 -9.5q-15 -15 -32 -4q-8 7 -8 16.5t6 17.5q8 11 18.5 21t14.5 25q2 6 -0.5 11
l-4.5 9q-5 10 -12.5 20t-12.5 21q-4 10 -7.5 20l-7.5 21q-2 7 -3.5 14.5t-3.5 14.5q-1 8 -1.5 15.5t-1.5 15.5v7q-2 6 -2.5 17t1.5 17t0.5 12t0.5 11q1 5 1 8.5t1 8.5q2 7 3 14t3 13q1 5 1 8t2 7q3 10 6.5 19t7.5 18q19 44 52.5 74.5t78.5 48.5q11 5 23.5 7.5t24.5 6.5
q6 1 12 1.5t11 1.5q5 0 8.5 0.5t8.5 0.5q5 2 15 2t16 -1h11q5 -2 10.5 -1.5t10.5 -0.5q4 -1 8 -1t8 -2q13 -3 25.5 -5.5t23.5 -7.5l35 -16q3 -2 8.5 -4.5t11.5 -0.5q8 2 14 7.5t11 11.5q5 5 7 8l4 4l4 4t4.5 3.5t5.5 2.5q1 1 2.5 0.5t2.5 0.5q11 -1 19.5 -10t3.5 -21
q-2 -4 -4 -6.5t-4 -5.5l-10 -11.5t-9 -12.5q-3 -4 -5 -10t0 -13t6.5 -12.5t7.5 -10.5q14 -20 22 -40q5 -11 8 -23.5t7 -24.5q2 -7 2.5 -13.5t2.5 -13.5q1 -7 1.5 -13t0.5 -12v-11zM213 195q11 8 19 19t17 20l13.5 15t12.5 15l10 11.5l10 11.5q2 3 5.5 5.5t5.5 5.5
q8 11 17 20.5t17 20.5q3 2 7 6l9.5 11.5l9.5 11.5q3 5 6 8.5t5 10.5q2 8 -4 14t-10 9q-14 8 -30.5 11t-39.5 3q-5 -1 -9 -1.5t-8 -0.5q-8 -2 -16 -4.5t-15 -6.5q-40 -25 -56 -74q-2 -6 -3 -11.5t-3 -11.5q-2 -8 -3 -18t-1 -20q-1 -17 -1 -34.5t5 -31.5q2 -7 4 -13t8 -8
q5 -3 9.5 0t8.5 6zM430 244q1 5 1 13.5t-1 13.5v8q-2 8 -2.5 16t-2.5 15q-2 8 -5 15.5t-14 7.5q-2 -2 -5 -2.5t-5 -2.5q-7 -5 -13.5 -13l-11.5 -14q-2 -3 -5.5 -5.5t-5.5 -5.5q-7 -10 -15 -18.5l-16 -17.5q-3 -5 -7 -8t-7 -7q-10 -14 -22 -26.5t-23 -26.5q-2 -2 -5 -4.5
t-5 -5.5q-7 -9 -16.5 -18.5t-13.5 -20.5q-4 -9 0 -16t9 -11q8 -5 17 -8.5t20 -6.5q13 -4 31.5 -3t30.5 5q33 10 50.5 29t29.5 49q4 10 6 20.5l4 21.5q0 8 1 13q1 3 0.5 6.5t0.5 7.5z" />
    <glyph glyph-name="questiondown" unicode="&#xbf;" 
d="M33 -13q-2 5 -2 14t2 15q1 5 0.5 9.5t0.5 9.5l5.5 24.5t7.5 22.5q8 17 19 34t25 28l5 5q8 6 15.5 12.5t15.5 12.5l27.5 20t25.5 22q20 20 29 48q4 11 4 25.5t6 22.5q4 4 9 5t11 3h25q9 0 21 0.5t23.5 0t20.5 -2.5t13 -7t4.5 -12.5t0.5 -15.5v-8q-1 -5 -1.5 -10t-0.5 -10
q-4 -13 -6.5 -25.5t-7.5 -23.5q-8 -19 -21 -38t-27 -30l-9 -9q-7 -5 -12.5 -9.5l-11.5 -9.5q-16 -11 -29 -24t-23 -30q-5 -7 -7.5 -18t-3 -23t1 -24t5.5 -21q2 -6 5.5 -12t7.5 -11q6 -8 16 -13.5t21 -9.5q4 -1 7 -1t8 -1t11.5 -1.5t11.5 0.5q5 2 10 1.5t10 1.5q43 15 61 55
q3 8 5.5 16.5t4.5 17.5q3 11 4.5 19.5t9.5 13.5q6 4 15 4h18h59q10 0 19 -0.5t14 -4.5t7 -13t0 -18l-2 -11.5l-2 -11.5l-6 -21.5t-7 -20.5l-4 -10t-5 -10l-19 -31q-14 -20 -33 -35.5t-41 -29.5q-7 -5 -15 -8l-16 -6q-13 -5 -26.5 -7t-28.5 -5q-6 -1 -12.5 -1.5t-13.5 -0.5
q-56 -2 -99.5 10t-75.5 35l-19 15t-17 17l-8.5 10.5t-7.5 10.5q-2 4 -4 7t-4 7q-7 11 -10.5 24l-7.5 27q-2 5 -1.5 9.5t-0.5 9.5zM207 470q0 7 -1 14t1 13v10q2 6 3 11t6 8q6 4 15 4.5t20 0.5h70q11 0 21 -1t15 -8q4 -6 4.5 -15.5t0.5 -19.5v-65q0 -9 -0.5 -18.5t-4.5 -15.5
q-5 -6 -14 -8q-2 -1 -4 -0.5t-4 -0.5h-80h-22t-17 5q-5 3 -6 8t-3 11v8q-1 5 -0.5 10t0.5 10v39z" />
    <glyph glyph-name="exclamdown" unicode="&#xa1;" horiz-adv-x="278" 
d="M208 42q5 -22 4.5 -48t-0.5 -52v-77v-21t-5 -17q-5 -6 -14 -8q-2 -1 -4 -0.5t-4 -0.5h-77q-12 0 -22.5 1t-15.5 8q-4 6 -4 15v19v111q0 6 -1 13.5t1 12.5v11q2 7 1.5 14.5t1.5 13.5q2 5 1.5 9.5t1.5 9.5q2 9 2 17.5t2 16.5q1 4 1 7.5t1 7.5q2 13 3 27t4 27q2 7 1.5 13
t1.5 14q4 18 4.5 37.5t5.5 37.5q3 14 3.5 28.5t10.5 21.5q3 2 7 3t9 2h14q10 0 17.5 -2t11.5 -7q5 -6 5 -13t2 -15q3 -11 3.5 -23t3.5 -23q0 -8 1 -11q1 -6 1 -12t1 -12q4 -14 4.5 -29.5t3.5 -29.5q1 -5 1 -9.5t1 -9.5q2 -9 2.5 -19t2.5 -20q0 -2 0.5 -4t0.5 -4
q2 -8 2 -15.5t2 -15.5zM69 384q-6 5 -7 14t-1 20v72q0 11 1 20t6 14q7 5 17 5.5t21 0.5h67q11 0 21 -0.5t15 -6.5t6 -15.5t1 -20.5v-63v-19.5t-4 -15.5t-15 -10q-2 -1 -4.5 -0.5t-4.5 -0.5h-79q-12 0 -22.5 0.5t-17.5 5.5z" />
    <glyph glyph-name="logicalnot" unicode="&#xac;" horiz-adv-x="600" 
d="M76 405h340h86q12 0 23 -0.5t18 -5.5q8 -5 8 -18.5v-27.5v-120v-84q0 -10 0.5 -21t-3.5 -17q-7 -11 -22.5 -11h-32.5q-13 0 -24.5 0.5t-16.5 7.5t-5.5 18.5t-0.5 23.5v89q0 19 -1 36t-14 22q-5 2 -11 2h-13h-9q-4 2 -8.5 1.5t-9.5 -0.5h-36h-191h-58q-8 0 -15.5 -0.5
t-13.5 1.5q-8 3 -11.5 8.5t-5 13.5t-1 17.5t0.5 19.5v19t4 15q4 7 15 10q2 1 4 0.5t4 0.5z" />
    <glyph glyph-name="radical" unicode="&#x221a;" horiz-adv-x="549" 
d="M527 911q7 0 11 -5.5t4.5 -13t-0.5 -16t-2 -14.5q-2 -7 -2.5 -14.5t-2.5 -15.5q-2 -7 -2 -13.5t-2 -13.5q-5 -19 -6.5 -39t-6.5 -39q-2 -8 -2.5 -15t-2.5 -15q-5 -23 -7.5 -46.5t-7.5 -46.5q-2 -6 -1.5 -12t-1.5 -12q-5 -17 -6 -34.5t-6 -34.5q-1 -4 -1 -7.5t-1 -7.5
q-3 -14 -4.5 -28.5t-4.5 -28.5l-3 -18q-2 -11 -3.5 -22.5t-3.5 -22.5q-1 -3 -1 -6t-1 -6q-2 -9 -3 -19t-3 -20q-2 -8 -2.5 -15t-2.5 -15q-2 -7 -2 -13.5t-2 -13.5q-5 -22 -7.5 -45t-7.5 -45l-2 -13.5l-2 -13.5q-6 -24 -8.5 -49.5t-7.5 -49.5q-3 -13 -4.5 -30.5t-8.5 -25.5
q-1 -1 -2 -1.5t-2 -1.5q-10 1 -14.5 9.5l-8.5 15.5l-19 39.5l-19 39.5l-22 43.5t-21 44.5q-6 14 -13.5 28t-13.5 28q-2 4 -4 7.5t-4 7.5l-14 28t-13 29q-2 5 -4.5 8.5t-4.5 7.5l-14 29t-13 29q-2 4 -4 7.5t-4 6.5l-5.5 12.5t-5.5 11.5q-2 2 -2.5 4.5t-2.5 5.5q-2 4 -5.5 8.5
t-8.5 6.5q-8 3 -16 0.5t-13 -4.5l-24 -10q-7 -3 -14 -6.5t-15 -5.5q-14 -3 -17.5 9.5t5.5 18.5q8 6 17 10.5t18 9.5l28 13.5t28 14.5l15.5 8t20.5 1q5 -2 8 -7l6 -10q6 -10 11 -20.5l10 -21.5l41 -83l41 -83q15 -28 28 -56l27 -56l6.5 -12.5t8.5 -10.5q4 -2 8.5 -1.5
t6.5 4.5q6 8 7 22t4 26q6 23 8 46.5t7 45.5q2 7 2 13t2 12q4 17 5.5 34.5t5.5 34.5q2 10 2 15q4 14 5.5 30t4.5 30q2 10 2 15q2 9 3.5 19t3.5 20q1 4 1 7.5t1 7.5q2 9 3.5 19.5t3.5 19.5q0 6 1 9q2 9 2.5 18t2.5 18q7 26 9.5 52.5t8.5 52.5q2 6 1.5 12t1.5 12q6 25 8.5 51
t8.5 51q3 14 4 29.5t8 26.5q4 7 7 8q2 1 3 1t2 1z" />
    <glyph glyph-name="florin" unicode="&#x192;" 
d="M420 730q9 0 20.5 0.5t22.5 -0.5t20.5 -2.5t14.5 -5.5q4 -3 5.5 -9.5t1.5 -14t-1.5 -15t-2.5 -13.5q-2 -4 -2 -8t-1 -8q-2 -6 -2.5 -11t-3.5 -9q-7 -10 -24 -10h-8q-2 1 -5.5 1h-5.5q-3 -1 -6.5 -0.5t-6.5 -0.5q-9 -2 -17 -4t-14 -7q-12 -8 -18 -20t-10 -27q-2 -5 -2 -10
t-2 -11q-2 -8 -3.5 -17t-3.5 -18q-3 -13 -5.5 -27t-4.5 -28q-1 -4 0.5 -7.5t3.5 -5.5q6 -10 21 -10.5t31 -0.5h9.5t8.5 -1q13 -5 14 -17t-3 -26q-2 -6 -2 -12t-2 -11q-2 -8 -5 -14t-10 -9t-16.5 -3t-19.5 0.5t-20 0.5t-18 -3q-12 -4 -15.5 -13.5t-6.5 -22.5q-3 -11 -4 -21.5
t-4 -21.5q0 -2 -0.5 -5t-0.5 -6q-3 -11 -4.5 -22.5t-3.5 -22.5q-3 -10 -4 -19.5t-4 -20.5q-7 -27 -10 -55.5t-10 -55.5q-1 -3 -1 -6.5t-1 -6.5q-4 -14 -5.5 -28.5t-6.5 -28.5t-9 -28t-10 -27q-11 -24 -29 -43.5t-42 -30.5l-11.5 -4l-11.5 -4q-20 -7 -44.5 -9t-50.5 -2h-24.5
t-21.5 4q-6 2 -10 9q-2 5 -2 11.5t1 11.5q2 9 3.5 18.5t3.5 18.5q2 6 2.5 11t2.5 10q4 6 9 8t13 4q5 1 11 0t11 0h7q13 3 23.5 7t17.5 12q8 11 12 22.5t8 26.5q2 6 2 11.5t2 10.5q6 25 10 50.5t10 49.5q2 8 2.5 14.5t2.5 13.5q2 8 3 16.5t3 16.5q5 23 8.5 46t9.5 46
q2 9 4 24.5t-3 23.5q-4 6 -12 7.5t-17 1.5t-19 -0.5t-17 2.5q-9 4 -12 16q-2 5 0 14t4 14q4 17 6.5 29.5t20.5 17.5h20q16 0 30 1t21 11q5 6 6 14t3 17q3 12 5 25t5 25q2 5 1.5 9.5t1.5 9.5q5 16 7.5 32.5t7.5 32.5q8 21 17 37.5t21 32.5q2 3 5.5 6t6.5 5l10 8l10 8
q12 8 26.5 12t30.5 8q8 2 16.5 2t16.5 2q4 1 10 0t8 1z" />
    <glyph glyph-name="approxequal" unicode="&#x2248;" horiz-adv-x="549" 
d="M131 506q14 0 26.5 -3t23.5 -7q10 -3 19.5 -5.5t17.5 -6.5q9 -3 17.5 -5.5t16.5 -6.5l45 -19l45 -19q11 -5 22 -8.5l23 -7.5q4 -1 7.5 -1t8.5 -1q8 -2 19 -1.5t19 2.5q14 3 22 7q13 5 22.5 15.5t17.5 22.5q2 6 5 12l6 12q1 2 2.5 2.5t2.5 2.5h5q8 -10 3 -26t-9 -24
q-11 -26 -29.5 -41t-47.5 -23q-12 -3 -28 -3h-8q-9 2 -17 2.5t-16 3.5q-52 17 -99.5 37.5t-99.5 37.5q-7 2 -13.5 3.5t-13.5 3.5q-4 1 -7 0.5t-7 0.5q-6 2 -14.5 0.5t-12.5 -3.5q-20 -6 -32.5 -15.5t-22.5 -26.5q-4 -7 -8.5 -19t-15.5 -12q-1 1 -2 1.5t-2 1.5q-4 6 -2 16
q2 8 4 14.5l4 12.5q20 47 66 66q5 2 11.5 3t12.5 3q3 1 7 0t6 1zM131 267q14 0 26.5 -3t23.5 -7q10 -3 19.5 -5.5t17.5 -6.5q9 -3 17.5 -5.5t16.5 -6.5l45 -19l45 -19q11 -5 22 -8.5l23 -7.5q4 -1 7.5 -1t8.5 -1q8 -2 19 -1.5t19 2.5q14 3 22 7q13 5 22.5 15.5t17.5 22.5
q2 6 5 12l6 12q1 2 2.5 2.5t2.5 2.5h5q8 -10 3 -26t-9 -24q-11 -26 -29.5 -41t-47.5 -23q-12 -3 -28 -3h-8q-9 2 -17 2.5t-16 3.5q-52 17 -99.5 37.5t-99.5 37.5q-7 2 -13.5 3.5t-13.5 3.5q-4 1 -7 0.5t-7 0.5q-6 2 -14.5 0.5t-12.5 -3.5q-20 -6 -32.5 -15.5t-22.5 -26.5
q-4 -7 -8.5 -19t-15.5 -12q-1 1 -2 1.5t-2 1.5q-4 6 -2 16q2 8 4 14.5l4 12.5q20 47 66 66q5 2 11.5 3t12.5 3q3 1 7 0t6 1z" />
    <glyph glyph-name="Delta" unicode="&#x2206;" horiz-adv-x="612" 
d="M578 50q2 -6 7.5 -18t1.5 -20q-3 -8 -14 -9t-22 -1h-476q-10 0 -21.5 -0.5t-19.5 2.5q-12 5 -9 17t7 21l26.5 58l26.5 58l12.5 26t12.5 27l53 118l53 118q7 17 14.5 33l15.5 33l21.5 46.5l20.5 46.5l8 18t9 17q2 2 3 4.5t3 4.5t3.5 2t3.5 2q11 -2 15 -13.5t8 -19.5
l21.5 -51.5l21.5 -51.5l59.5 -143.5l59.5 -143.5q10 -22 18.5 -44t18.5 -45t18.5 -46t19.5 -46zM473 50q3 8 0 15.5l-5 12.5q-12 33 -27 66l-11.5 30t-12.5 30l-40 96.5l-40 96.5q-8 18 -15 36.5t-15 36.5q-3 7 -7 13.5t-13 7.5q-1 -1 -2 -1t-2 -1l-6 -6q-5 -7 -8.5 -15.5
t-7.5 -16.5l-14 -29.5l-14 -30.5l-43.5 -97l-44.5 -98l-10 -21l-10 -21q-9 -21 -19 -41t-18 -40q-4 -9 -3 -18t10 -13q6 -2 14 -2h16h303q6 0 12 -0.5t11 0.5h5q5 2 10 3.5t7 6.5z" />
    <glyph glyph-name="guillemotleft" unicode="&#xab;" horiz-adv-x="444" 
d="M245 285q0 11 -0.5 24t2.5 22q4 11 11.5 18.5t16.5 13.5q8 6 16 13t17 14q15 11 29 23.5t30 23.5q2 2 10.5 7.5t13.5 1.5q6 -2 6.5 -7t2.5 -12q1 -3 0.5 -7.5t-0.5 -8.5v-33q0 -26 -7 -35t-21 -20q-7 -5 -12.5 -10l-11.5 -10q-7 -5 -14.5 -11t-9.5 -16q-1 -2 -0.5 -4.5
t0.5 -4.5q3 -6 9.5 -12t11.5 -10q8 -6 15 -12t15 -12q7 -5 13 -10.5t9 -13.5q5 -10 4 -24.5t-1 -26.5q0 -10 0.5 -21.5t-3.5 -18.5q-1 -2 -7 -6q-9 0 -14 3.5t-10 7.5q-11 8 -20 15.5t-20 15.5l-25 20l-25 20q-8 5 -16 11.5t-12 16.5l-3 12v7q-1 4 -0.5 8.5t0.5 9.5v38z
M42 285q0 11 -0.5 24t2.5 22q3 11 10.5 18t15.5 13l17.5 14t18.5 14q15 11 29 24t30 24q2 2 10 6.5t13 1.5q5 -2 6 -6.5t2 -9.5q2 -5 1.5 -10.5t-0.5 -10.5v-35q0 -22 -9 -32.5t-21 -20.5q-6 -5 -12 -9.5t-11 -9.5q-8 -5 -15 -11t-9 -17q-1 -4 1 -7.5t4 -5.5q6 -8 15.5 -15
l17.5 -13q4 -3 10 -9q8 -5 15 -11.5t11 -15.5t3.5 -23t-0.5 -26q0 -11 0.5 -24t-4.5 -20q-1 -2 -2.5 -2t-3.5 -2q-10 0 -15.5 4l-10.5 8l-17.5 14t-17.5 13q-13 10 -25 20.5t-26 19.5l-16.5 13t-13.5 18q-3 7 -3 16v19v40z" />
    <glyph glyph-name="guillemotright" unicode="&#xbb;" horiz-adv-x="444" 
d="M199 260q0 -11 0.5 -24t-2.5 -22q-4 -11 -11.5 -18.5t-16.5 -13.5q-8 -6 -16 -13t-17 -14q-15 -11 -29 -23.5t-30 -23.5q-2 -2 -10.5 -7.5t-13.5 -1.5q-6 2 -6.5 7t-2.5 12q-1 3 -0.5 7.5t0.5 8.5v33q0 26 7 35t21 20q7 5 12.5 10l11.5 10q7 5 14.5 11t9.5 16
q1 2 0.5 4.5t-0.5 4.5q-3 6 -9.5 12t-11.5 10q-8 6 -15 12t-15 12q-7 5 -13 10.5t-9 13.5q-5 10 -4 24.5t1 26.5q0 10 -0.5 21.5t3.5 18.5q1 2 7 6q9 0 14 -3.5t10 -7.5q11 -8 20 -15.5t20 -15.5l25 -20l25 -20q8 -5 16 -11.5t12 -16.5l3 -12v-7q1 -4 0.5 -8.5t-0.5 -9.5
v-38zM402 260q0 -11 0.5 -24t-2.5 -22q-3 -11 -10.5 -18t-15.5 -13l-17.5 -14t-18.5 -14q-15 -11 -29 -24t-30 -24q-2 -2 -10 -6.5t-13 -1.5q-5 2 -6 6.5t-2 9.5q-2 5 -1.5 10.5t0.5 10.5v35q0 22 9 32.5t21 20.5q6 5 12 9.5t11 9.5q8 5 15 11t9 17q1 4 -1 7.5t-4 5.5
q-6 8 -15.5 15l-17.5 13q-4 3 -10 9q-8 5 -15 11.5t-11 15.5t-3.5 23t0.5 26q0 11 -0.5 24t4.5 20q1 2 2.5 2t3.5 2q10 0 15.5 -4l10.5 -8l17.5 -14t17.5 -13q13 -10 25 -20.5t26 -19.5l16.5 -13t13.5 -18q3 -7 3 -16v-19v-40z" />
    <glyph glyph-name="ellipsis" unicode="&#x2026;" horiz-adv-x="1000" 
d="M422 108v19t4 15q4 7 15 11q2 0 4.5 -0.5t4.5 0.5h79h22.5t17.5 -5q6 -5 7 -14t1 -20v-72q0 -11 -1 -20.5t-6 -13.5q-7 -5 -17 -6t-21 -1h-67q-11 0 -21 1t-15 7t-6 15.5t-1 20.5v63zM754 108v19t4 15q4 7 15 11q2 0 4.5 -0.5t4.5 0.5h79h22.5t17.5 -5q6 -5 7 -14t1 -20
v-72q0 -11 -1 -20.5t-6 -13.5q-7 -5 -17 -6t-21 -1h-67q-11 0 -21 1t-15 7t-6 15.5t-1 20.5v63zM89 108v19t4 15q4 7 15 11q2 0 4.5 -0.5t4.5 0.5h79h22.5t17.5 -5q6 -5 7 -14t1 -20v-72q0 -11 -1 -20.5t-6 -13.5q-7 -5 -17 -6t-21 -1h-67q-11 0 -21 1t-15 7t-6 15.5
t-1 20.5v63z" />
    <glyph glyph-name="nonbreakingspace" unicode="&#xa0;" horiz-adv-x="278" 
 />
    <glyph glyph-name="Agrave" unicode="&#xc0;" horiz-adv-x="685" 
d="M673 48q-2 3 -2 5.5t-2 5.5q-13 31 -24 63t-24 64q-3 8 -5 15.5t-6 15.5l-12 32l-12 32q-2 4 -2.5 7.5t-2.5 7.5q-21 50 -38.5 101t-37.5 101q-8 20 -15 39.5t-15 39.5l-4 12l-4 12q-7 17 -13 33.5t-13 33.5q-5 12 -8.5 23.5t-14.5 17.5q-7 5 -18.5 4.5t-22.5 -0.5h-88
q-2 -1 -4 -0.5t-4 -0.5q-8 -2 -13 -5q-9 -7 -12.5 -18.5t-8.5 -22.5q-9 -21 -17 -43l-16 -43q-2 -5 -3 -9t-3 -9q-23 -55 -42.5 -111t-42.5 -111q-8 -20 -15 -39.5t-15 -39.5l-16 -43l-16 -43q-4 -8 -6 -16t-6 -16q-9 -23 -17.5 -47t-18.5 -47q-2 -4 -4 -10t-3.5 -12.5
t-1 -12.5t5.5 -9q8 -5 26.5 -4.5t31.5 0.5q9 0 21 -0.5t23.5 -0.5t21 1.5t14.5 5.5q8 6 11.5 17t7.5 21q7 18 12.5 36.5t13.5 35.5q4 10 7 20t11 16q11 8 30.5 7.5t36.5 -0.5h158q5 0 9.5 -0.5t9.5 -0.5q10 -2 16 -6.5t9 -10.5t5.5 -13.5l5.5 -16.5q6 -15 11.5 -31l10.5 -32
q4 -9 6.5 -18t7.5 -17q5 -9 16 -12q6 -2 12.5 -1.5t14.5 0.5h47q12 0 30.5 -1t26.5 4q6 3 7 9t-0.5 12.5t-4 12.5t-3.5 10zM414 277q-8 -2 -19 -2h-20h-76q-12 0 -23.5 1t-16.5 8q-4 10 -1 18q3 11 6 20.5t7 19.5q11 29 20.5 58t21.5 57q5 13 8.5 27t11.5 24q2 2 4 3t4 3
q6 0 10 -5t7 -11.5t5 -14t4 -12.5q14 -35 25 -70t24 -69q2 -4 2 -7.5t2 -7.5q5 -11 6 -23t-12 -17zM213 919h67h19.5t16.5 -3q11 -4 17 -12.5t11 -16.5q8 -11 15.5 -22.5t15.5 -22.5q6 -9 13 -18t12 -20q2 -4 2.5 -9t-1.5 -9q-4 -5 -14 -7h-6q-4 -1 -9 -0.5t-10 0.5h-20.5
t-17.5 3q-10 4 -16.5 10t-14.5 12l-5 5q-15 11 -27.5 25t-27.5 25l-6 6t-6 7q-5 4 -9.5 8.5l-9.5 9.5l-7.5 7.5t-3.5 11.5q2 3 3.5 4.5t4.5 3.5q4 1 7 1t7 1z" />
    <glyph glyph-name="Atilde" unicode="&#xc3;" horiz-adv-x="685" 
d="M673 48q-2 3 -2 5.5t-2 5.5q-13 31 -24 63t-24 64q-3 8 -5 15.5t-6 15.5l-12 32l-12 32q-2 4 -2.5 7.5t-2.5 7.5q-21 50 -38.5 101t-37.5 101q-8 20 -15 39.5t-15 39.5l-4 12l-4 12q-7 17 -13 33.5t-13 33.5q-5 12 -8.5 23.5t-14.5 17.5q-7 5 -18.5 4.5t-22.5 -0.5h-88
q-2 -1 -4 -0.5t-4 -0.5q-8 -2 -13 -5q-9 -7 -12.5 -18.5t-8.5 -22.5q-9 -21 -17 -43l-16 -43q-2 -5 -3 -9t-3 -9q-23 -55 -42.5 -111t-42.5 -111q-8 -20 -15 -39.5t-15 -39.5l-16 -43l-16 -43q-4 -8 -6 -16t-6 -16q-9 -23 -17.5 -47t-18.5 -47q-2 -4 -4 -10t-3.5 -12.5
t-1 -12.5t5.5 -9q8 -5 26.5 -4.5t31.5 0.5q9 0 21 -0.5t23.5 -0.5t21 1.5t14.5 5.5q8 6 11.5 17t7.5 21q7 18 12.5 36.5t13.5 35.5q4 10 7 20t11 16q11 8 30.5 7.5t36.5 -0.5h158q5 0 9.5 -0.5t9.5 -0.5q10 -2 16 -6.5t9 -10.5t5.5 -13.5l5.5 -16.5q6 -15 11.5 -31l10.5 -32
q4 -9 6.5 -18t7.5 -17q5 -9 16 -12q6 -2 12.5 -1.5t14.5 0.5h47q12 0 30.5 -1t26.5 4q6 3 7 9t-0.5 12.5t-4 12.5t-3.5 10zM414 277q-8 -2 -19 -2h-20h-76q-12 0 -23.5 1t-16.5 8q-4 10 -1 18q3 11 6 20.5t7 19.5q11 29 20.5 58t21.5 57q5 13 8.5 27t11.5 24q2 2 4 3t4 3
q6 0 10 -5t7 -11.5t5 -14t4 -12.5q14 -35 25 -70t24 -69q2 -4 2 -7.5t2 -7.5q5 -11 6 -23t-12 -17zM481 910q17 1 27.5 -4.5t5.5 -23.5q-2 -3 -2.5 -6t-1.5 -5q-8 -17 -18 -32.5t-25 -25.5q-11 -7 -30 -12q-9 -3 -25 -3t-26 3q-8 2 -14.5 2.5t-14.5 2.5q-14 5 -28.5 9.5
t-28.5 9.5q-7 2 -13.5 2.5t-13.5 2.5q-8 2 -16 0q-2 -1 -7 -1q-5 -2 -8 -4.5t-7 -4.5l-3 -3q-5 -6 -10.5 -13.5t-13.5 -10.5q-11 -5 -24 -2.5t-17 10.5q-2 5 -1 11t3 10q4 11 8 20.5t10 18.5q19 28 49 41q5 2 10.5 2.5t10.5 2.5q10 2 24 2.5t24 -2.5q19 -5 35.5 -12
t33.5 -12q8 -3 15 -4t15 -3q6 -1 13 1t11.5 2.5t9.5 3.5q7 4 11.5 10t11.5 11q5 3 12 5q2 1 4 0.5t4 0.5z" />
    <glyph glyph-name="Otilde" unicode="&#xd5;" horiz-adv-x="778" 
d="M738 381v8q-1 5 -0.5 11.5t-1.5 12.5t-2 12.5t-2 13.5q-3 11 -5 21.5t-5 20.5l-9.5 28t-10.5 27q-8 19 -19 35.5l-22 32.5q-4 5 -9 10.5l-10 10.5q-9 12 -23 23.5t-27 20.5q-41 29 -93 45.5t-123 14.5q-2 -1 -5.5 0t-5.5 0l-30 -3q-5 -1 -9.5 -1t-9.5 -2q-14 -4 -28.5 -7
t-27.5 -8q-56 -23 -95 -55t-69 -80q-10 -15 -17 -32t-15 -34q-6 -16 -9 -32.5t-8 -33.5q-2 -5 -2 -10.5t-2 -10.5q-2 -6 -1.5 -12.5t-1.5 -13.5v-6q-1 -5 0 -9.5t0 -9.5q-2 -5 -2 -15.5t2 -15.5q1 -6 0 -12.5t0 -12.5q2 -4 1.5 -8.5t0.5 -9.5q2 -8 3 -15.5t3 -14.5
q1 -4 1 -7.5t2 -8.5q5 -16 9 -31.5t10 -29.5q26 -60 67.5 -103.5t101.5 -69.5q11 -5 22.5 -9l22.5 -8q8 -2 16 -3.5t16 -3.5t15 -2.5t15 -2.5h11q5 -1 9.5 -0.5t9.5 -0.5q3 -1 13 -1.5t14 0.5l33 3q5 1 10.5 1t10.5 2l22 4t22 6q75 25 126 71.5t81 116.5q7 16 11.5 33
l9.5 35q2 7 3 14t3 14q2 11 2 22t2 21v13q2 6 1.5 20.5t-2.5 20.5zM583 339v-8v-9.5t-1 -8.5l-3 -24q-4 -13 -6.5 -26t-7.5 -24q-17 -43 -41.5 -70t-67.5 -44q-9 -4 -19 -5.5t-20 -3.5q-5 -2 -9 -1.5t-9 -0.5h-8h-13t-12 2q-5 1 -9.5 0.5t-9.5 1.5q-14 4 -26.5 8t-23.5 11
l-11.5 6t-10.5 8q-24 17 -40 44.5t-27 59.5q-4 10 -5.5 21t-4.5 22q0 4 -0.5 7.5t-0.5 7.5q-1 4 -1 8.5t-1 8.5v11q-2 5 -1.5 18.5t2.5 18.5q1 5 0 11t1 11q1 4 1 7.5t1 7.5q3 11 4.5 21.5t4.5 21.5q15 45 39.5 77t66.5 50q9 4 19.5 6.5t21.5 4.5q5 2 9 1.5t8 0.5
q2 1 4.5 0.5t4.5 0.5q74 0 115.5 -31.5t63.5 -82.5q5 -11 8 -22l6 -22q2 -6 2 -11q2 -7 2.5 -14.5t2.5 -15.5q2 -4 1.5 -7.5t0.5 -7.5v-17q2 -5 2 -14.5t-2 -14.5zM528 910q17 1 27.5 -4.5t5.5 -23.5q-2 -3 -2.5 -6t-1.5 -5q-8 -17 -18 -32.5t-25 -25.5q-11 -7 -30 -12
q-9 -3 -25 -3t-26 3q-8 2 -14.5 2.5t-14.5 2.5q-14 5 -28.5 9.5t-28.5 9.5q-7 2 -13.5 2.5t-13.5 2.5q-8 2 -16 0q-2 -1 -7 -1q-5 -2 -8 -4.5t-7 -4.5l-3 -3q-5 -6 -10.5 -13.5t-13.5 -10.5q-11 -5 -24 -2.5t-17 10.5q-2 5 -1 11t3 10q4 11 8 20.5t10 18.5q19 28 49 41
q5 2 10.5 2.5t10.5 2.5q10 2 24 2.5t24 -2.5q19 -5 35.5 -12t33.5 -12q8 -3 15 -4t15 -3q6 -1 13 1t11.5 2.5t9.5 3.5q7 4 11.5 10t11.5 11q5 3 12 5q2 1 4 0.5t4 0.5z" />
    </font>
</defs>
</svg>
